osu file format v14

[General]
AudioFilename: audio.mp3
AudioLeadIn: 0
PreviewTime: 24276
Countdown: 1
SampleSet: Soft
StackLeniency: 0.7
Mode: 0
LetterboxInBreaks: 0
WidescreenStoryboard: 1

[Editor]
Bookmarks: 14376,25176
DistanceSpacing: 1
BeatDivisor: 4
GridSize: 8
TimelineZoom: 1.8

[Metadata]
Title:Pragnienie Szypkosci
TitleUnicode:Pragnienie Szypkości
Artist:MADD
ArtistUnicode:MADD
Creator:XVoIR
Version:Normal Love
Source:
Tags:akcent pragnienie miłości bootleg
BeatmapID:1802931
BeatmapSetID:835217

[Difficulty]
HPDrainRate:2.5
CircleSize:2
OverallDifficulty:2.7
ApproachRate:4.5
SliderMultiplier:1.09999990463257
SliderTickRate:1

[Events]
//Background and Video events
0,0,"bg roku.jpg",0,0
//Break Periods
//Storyboard Layer 0 (Background)
//Storyboard Layer 1 (Fail)
//Storyboard Layer 2 (Pass)
//Storyboard Layer 3 (Foreground)
//Storyboard Sound Samples

[TimingPoints]
-24,300,4,2,0,100,1,0
4776,-133.333333333333,4,2,0,100,0,0
24276,-500,4,2,0,100,0,0
24501,-500,4,2,0,5,0,0
24576,-500,4,2,0,100,0,0
24801,-500,4,2,0,5,0,0
24876,-500,4,2,0,100,0,0
25101,-500,4,2,0,5,0,0
25176,-100,4,2,0,100,0,1
44376,-66.6666666666667,4,2,0,100,0,0

[Colours]
Combo1 : 161,151,154
Combo2 : 121,96,147
Combo3 : 82,164,171

[HitObjects]
256,192,51,12,0,3576,0:0:0:0:
342,164,4776,6,0,P|291:169|189:95,1,164.999991989136,4|0,3:1|3:0,0:0:0:0:
142,28,5676,1,0,3:0:0:0:
75,101,5976,2,0,L|64:185,1,82.4999959945678,0|0,3:0|3:0,0:0:0:0:
161,205,6576,2,0,L|172:289,1,82.4999959945678,0|0,3:0|3:0,0:0:0:0:
189,384,7176,6,0,B|245:372|245:372|264:376|264:376|350:358,1,164.999991989136,2|0,3:1|3:0,0:0:0:0:
446,332,8076,1,0,3:0:0:0:
494,245,8376,2,0,P|501:211|480:153,1,82.4999959945678,0|0,3:0|3:0,0:0:0:0:
389,172,8976,2,0,P|369:143|314:116,1,82.4999959945678,0|0,3:0|3:0,0:0:0:0:
279,121,9426,1,0,3:0:0:0:
230,128,9576,6,0,P|180:131|107:48,1,164.999991989136,2|0,3:1|3:0,0:0:0:0:
205,33,10476,1,0,3:0:0:0:
302,13,10776,2,0,L|389:24,1,82.4999959945678,0|0,3:0|3:0,0:0:0:0:
418,116,11376,2,0,L|331:127,1,82.4999959945678,0|0,3:0|3:0,0:0:0:0:
292,215,11976,6,0,B|284:266|293:285|293:285|286:306|286:306|295:339|279:377,1,164.999991989136,2|0,3:1|3:0,0:0:0:0:
184,346,12876,1,0,3:0:0:0:
97,297,13176,2,0,P|73:257|58:213,1,82.4999959945678,2|0,3:1|3:0,0:0:0:0:
156,199,13776,2,0,P|180:159|195:115,1,82.4999959945678,0|0,3:0|3:0,0:0:0:0:
206,77,14226,1,0,0:0:0:0:
224,30,14376,6,0,L|387:54,1,164.999991989136,4|0,3:1|3:0,0:0:0:0:
484,75,15276,1,0,3:0:0:0:
421,151,15576,2,0,P|413:182|414:243,1,82.4999959945678,0|0,3:0|3:0,0:0:0:0:
318,262,16176,2,0,P|329:291|365:341,1,82.4999959945678,0|0,3:0|3:0,0:0:0:0:
454,353,16776,6,0,P|400:332|290:350,1,164.999991989136,2|0,3:1|3:0,0:0:0:0:
202,314,17676,1,0,3:0:0:0:
139,236,17976,2,0,P|118:190|111:147,1,82.4999959945678,0|0,3:0|3:0,0:0:0:0:
207,134,18576,2,0,P|224:86|250:51,1,82.4999959945678,4|4,3:2|3:2,0:0:0:0:
279,28,19026,1,4,3:2:0:0:
325,11,19176,6,0,P|371:6|485:62,1,164.999991989136,4|0,3:1|3:0,0:0:0:0:
509,146,20076,1,0,3:0:0:0:
454,228,20376,2,0,P|416:239|372:231,1,82.4999959945678,4|0,3:2|3:0,0:0:0:0:
275,223,20976,2,0,P|237:212|193:220,1,82.4999959945678,0|0,3:0|3:0,0:0:0:0:
100,247,21576,6,0,L|90:339,2,82.4999959945678,4|0|4,3:1|3:0|3:2,0:0:0:0:
109,148,22476,1,0,3:0:0:0:
122,49,22776,6,0,L|214:36,1,82.4999959945678,4|4,3:1|3:2,0:0:0:0:
308,37,23376,2,0,L|390:49,1,82.4999959945678,4|4,3:2|3:2,0:0:0:0:
390,148,23976,1,4,3:1:0:0:
389,149,25176,6,0,L|379:285,1,109.999990463257,4|0,3:1|3:0,0:0:0:0:
270,259,25776,2,0,L|261:149,1,109.999990463257,0|0,3:0|3:0,0:0:0:0:
151,147,26376,2,0,L|141:283,1,109.999990463257,4|0,3:2|3:0,0:0:0:0:
32,257,26976,2,0,L|23:147,1,109.999990463257,0|0,3:0|3:0,0:0:0:0:
17,92,27426,1,2,0:1:0:0:
15,37,27576,6,0,B|66:28|66:28|132:38,1,109.999990463257,4|0,3:1|3:0,0:0:0:0:
230,65,28176,2,0,B|281:74|281:74|347:64,1,109.999990463257,0|0,3:0|3:0,0:0:0:0:
447,47,28776,2,0,P|434:98|444:166,1,109.999990463257,4|0,3:2|3:0,0:0:0:0:
462,262,29376,2,0,P|475:313|465:381,1,109.999990463257,4|0,3:2|3:0,0:0:0:0:
414,362,29826,1,2,0:1:0:0:
359,351,29976,6,0,B|291:341|291:341|240:350,1,109.999990463257,4|0,3:1|3:0,0:0:0:0:
142,370,30576,2,0,L|110:238,1,109.999990463257,0|0,3:0|3:0,0:0:0:0:
110,153,31176,2,0,B|178:163|178:163|229:154,1,109.999990463257,4|0,3:2|3:0,0:0:0:0:
325,129,31776,2,0,L|299:22,1,109.999990463257,0|0,3:0|3:0,0:0:0:0:
244,28,32226,1,2,0:1:0:0:
189,32,32376,6,0,P|133:36|85:65,1,109.999990463257,4|0,3:1|3:0,0:0:0:0:
165,139,32976,2,0,P|140:189|141:245,1,109.999990463257,4|0,3:2|3:0,0:0:0:0:
247,215,33576,2,0,P|278:261|327:288,1,109.999990463257,4|0,3:1|3:0,0:0:0:0:
434,277,34176,1,0,3:0:0:0:
406,170,34476,1,0,3:0:0:0:
391,116,34626,1,2,0:1:0:0:
377,63,34776,6,0,L|267:51,1,109.999990463257,4|0,3:1|3:0,0:0:0:0:
222,151,35376,2,0,L|112:163,1,109.999990463257,0|0,3:0|3:0,0:0:0:0:
54,256,35976,2,0,P|77:325|120:359,1,109.999990463257,4|0,3:2|3:0,0:0:0:0:
213,349,36576,2,0,P|249:308|262:255,1,109.999990463257,4|0,3:2|3:0,0:0:0:0:
262,200,37026,1,2,0:1:0:0:
263,145,37176,6,0,P|301:133|381:150,1,109.999990463257,4|0,3:1|3:0,0:0:0:0:
448,220,37776,2,0,B|467:253|467:253|456:340,1,109.999990463257,0|0,3:0|3:0,0:0:0:0:
362,378,38376,2,0,P|324:390|244:373,1,109.999990463257,4|0,3:2|3:0,0:0:0:0:
178,302,38976,2,0,B|159:269|159:269|170:182,1,109.999990463257,4|0,3:2|3:0,0:0:0:0:
179,143,39426,1,2,0:1:0:0:
191,89,39576,6,0,L|75:73,2,109.999990463257,4|0|0,3:1|3:0|3:0,0:0:0:0:
300,103,40476,1,0,3:0:0:0:
409,112,40776,2,0,P|429:166|415:234,1,109.999990463257,4|0,3:2|3:0,0:0:0:0:
317,249,41376,2,0,P|280:293|214:315,1,109.999990463257,0|0,3:0|3:0,0:0:0:0:
178,322,41826,1,2,0:1:0:0:
123,328,41976,6,0,B|102:297|102:297|108:202,1,109.999990463257,4|0,3:1|3:0,0:0:0:0:
211,189,42576,2,0,B|232:158|232:158|226:63,1,109.999990463257,4|0,3:2|3:0,0:0:0:0:
337,79,43176,6,0,P|363:84|391:84,1,54.9999952316285,4|4,3:1|0:2,0:0:0:0:
445,76,43476,2,0,P|471:70|499:70,1,54.9999952316285,0|4,3:0|0:2,0:0:0:0:
500,125,43776,1,0,3:0:0:0:
492,179,43926,1,4,0:2:0:0:
484,233,44076,1,0,3:0:0:0:
477,287,44226,1,4,0:2:0:0:
