osu file format v14

[General]
AudioFilename: audio.mp3
AudioLeadIn: 0
PreviewTime: 24276
Countdown: 1
SampleSet: Soft
StackLeniency: 0.7
Mode: 0
LetterboxInBreaks: 0
WidescreenStoryboard: 1

[Editor]
Bookmarks: 14376,25176
DistanceSpacing: 1.2
BeatDivisor: 4
GridSize: 8
TimelineZoom: 1.8

[Metadata]
Title:Pragnienie Szypkosci
TitleUnicode:Pragnienie Szypkości
Artist:MADD
ArtistUnicode:MADD
Creator:XVoIR
Version:Insane Love
Source:
Tags:akcent pragnienie miłości bootleg
BeatmapID:1752023
BeatmapSetID:835217

[Difficulty]
HPDrainRate:4.5
CircleSize:3
OverallDifficulty:7
ApproachRate:8.7
SliderMultiplier:1.99999990463257
SliderTickRate:1

[Events]
//Background and Video events
0,0,"bg roku.jpg",0,0
//Break Periods
//Storyboard Layer 0 (Background)
//Storyboard Layer 1 (Fail)
//Storyboard Layer 2 (Pass)
//Storyboard Layer 3 (Foreground)
//Storyboard Sound Samples

[TimingPoints]
-24,300,4,2,0,100,1,0
4776,-133.333333333333,4,2,0,100,0,0
24276,-500,4,2,0,100,0,0
24501,-500,4,2,0,5,0,0
24576,-500,4,2,0,100,0,0
24801,-500,4,2,0,5,0,0
24876,-500,4,2,0,100,0,0
25101,-500,4,2,0,5,0,0
25176,-86.9565217391304,4,2,0,100,0,1
44376,-66.6666666666667,4,2,0,100,0,0

[Colours]
Combo1 : 161,151,154
Combo2 : 121,96,147
Combo3 : 82,164,171

[HitObjects]
256,192,51,12,0,4476,0:0:0:0:
265,117,4776,6,0,B|212:108|212:108|180:113|180:113|91:99,1,149.999998569489,4|0,3:1|3:0,0:0:0:0:
65,178,5226,1,0,0:0:0:0:
102,258,5376,2,0,P|118:292|127:329,1,74.9999992847443,0|0,3:0|0:0,0:0:0:0:
221,289,5676,2,0,P|229:252|245:218,1,74.9999992847443,0|0,3:0|0:0,0:0:0:0:
331,176,5976,5,0,3:0:0:0:
336,276,6126,1,0,0:0:0:0:
422,228,6276,5,0,3:0:0:0:
417,128,6426,1,0,0:0:0:0:
353,40,6576,6,0,B|317:42|317:42|269:59,1,74.9999992847443,0|0,3:0|0:0,0:0:0:0:
148,136,6876,2,0,B|184:134|184:134|232:117,1,74.9999992847443,0|0,3:0|0:0,0:0:0:0:
141,47,7176,6,0,P|86:71|65:168,1,149.999998569489,2|0,3:1|3:0,0:0:0:0:
119,220,7626,1,0,0:0:0:0:
197,264,7776,2,0,B|213:278|213:278|230:328,1,74.9999992847443,0|0,3:0|0:0,0:0:0:0:
321,329,8076,2,0,B|337:315|337:315|358:253,1,74.9999992847443,0|0,3:0|0:0,0:0:0:0:
376,176,8376,5,0,3:0:0:0:
464,226,8526,1,0,0:0:0:0:
459,133,8676,2,0,L|432:54,1,74.9999992847443,0|0,3:0|0:0,0:0:0:0:
337,63,8976,5,0,3:0:0:0:
319,55,9051,1,0,0:0:0:0:
302,49,9126,1,0,0:0:0:0:
283,45,9201,1,0,0:0:0:0:
265,44,9276,2,0,P|215:45|174:59,1,74.9999992847443,0|0,3:0|3:0,0:0:0:0:
189,142,9576,6,0,P|145:133|105:20,1,149.999998569489,2|0,3:1|3:0,0:0:0:0:
191,51,10026,1,0,0:0:0:0:
289,140,10176,2,0,B|279:185|279:185|254:214,1,74.9999992847443,0|0,3:0|0:0,0:0:0:0:
149,313,10476,2,0,B|159:268|159:268|184:239,1,74.9999992847443,0|0,3:0|0:0,0:0:0:0:
247,311,10776,5,0,3:0:0:0:
340,258,10926,1,0,0:0:0:0:
450,300,11076,5,0,3:0:0:0:
357,353,11226,1,0,0:0:0:0:
340,258,11376,2,0,L|357:176,1,74.9999992847443,0|0,3:0|0:0,0:0:0:0:
444,122,11676,2,0,L|461:204,1,74.9999992847443,0|0,3:0|0:0,0:0:0:0:
356,98,11976,6,0,L|191:86,1,149.999998569489,2|0,3:1|3:0,0:0:0:0:
123,31,12426,1,0,0:0:0:0:
55,106,12576,2,0,P|91:133|110:167,1,74.9999992847443,0|0,3:0|0:0,0:0:0:0:
192,179,12876,2,0,P|186:223|166:257,1,74.9999992847443,0|0,3:0|0:0,0:0:0:0:
62,258,13176,5,2,3:1:0:0:
64,276,13251,1,0,0:0:0:0:
67,295,13326,1,0,0:0:0:0:
70,313,13401,1,0,0:0:0:0:
73,332,13476,2,0,L|169:341,1,74.9999992847443,0|0,3:0|0:0,0:0:0:0:
241,303,13776,2,0,L|337:294,1,74.9999992847443,0|0,3:0|0:0,0:0:0:0:
401,345,14076,1,0,3:0:0:0:
438,243,14226,1,0,0:0:0:0:
453,141,14376,6,0,P|423:97|330:73,1,149.999998569489,4|0,3:1|3:0,0:0:0:0:
252,114,14826,1,0,0:0:0:0:
164,135,14976,2,0,B|122:137|122:137|81:131,1,74.9999992847443,0|0,3:0|0:0,0:0:0:0:
223,203,15276,2,0,B|265:201|265:201|306:207,1,74.9999992847443,0|0,3:0|0:0,0:0:0:0:
381,234,15576,5,0,3:0:0:0:
349,335,15726,1,0,0:0:0:0:
452,306,15876,2,0,P|478:271|480:220,1,74.9999992847443,0|0,3:0|0:0,0:0:0:0:
297,205,16176,2,0,P|271:240|269:291,1,74.9999992847443,0|0,3:0|0:0,0:0:0:0:
402,141,16476,2,0,L|387:59,1,74.9999992847443,0|0,3:0|0:0,0:0:0:0:
293,41,16776,6,0,B|241:42|241:42|225:37|225:37|122:40,1,149.999998569489,2|0,3:1|3:0,0:0:0:0:
98,126,17226,1,0,0:0:0:0:
133,219,17376,2,0,L|216:194,1,74.9999992847443,0|0,3:0|0:0,0:0:0:0:
265,270,17676,2,0,L|348:295,1,74.9999992847443,0|0,3:0|0:0,0:0:0:0:
422,318,17976,5,0,3:0:0:0:
370,202,18126,1,0,0:0:0:0:
444,140,18276,2,0,P|465:182|464:223,1,74.9999992847443,0|0,3:0|0:0,0:0:0:0:
315,110,18576,6,0,P|294:68|295:27,1,74.9999992847443,4|0,3:2|0:0,0:0:0:0:
370,202,18876,1,4,3:2:0:0:
198,143,19026,1,4,3:2:0:0:
92,228,19176,6,0,B|132:217|163:230|163:230|200:244|240:228,1,149.999998569489,4|0,3:1|3:0,0:0:0:0:
316,286,19626,1,0,0:0:0:0:
287,371,19776,2,0,P|249:346|229:306,1,74.9999992847443,0|0,3:0|0:0,0:0:0:0:
369,236,20076,2,0,P|347:266|315:285,1,74.9999992847443,0|0,3:0|0:0,0:0:0:0:
310,167,20376,5,4,3:2:0:0:
425,161,20526,1,0,0:0:0:0:
257,75,20676,5,0,3:0:0:0:
372,81,20826,1,0,0:0:0:0:
228,77,20976,2,0,P|178:83|126:102,1,74.9999992847443,0|0,3:0|0:0,0:0:0:0:
112,206,21276,2,0,P|162:200|214:181,1,74.9999992847443,0|0,3:0|0:0,0:0:0:0:
25,131,21576,6,0,B|14:221|14:221|19:243|19:243|12:284,1,149.999998569489,4|0,3:1|3:0,0:0:0:0:
86,359,22026,1,0,0:0:0:0:
223,286,22176,6,0,B|234:196|234:196|229:174|229:174|236:133,1,149.999998569489,4|0,3:2|3:0,0:0:0:0:
161,68,22626,1,0,0:0:0:0:
261,42,22776,6,0,L|344:55,1,74.9999992847443,4|0,3:1|0:0,0:0:0:0:
512,91,23076,2,0,L|437:102,1,74.9999992847443,4|0,3:2|0:0,0:0:0:0:
343,157,23376,5,4,3:2:0:0:
353,178,23526,1,0,0:0:0:0:
363,199,23676,1,4,3:2:0:0:
373,220,23826,1,0,0:0:0:0:
432,372,23976,5,4,3:1:0:0:
211,290,24276,2,0,L|165:285,2,39.9999980926514,2|2|0,0:1|0:1|0:1,0:0:0:0:
356,225,25176,6,0,L|116:196,1,229.999993419647,4|0,3:1|3:0,0:0:0:0:
63,113,25626,1,2,0:1:0:0:
63,113,25701,1,0,0:0:0:0:
63,113,25776,2,0,P|71:77|138:27,1,114.999996709824,0|2,3:0|0:1,0:0:0:0:
304,17,26076,2,0,P|296:53|229:103,1,114.999996709824,0|2,3:0|0:1,0:0:0:0:
371,133,26376,6,0,P|439:124|511:258,1,229.999993419647,4|0,3:2|3:0,0:0:0:0:
449,333,26826,1,2,0:1:0:0:
341,318,26976,2,0,L|206:298,1,114.999996709824,0|2,3:0|0:1,0:0:0:0:
13,214,27276,2,0,L|148:194,1,114.999996709824,0|2,3:0|0:1,0:0:0:0:
350,166,27576,6,0,B|291:172|249:146|249:146|216:104|215:14,1,229.999993419647,4|0,3:1|3:0,0:0:0:0:
368,74,28026,1,2,0:1:0:0:
368,74,28101,1,0,0:0:0:0:
368,74,28176,2,0,P|430:105|444:131,1,57.4999983549118,0|0,3:0|0:0,0:0:0:0:
402,186,28326,2,0,P|340:155|326:129,1,57.4999983549118,2|0,0:1|0:0,0:0:0:0:
488,155,28476,2,0,L|486:214,1,57.4999983549118,0|0,3:0|0:0,0:0:0:0:
418,336,28626,2,0,L|416:277,1,57.4999983549118,2|0,0:1|0:0,0:0:0:0:
327,286,28776,6,0,B|266:303|216:271|216:271|163:239|84:273,1,229.999993419647,4|0,3:2|3:0,0:0:0:0:
3,323,29226,1,2,0:1:0:0:
157,350,29376,2,0,L|177:215,1,114.999996709824,4|2,3:2|0:1,0:0:0:0:
58,186,29676,2,0,L|38:51,1,114.999996709824,0|2,3:0|0:1,0:0:0:0:
140,8,29976,6,0,L|178:267,1,229.999993419647,4|0,3:1|3:0,0:0:0:0:
269,277,30426,1,2,0:1:0:0:
269,277,30501,1,0,0:0:0:0:
269,277,30576,2,0,P|308:268|333:247,1,57.4999983549118,0|0,3:0|0:0,0:0:0:0:
391,307,30726,2,0,P|412:273|415:240,1,57.4999983549118,2|0,0:1|0:0,0:0:0:0:
420,165,30876,2,0,P|381:174|356:195,1,57.4999983549118,0|0,3:0|0:0,0:0:0:0:
298,135,31026,2,0,P|276:168|273:201,1,57.4999983549118,2|0,0:1|0:0,0:0:0:0:
176,187,31176,6,0,P|194:113|318:19,1,229.999993419647,4|0,3:2|3:0,0:0:0:0:
411,65,31626,1,2,0:1:0:0:
303,18,31776,2,0,B|240:15|240:15|160:30,1,114.999996709824,0|2,3:0|0:1,0:0:0:0:
138,132,32076,2,0,B|75:135|75:135|-5:120,1,114.999996709824,0|2,3:0|0:1,0:0:0:0:
77,32,32376,6,0,P|105:94|46:251,1,229.999993419647,4|0,3:1|3:0,0:0:0:0:
86,356,32826,1,2,0:1:0:0:
86,356,32901,1,0,0:0:0:0:
86,356,32976,2,0,B|105:352|105:352|143:326,1,57.4999983549118,4|0,3:2|0:0,0:0:0:0:
216,362,33126,2,0,B|226:345|226:345|235:300,1,57.4999983549118,2|0,0:1|0:0,0:0:0:0:
325,293,33276,2,0,B|321:274|321:274|295:236,1,57.4999983549118,0|0,3:0|0:0,0:0:0:0:
331,163,33426,2,0,B|314:152|314:152|269:143,1,57.4999983549118,2|0,0:1|0:0,0:0:0:0:
227,45,33576,6,0,L|458:86,1,229.999993419647,4|0,3:1|3:0,0:0:0:0:
475,195,34026,1,2,0:1:0:0:
325,293,34176,6,0,L|94:252,1,229.999993419647,0|0,3:0|3:0,0:0:0:0:
77,143,34626,1,2,0:1:0:0:
149,66,34776,6,0,P|175:173|99:253,1,229.999993419647,4|0,3:1|3:0,0:0:0:0:
22,351,35226,1,2,0:1:0:0:
22,351,35301,1,0,0:0:0:0:
22,351,35376,2,0,L|12:276,1,57.4999983549118,0|0,3:0|0:0,0:0:0:0:
123,315,35526,2,0,L|133:240,1,57.4999983549118,2|0,0:1|0:0,0:0:0:0:
229,304,35676,2,0,L|257:234,1,57.4999983549118,0|0,3:0|0:0,0:0:0:0:
334,323,35826,2,0,L|380:263,1,57.4999983549118,2|0,0:1|0:0,0:0:0:0:
470,273,35976,6,0,B|458:217|458:217|466:177|466:177|441:28,1,229.999993419647,4|0,3:2|3:0,0:0:0:0:
307,57,36426,1,2,0:1:0:0:
257,142,36576,2,0,P|218:98|206:27,1,114.999996709824,0|2,3:0|0:1,0:0:0:0:
417,175,36876,2,0,P|456:219|468:290,1,114.999996709824,0|2,3:0|0:1,0:0:0:0:
336,322,37176,6,0,L|101:292,1,229.999993419647,4|0,3:1|3:0,0:0:0:0:
75,172,37626,1,2,0:1:0:0:
75,172,37701,1,0,0:0:0:0:
75,172,37776,2,0,P|116:165|141:149,1,57.4999983549118,0|0,3:0|0:0,0:0:0:0:
211,117,37926,2,0,P|184:84|158:71,1,57.4999983549118,2|0,0:1|0:0,0:0:0:0:
96,30,38076,2,0,P|81:69|82:98,3,57.4999983549118,0|0|2|0,3:0|0:0|0:1|0:0,0:0:0:0:
211,117,38376,6,0,B|271:107|302:117|302:117|341:126|451:112,1,229.999993419647,4|0,3:2|3:0,0:0:0:0:
469,203,38826,1,2,0:1:0:0:
442,319,38976,2,0,B|401:303|401:303|346:243,1,114.999996709824,4|2,3:2|0:1,0:0:0:0:
209,261,39276,2,0,B|250:277|250:277|305:337,1,114.999996709824,0|2,3:0|0:1,0:0:0:0:
173,347,39576,6,0,P|124:299|200:166,1,229.999993419647,4|0,3:1|3:0,0:0:0:0:
301,134,40026,1,2,0:1:0:0:
301,134,40101,1,0,0:0:0:0:
301,134,40176,2,0,P|308:105|313:69,1,57.4999983549118,0|0,3:0|0:0,0:0:0:0:
199,77,40326,2,0,P|204:106|211:134,1,57.4999983549118,2|0,0:1|0:0,0:0:0:0:
284,221,40476,2,0,B|321:221|321:221|353:212,1,57.4999983549118,0|0,3:0|0:0,0:0:0:0:
450,137,40626,2,0,B|413:137|413:137|381:146,1,57.4999983549118,2|0,0:1|0:0,0:0:0:0:
433,226,40776,6,0,P|438:284|283:345,1,229.999993419647,4|0,3:2|3:0,0:0:0:0:
213,311,41226,1,2,0:1:0:0:
111,295,41376,2,0,P|47:304|8:359,1,114.999996709824,0|2,3:0|0:1,0:0:0:0:
213,311,41676,2,0,P|277:302|316:247,1,114.999996709824,0|2,3:0|0:1,0:0:0:0:
302,57,41976,6,0,P|236:88|245:238,1,229.999993419647,4|0,3:1|3:0,0:0:0:0:
425,228,42426,1,2,0:1:0:0:
425,228,42501,1,0,0:0:0:0:
425,228,42576,2,0,B|450:214|466:183,1,57.4999983549118,4|0,3:2|0:0,0:0:0:0:
369,146,42726,2,0,B|344:160|328:191,1,57.4999983549118,2|0,0:1|0:0,0:0:0:0:
351,273,42876,1,0,3:0:0:0:
489,308,43026,1,2,0:1:0:0:
358,377,43176,6,0,L|228:363,1,114.999996709824,4|4,3:1|0:2,0:0:0:0:
0,307,43476,2,0,L|130:293,1,114.999996709824,0|4,3:0|0:2,0:0:0:0:
253,286,43776,5,0,3:0:0:0:
187,129,43926,1,4,0:2:0:0:
266,286,44076,5,0,3:0:0:0:
321,89,44226,1,4,0:2:0:0:
