osu file format v14

[General]
AudioFilename: audio.mp3
AudioLeadIn: 0
PreviewTime: 24276
Countdown: 1
SampleSet: Soft
StackLeniency: 0.7
Mode: 0
LetterboxInBreaks: 0
WidescreenStoryboard: 1

[Editor]
Bookmarks: 14376,25176
DistanceSpacing: 0.9
BeatDivisor: 4
GridSize: 8
TimelineZoom: 1.8

[Metadata]
Title:Pragnienie Szypkosci
TitleUnicode:Pragnienie Szypkości
Artist:MADD
ArtistUnicode:MADD
Creator:XVoIR
Version:Extra Love
Source:
Tags:akcent pragnienie miłości bootleg
BeatmapID:1750426
BeatmapSetID:835217

[Difficulty]
HPDrainRate:5
CircleSize:2.5
OverallDifficulty:8
ApproachRate:9.2
SliderMultiplier:2.99999990463257
SliderTickRate:1

[Events]
//Background and Video events
0,0,"bg roku.jpg",0,0
//Break Periods
//Storyboard Layer 0 (Background)
//Storyboard Layer 1 (Fail)
//Storyboard Layer 2 (Pass)
//Storyboard Layer 3 (Foreground)
//Storyboard Sound Samples

[TimingPoints]
-24,300,4,2,0,100,1,0
4776,-133.333333333333,4,2,0,100,0,0
24276,-500,4,2,0,100,0,0
24501,-500,4,2,0,5,0,0
24576,-500,4,2,0,100,0,0
24801,-500,4,2,0,5,0,0
24876,-500,4,2,0,100,0,0
25101,-500,4,2,0,5,0,0
25176,-80,4,2,0,100,0,1
44376,-66.6666666666667,4,2,0,100,0,0

[Colours]
Combo1 : 161,151,154
Combo2 : 121,96,147
Combo3 : 82,164,171

[HitObjects]
256,192,51,12,0,4476,0:0:0:0:
266,113,4776,6,0,B|208:124|164:106|164:106|107:77|34:105,1,225.000001430512,4|0,3:1|3:0,0:0:0:0:
97,210,5226,1,0,0:0:0:0:
327,180,5376,2,0,P|359:128|355:73,1,112.500000715256,0|0,3:0|0:0,0:0:0:0:
217,220,5676,2,0,P|185:272|189:327,1,112.500000715256,0|0,3:0|0:0,0:0:0:0:
429,240,5976,5,0,3:0:0:0:
275,293,6126,1,0,0:0:0:0:
483,342,6276,1,0,3:0:0:0:
426,144,6426,1,0,0:0:0:0:
375,336,6576,5,0,3:0:0:0:
267,97,6726,2,0,P|222:99|191:110,1,56.2500003576279
117,198,6876,2,0,P|174:207|231:192,1,112.500000715256,0|0,3:0|0:0,0:0:0:0:
364,134,7176,6,0,P|426:114|502:243,1,225.000001430512,2|0,3:1|3:0,0:0:0:0:
375,337,7626,1,0,0:0:0:0:
311,214,7776,2,0,B|366:201|366:201|442:207,1,112.500000715256,0|0,3:0|0:0,0:0:0:0:
266,310,8076,2,0,B|211:323|211:323|135:317,1,112.500000715256,0|0,3:0|0:0,0:0:0:0:
0,290,8376,5,0,3:0:0:0:
204,235,8526,1,0,0:0:0:0:
87,142,8676,2,0,L|77:19,1,112.500000715256,0|0,3:0|0:0,0:0:0:0:
194,123,8976,5,0,3:0:0:0:
196,151,9051,1,0,0:0:0:0:
199,179,9126,1,0,0:0:0:0:
201,207,9201,1,0,0:0:0:0:
204,235,9276,1,0,3:0:0:0:
297,68,9426,1,0,3:0:0:0:
512,169,9576,6,0,B|447:162|447:162|393:172|393:172|277:158,1,225.000001430512,2|0,3:1|3:0,0:0:0:0:
323,274,10026,1,0,0:0:0:0:
426,364,10176,2,0,B|442:336|442:336|436:242,1,112.500000715256,0|0,3:0|0:0,0:0:0:0:
196,151,10476,2,0,B|180:179|180:179|186:273,1,112.500000715256,0|0,3:0|0:0,0:0:0:0:
244,361,10776,5,0,3:0:0:0:
92,292,10926,1,0,0:0:0:0:
345,253,11076,1,0,3:0:0:0:
149,367,11226,1,0,0:0:0:0:
197,149,11376,5,0,3:0:0:0:
336,344,11526,1,0,0:0:0:0:
466,185,11676,2,0,B|439:177|439:177|416:178|416:178|343:156,1,112.500000715256,0|0,3:0|0:0,0:0:0:0:
203,29,11976,6,0,L|461:100,1,225.000001430512,2|0,3:1|3:0,0:0:0:0:
435,277,12426,1,0,0:0:0:0:
269,259,12576,2,0,B|255:227|255:227|252:144,1,112.500000715256,0|0,3:0|0:0,0:0:0:0:
88,139,12876,2,0,B|102:107|102:107|104:29,1,112.500000715256,0|0,3:0|0:0,0:0:0:0:
26,244,13176,5,2,3:1:0:0:
67,234,13251,1,0,0:0:0:0:
108,239,13326,1,0,0:0:0:0:
147,256,13401,1,0,0:0:0:0:
178,284,13476,2,0,P|186:329|163:397,1,112.500000715256,0|0,3:0|0:0,0:0:0:0:
242,172,13776,5,0,3:0:0:0:
294,356,13926,1,0,0:0:0:0:
362,131,14076,5,0,3:0:0:0:
293,371,14226,1,0,0:0:0:0:
486,265,14376,6,0,B|467:193|467:193|479:136|479:136|454:23,1,225.000001430512,4|0,3:1|3:0,0:0:0:0:
252,68,14826,1,0,0:0:0:0:
271,190,14976,2,0,P|329:168|366:120,1,112.500000715256,0|0,3:0|0:0,0:0:0:0:
171,147,15276,2,0,P|113:169|76:217,1,112.500000715256,0|0,3:0|0:0,0:0:0:0:
220,384,15576,5,0,3:0:0:0:
176,242,15726,1,0,0:0:0:0:
105,341,15876,5,0,3:0:0:0:
290,284,16026,1,0,0:0:0:0:
171,147,16176,2,0,L|49:135,1,112.500000715256,0|0,3:0|0:0,0:0:0:0:
300,161,16476,5,0,3:0:0:0:
12,252,16626,1,0,0:0:0:0:
295,147,16776,6,0,B|350:175|398:151|398:151|454:122|519:147,1,225.000001430512,2|0,3:1|3:0,0:0:0:0:
461,242,17226,1,0,0:0:0:0:
344,61,17376,2,0,L|226:45,1,112.500000715256,0|0,3:0|0:0,0:0:0:0:
59,162,17676,2,0,L|177:146,1,112.500000715256,0|0,3:0|0:0,0:0:0:0:
237,253,17976,5,0,3:0:0:0:
212,53,18126,1,0,0:0:0:0:
144,269,18276,2,0,P|174:326|232:349,1,112.500000715256,0|0,3:0|0:0,0:0:0:0:
445,283,18576,5,4,3:2:0:0:
237,253,18726,1,0,0:0:0:0:
512,213,18876,5,4,3:2:0:0:
241,252,19026,1,4,3:2:0:0:
332,55,19176,6,0,B|365:99|341:167|341:167|320:230|355:291,1,225.000001430512,4|0,3:1|3:0,0:0:0:0:
484,374,19626,1,0,0:0:0:0:
280,343,19776,2,0,L|133:364,1,112.500000715256,0|0,3:0|0:0,0:0:0:0:
345,272,20076,2,0,L|456:256,1,112.500000715256,0|0,3:0|0:0,0:0:0:0:
251,218,20376,5,4,3:2:0:0:
318,27,20526,1,0,0:0:0:0:
185,141,20676,5,0,3:0:0:0:
383,103,20826,1,0,0:0:0:0:
218,45,20976,5,0,3:0:0:0:
383,237,21126,1,0,0:0:0:0:
319,28,21276,5,0,3:0:0:0:
235,266,21426,1,0,0:0:0:0:
13,238,21576,6,0,B|78:250|78:250|105:243|105:243|243:267,1,225.000001430512,4|0,3:1|3:0,0:0:0:0:
400,302,22026,1,0,0:0:0:0:
439,17,22176,6,0,B|374:29|374:29|347:22|347:22|209:46,1,225.000001430512,4|0,3:2|3:0,0:0:0:0:
52,81,22626,1,0,0:0:0:0:
103,295,22776,6,0,L|128:171,1,112.500000715256,4|0,3:1|0:0,0:0:0:0:
363,73,23076,2,0,L|385:183,1,112.500000715256,4|0,3:2|0:0,0:0:0:0:
256,336,23376,5,4,3:2:0:0:
256,72,23526,1,0,0:0:0:0:
386,184,23676,5,4,3:2:0:0:
256,40,23826,1,0,0:0:0:0:
125,184,23976,1,4,3:1:0:0:
397,272,24276,6,0,P|363:270|346:276,1,44.9999985694886,2|0,0:1|0:0,0:0:0:0:
277,366,24576,2,0,P|311:368|328:362,1,44.9999985694886,2|0,0:1|0:0,0:0:0:0:
254,240,24876,2,0,P|232:235|209:239,1,44.9999985694886,0|0,0:1|0:0,0:0:0:0:
80,297,25176,6,0,P|112:228|62:113,1,187.499994039536,4|2,3:1|0:1,0:0:0:0:
35,49,25401,1,0,0:0:0:0:
35,49,25476,2,0,P|101:41|162:88,1,93.7499970197678,0|0,3:0|0:0,0:0:0:0:
291,114,25626,2,0,P|225:122|164:75,1,93.7499970197678,2|0,0:1|0:0,0:0:0:0:
250,27,25776,5,0,3:0:0:0:
305,243,25926,1,2,0:1:0:0:
468,162,26076,1,0,3:0:0:0:
291,114,26226,1,2,0:1:0:0:
218,261,26376,6,0,P|292:333|381:291,1,187.499994039536,4|2,3:2|0:1,0:0:0:0:
432,238,26601,1,0,0:0:0:0:
432,238,26676,2,0,P|442:283|483:333,1,93.7499970197678,0|0,3:0|0:0,0:0:0:0:
512,201,26826,2,0,P|502:156|461:106,1,93.7499970197678,2|0,0:1|0:0,0:0:0:0:
402,53,26976,6,0,B|370:52|370:52|296:76,1,93.7499970197678,0|0,3:0|0:0,0:0:0:0:
292,168,27126,2,0,B|324:169|324:169|398:145,1,93.7499970197678,2|0,0:1|0:0,0:0:0:0:
216,105,27276,2,0,P|199:203|234:250,1,93.7499970197678,0|0,3:0|0:0,0:0:0:0:
257,344,27426,2,0,P|274:246|239:199,1,93.7499970197678,2|0,0:1|0:0,0:0:0:0:
0,298,27576,6,0,L|198:284,1,187.499994039536,4|2,3:1|0:1,0:0:0:0:
196,193,27801,1,0,0:0:0:0:
196,193,27876,2,0,B|152:193|152:193|72:169,1,93.7499970197678,0|0,3:0|0:0,0:0:0:0:
32,74,28026,2,0,B|76:74|76:74|156:98,1,93.7499970197678,2|0,0:1|0:0,0:0:0:0:
197,20,28176,5,0,3:0:0:0:
403,52,28326,1,2,0:1:0:0:
276,255,28476,1,0,3:0:0:0:
308,81,28626,1,2,0:1:0:0:
461,272,28776,6,0,B|418:265|418:265|360:271|360:271|261:252,1,187.499994039536,4|2,3:2|0:1,0:0:0:0:
165,227,29001,1,0,0:0:0:0:
165,227,29076,2,0,P|169:276|143:345,1,93.7499970197678,0|0,3:0|0:0,0:0:0:0:
73,259,29226,2,0,P|61:213|65:167,1,93.7499970197678,2|0,0:1|0:0,0:0:0:0:
148,102,29376,6,0,B|186:108|186:108|218:103|218:103|271:108,1,93.7499970197678,4|0,3:2|0:0,0:0:0:0:
387,35,29526,2,0,B|349:29|349:29|317:34|317:34|264:29,1,93.7499970197678,2|0,0:1|0:0,0:0:0:0:
379,125,29676,2,0,P|446:108|474:66,1,93.7499970197678,0|0,3:0|0:0,0:0:0:0:
304,186,29826,2,0,P|237:203|209:245,1,93.7499970197678,2|0,0:1|0:0,0:0:0:0:
484,287,29976,6,0,L|277:276,1,187.499994039536,4|2,3:1|0:1,0:0:0:0:
223,335,30201,1,0,0:0:0:0:
223,335,30276,2,0,B|192:347|192:347|92:342,1,93.7499970197678,0|0,3:0|0:0,0:0:0:0:
44,262,30426,2,0,B|75:250|75:250|175:255,1,93.7499970197678,2|0,0:1|0:0,0:0:0:0:
38,359,30576,5,0,3:0:0:0:
47,159,30726,1,2,0:1:0:0:
221,219,30876,1,0,3:0:0:0:
270,29,31026,1,2,0:1:0:0:
469,51,31176,6,0,B|416:36|371:49|371:49|317:62|251:22,1,187.499994039536,4|2,3:2|0:1,0:0:0:0:
168,71,31401,1,0,0:0:0:0:
168,71,31476,2,0,P|182:100|165:182,1,93.7499970197678,0|0,3:0|0:0,0:0:0:0:
21,182,31626,2,0,P|39:155|118:129,1,93.7499970197678,2|0,0:1|0:0,0:0:0:0:
189,256,31776,6,0,P|156:253|94:197,1,93.7499970197678,0|0,3:0|0:0,0:0:0:0:
261,198,31926,2,0,P|293:200|355:256,1,93.7499970197678,2|0,0:1|0:0,0:0:0:0:
271,289,32076,1,0,3:0:0:0:
442,341,32226,1,2,0:1:0:0:
500,225,32376,6,0,P|491:127|422:180,1,187.499994039536,4|2,3:1|0:1,0:0:0:0:
323,114,32601,1,0,0:0:0:0:
323,114,32676,2,0,P|388:35|402:29,1,93.7499970197678,0|0,3:0|0:0,0:0:0:0:
434,143,32826,2,0,P|369:222|355:228,1,93.7499970197678,2|0,0:1|0:0,0:0:0:0:
280,200,32976,6,0,B|248:190|248:190|224:194|224:194|172:179,1,93.7499970197678,4|0,3:2|0:0,0:0:0:0:
134,83,33126,2,0,B|166:93|166:93|190:89|190:89|242:104,1,93.7499970197678,2|0,0:1|0:0,0:0:0:0:
88,162,33276,2,0,P|40:94|41:66,1,93.7499970197678,0|0,3:0|0:0,0:0:0:0:
189,184,33426,2,0,P|237:252|236:280,1,93.7499970197678,2|0,0:1|0:0,0:0:0:0:
146,321,33576,6,0,P|108:292|92:152,1,187.499994039536,4|0,3:1|0:0,0:0:0:0:
134,83,33801,1,0,0:0:0:0:
134,83,33876,2,0,L|274:73,1,93.7499970197678,0|0,3:0|0:0,0:0:0:0:
282,190,34026,2,0,L|142:180,1,93.7499970197678,2|0,0:1|0:0,0:0:0:0:
346,114,34176,6,0,B|373:165|373:165|380:237,1,93.7499970197678,0|0,3:0|0:0,0:0:0:0:
458,121,34326,2,0,B|431:70|431:70|424:-2,1,93.7499970197678,2|0,0:1|0:0,0:0:0:0:
473,211,34476,1,0,3:0:0:0:
258,304,34626,1,2,0:1:0:0:
440,331,34776,6,0,B|379:316|379:316|344:323|344:323|243:300,1,187.499994039536,4|2,3:1|0:1,0:0:0:0:
131,273,35001,1,0,0:0:0:0:
131,273,35076,2,0,B|177:244|177:244|209:184,1,93.7499970197678,0|0,3:0|0:0,0:0:0:0:
134,83,35226,2,0,B|88:112|88:112|56:172,1,93.7499970197678,2|0,0:1|0:0,0:0:0:0:
227,123,35376,5,0,3:0:0:0:
45,157,35526,1,2,0:1:0:0:
356,189,35676,1,0,3:0:0:0:
174,223,35826,1,2,0:1:0:0:
408,274,35976,6,0,P|457:189|415:102,1,187.499994039536,4|2,3:2|0:1,0:0:0:0:
352,41,36201,1,0,0:0:0:0:
352,41,36276,2,0,P|319:107|332:162,1,93.7499970197678,0|0,3:0|0:0,0:0:0:0:
230,116,36426,2,0,P|253:186|301:215,1,93.7499970197678,2|0,0:1|0:0,0:0:0:0:
335,258,36576,6,0,P|269:291|214:278,1,93.7499970197678,0|0,3:0|0:0,0:0:0:0:
260,382,36726,2,0,P|189:358|160:310,1,93.7499970197678,2|0,0:1|0:0,0:0:0:0:
91,299,36876,2,0,L|101:185,1,93.7499970197678,0|0,3:0|0:0,0:0:0:0:
201,145,37026,2,0,L|191:31,1,93.7499970197678,2|0,0:1|0:0,0:0:0:0:
10,53,37176,6,0,B|77:32|108:52|108:52|139:71|220:42,1,187.499994039536,4|2,3:1|0:1,0:0:0:0:
318,28,37401,1,0,0:0:0:0:
318,28,37476,2,0,B|286:80|286:80|294:145,1,93.7499970197678,0|0,3:0|0:0,0:0:0:0:
373,222,37626,2,0,B|405:170|405:170|397:105,1,93.7499970197678,2|0,0:1|0:0,0:0:0:0:
316,300,37776,5,0,3:0:0:0:
291,117,37926,1,2,0:1:0:0:
201,247,38076,1,0,3:0:0:0:
192,51,38226,1,2,0:1:0:0:
84,150,38376,6,0,B|63:188|71:231|71:231|58:254|58:254|72:286|41:356,1,187.499994039536,4|2,3:2|0:1,0:0:0:0:
155,342,38601,1,0,0:0:0:0:
155,342,38676,2,0,B|191:346|191:346|266:330,1,93.7499970197678,0|0,3:0|0:0,0:0:0:0:
325,384,38826,2,0,B|346:354|346:354|370:281,1,93.7499970197678,2|0,0:1|0:0,0:0:0:0:
455,274,38976,6,0,B|440:240|440:240|389:183,1,93.7499970197678,4|0,3:2|0:0,0:0:0:0:
406,105,39126,2,0,B|370:101|370:101|295:117,1,93.7499970197678,2|0,0:1|0:0,0:0:0:0:
220,140,39276,1,0,3:0:0:0:
484,156,39426,1,2,0:1:0:0:
301,209,39576,6,0,L|61:167,1,187.499994039536,4|2,3:1|0:1,0:0:0:0:
23,235,39801,1,0,0:0:0:0:
23,235,39876,2,0,B|82:259|82:259|127:314,1,93.7499970197678,0|0,3:0|0:0,0:0:0:0:
268,334,40026,2,0,B|209:310|209:310|164:255,1,93.7499970197678,2|0,0:1|0:0,0:0:0:0:
247,94,40176,5,0,3:0:0:0:
302,235,40326,1,2,0:1:0:0:
394,117,40476,1,0,3:0:0:0:
154,211,40626,1,2,0:1:0:0:
411,115,40776,6,0,L|441:362,1,187.499994039536,4|2,3:2|0:1,0:0:0:0:
336,350,41001,1,0,0:0:0:0:
336,350,41076,2,0,B|342:310|342:310|332:224,1,93.7499970197678,0|0,3:0|0:0,0:0:0:0:
154,211,41226,2,0,B|148:251|148:251|158:337,1,93.7499970197678,2|0,0:1|0:0,0:0:0:0:
244,180,41376,6,0,P|183:121|155:116,1,93.7499970197678,0|0,3:0|0:0,0:0:0:0:
22,83,41526,2,0,P|83:142|111:147,1,93.7499970197678,2|0,0:1|0:0,0:0:0:0:
114,49,41676,1,0,3:0:0:0:
44,251,41826,1,2,0:1:0:0:
177,117,41976,6,0,B|249:113|249:113|282:124|282:124|408:118,1,187.499994039536,4|2,3:1|0:1,0:0:0:0:
447,153,42201,1,0,0:0:0:0:
447,153,42276,2,0,B|428:201|428:201|431:253,1,93.7499970197678,0|0,3:0|0:0,0:0:0:0:
327,250,42426,2,0,B|346:298|346:298|343:350,1,93.7499970197678,2|0,0:1|0:0,0:0:0:0:
440,337,42576,5,4,3:2:0:0:
255,312,42726,1,2,0:1:0:0:
362,120,42876,1,0,3:0:0:0:
177,145,43026,1,2,0:1:0:0:
62,340,43176,6,0,L|49:123,1,187.499994039536,4|4,3:1|0:2,0:0:0:0:
266,124,43476,2,0,L|253:341,1,187.499994039536,0|4,3:0|0:2,0:0:0:0:
174,143,43776,5,0,3:0:0:0:
358,226,43926,1,4,0:2:0:0:
98,307,44076,1,0,3:0:0:0:
390,220,44226,1,4,0:2:0:0:
