osu file format v14

[General]
AudioFilename: audio.mp3
AudioLeadIn: 0
PreviewTime: 21735
Countdown: 0
SampleSet: Normal
StackLeniency: 0.7
Mode: 1
LetterboxInBreaks: 0
WidescreenStoryboard: 0

[Editor]
DistanceSpacing: 2.6
BeatDivisor: 12
GridSize: 16
TimelineZoom: 1.3

[Metadata]
Title:Voice 2 Voice
TitleUnicode:Voice 2 Voice
Artist:MAD CHILD
ArtistUnicode:MAD CHILD
Creator:Peaceful
Version:Kantan
Source:SOUND VOLTEX II -infinite infection-
Tags:Rasis レイシス SDVX BEMANI MetalStream Voice2Voice V2V video game instrumental The 8th KONAMI Arcade Championship KAC AUTOMATION PARADISE SPECIAL MIX
BeatmapID:2168200
BeatmapSetID:1037062

[Difficulty]
HPDrainRate:8
CircleSize:5
OverallDifficulty:3
ApproachRate:5
SliderMultiplier:1.4
SliderTickRate:1

[Events]
//Background and Video events
0,0,"508597.jpg",0,-130
//Break Periods
//Storyboard Layer 0 (Background)
//Storyboard Layer 1 (Fail)
//Storyboard Layer 2 (Pass)
//Storyboard Layer 3 (Foreground)
//Storyboard Layer 4 (Overlay)
//Storyboard Sound Samples

[TimingPoints]
1672,419.58041958042,4,1,0,65,1,0
21811,-100,4,1,0,65,0,1
48665,-100,4,1,0,65,0,0
82231,-100,4,1,0,65,0,1
109084,-100,4,1,0,65,0,0

[HitObjects]
250,124,1672,5,8,0:0:0:0:
209,84,2511,1,0,0:0:0:0:
317,144,3350,1,8,0:0:0:0:
348,154,4189,1,0,0:0:0:0:
206,90,5028,1,8,0:0:0:0:
252,251,5867,1,0,0:0:0:0:
395,126,6706,1,8,0:0:0:0:
325,102,7546,1,8,0:0:0:0:
208,113,8385,5,4,0:0:0:0:
317,146,10063,1,0,0:0:0:0:
278,89,10902,1,8,0:0:0:0:
325,118,11741,1,4,0:0:0:0:
217,114,13420,1,0,0:0:0:0:
258,113,14259,1,0,0:0:0:0:
246,113,15098,1,0,0:0:0:0:
286,108,16776,1,0,0:0:0:0:
317,162,17616,1,8,0:0:0:0:
256,192,18455,12,0,19713,0:0:0:0:
216,51,20133,5,12,0:0:0:0:
180,146,21811,5,4,0:0:0:0:
341,188,22651,1,0,0:0:0:0:
347,179,23490,1,8,0:0:0:0:
269,144,24329,1,0,0:0:0:0:
269,144,24748,1,0,0:0:0:0:
269,144,25168,1,0,0:0:0:0:
345,137,26007,1,0,0:0:0:0:
300,88,26846,1,8,0:0:0:0:
180,146,28525,5,4,0:0:0:0:
341,188,29364,1,0,0:0:0:0:
347,179,30203,1,8,0:0:0:0:
269,144,31042,1,0,0:0:0:0:
269,144,31462,1,8,0:0:0:0:
269,144,31881,1,0,0:0:0:0:
345,137,32720,1,0,0:0:0:0:
260,93,33560,1,8,0:0:0:0:
180,146,35238,5,4,0:0:0:0:
341,188,36077,1,0,0:0:0:0:
347,179,36916,1,8,0:0:0:0:
269,144,37755,1,0,0:0:0:0:
269,144,38175,1,0,0:0:0:0:
269,144,38595,1,0,0:0:0:0:
345,137,39434,1,0,0:0:0:0:
260,93,40273,1,8,0:0:0:0:
180,146,41951,5,4,0:0:0:0:
341,188,42790,1,8,0:0:0:0:
347,179,43630,1,0,0:0:0:0:
269,144,44469,1,8,0:0:0:0:
256,192,45308,12,0,46567,0:0:0:0:
190,101,46986,5,0,0:0:0:0:
194,102,47825,1,0,0:0:0:0:
203,100,48665,5,4,0:0:0:0:
246,98,50343,1,0,0:0:0:0:
486,129,52021,1,0,0:0:0:0:
241,100,52860,1,8,0:0:0:0:
197,87,53699,1,0,0:0:0:0:
277,126,55378,5,8,0:0:0:0:
274,113,56217,1,0,0:0:0:0:
185,96,57056,1,8,0:0:0:0:
214,69,58734,1,0,0:0:0:0:
214,64,59574,1,8,0:0:0:0:
214,64,60413,1,0,0:0:0:0:
221,148,62091,5,8,0:0:0:0:
235,118,62930,1,0,0:0:0:0:
141,173,63769,1,8,0:0:0:0:
185,164,64609,1,0,0:0:0:0:
321,128,65448,1,8,0:0:0:0:
312,132,66287,1,0,0:0:0:0:
249,73,67126,1,8,0:0:0:0:
208,113,68804,5,4,0:0:0:0:
317,146,70483,1,0,0:0:0:0:
278,89,71322,1,0,0:0:0:0:
325,118,72161,1,0,0:0:0:0:
217,114,73839,1,0,0:0:0:0:
246,113,74678,1,8,0:0:0:0:
246,113,75518,1,0,0:0:0:0:
286,108,77196,1,8,0:0:0:0:
286,108,78035,1,8,0:0:0:0:
254,89,78874,1,0,0:0:0:0:
216,51,80553,1,12,0:0:0:0:
180,146,82231,5,12,0:0:0:0:
341,188,83070,1,8,0:0:0:0:
347,179,83909,1,8,0:0:0:0:
269,144,84748,1,0,0:0:0:0:
239,151,85168,1,0,0:0:0:0:
269,144,85588,1,8,0:0:0:0:
345,137,86427,1,8,0:0:0:0:
260,93,87266,1,8,0:0:0:0:
180,146,88944,5,12,0:0:0:0:
341,188,89783,1,8,0:0:0:0:
347,179,90623,1,0,0:0:0:0:
269,144,91462,1,0,0:0:0:0:
269,144,92301,1,8,0:0:0:0:
345,137,93140,1,8,0:0:0:0:
269,144,93560,1,0,0:0:0:0:
260,93,93979,1,8,0:0:0:0:
180,146,95658,5,4,0:0:0:0:
341,188,96497,1,0,0:0:0:0:
347,179,97336,1,8,0:0:0:0:
269,144,98175,1,0,0:0:0:0:
269,144,98595,1,0,0:0:0:0:
269,144,99014,1,0,0:0:0:0:
345,137,99853,1,0,0:0:0:0:
260,93,100692,1,8,0:0:0:0:
180,146,102371,5,4,0:0:0:0:
341,188,103210,1,8,0:0:0:0:
347,179,104049,1,8,0:0:0:0:
269,144,104888,1,0,0:0:0:0:
256,192,105727,12,0,106986,0:0:0:0:
190,101,107406,5,4,0:0:0:0:
194,102,108245,1,0,0:0:0:0:
203,100,109084,1,4,0:0:0:0:
