osu file format v14

[General]
AudioFilename: MACROSS 82-99 - NEW DAWN.mp3
AudioLeadIn: 0
PreviewTime: 25080
Countdown: 0
SampleSet: Normal
StackLeniency: 0.7
Mode: 1
LetterboxInBreaks: 0
WidescreenStoryboard: 0

[Editor]
DistanceSpacing: 1
BeatDivisor: 4
GridSize: 32
TimelineZoom: 1.6

[Metadata]
Title:NEW DAWN
TitleUnicode:NEW DAWN
Artist:MACROSS 82-99
ArtistUnicode:マクロスMACROSS 82-99
Creator:Culedesu
Version:Muzukashii
Source:
Tags:sailorwave vaporwave future funk merry-go-round tatsuro yamashita
BeatmapID:1185256
BeatmapSetID:560501

[Difficulty]
HPDrainRate:5
CircleSize:5
OverallDifficulty:5
ApproachRate:5
SliderMultiplier:2
SliderTickRate:1

[Events]
//Background and Video events
0,0,"dawn.jpg",0,0
//Break Periods
2,61553,77608
//Storyboard Layer 0 (Background)
//Storyboard Layer 1 (Fail)
//Storyboard Layer 2 (Pass)
//Storyboard Layer 3 (Foreground)
//Storyboard Sound Samples

[TimingPoints]
8990,545.454545454546,4,1,0,100,1,0
78808,-100,4,1,0,100,0,1
96262,-100,4,1,0,100,0,0
96399,-100,4,2,0,100,0,0
113719,-100,4,1,0,100,0,1
148626,-100,4,1,0,100,0,0

[HitObjects]
256,192,8990,5,4,0:0:0:0:
256,192,9399,1,0,0:0:0:0:
256,192,9535,1,8,0:0:0:0:
256,192,9944,1,0,0:0:0:0:
256,192,10217,1,0,0:0:0:0:
256,192,10353,1,0,0:0:0:0:
256,192,10626,1,8,0:0:0:0:
256,192,10899,1,8,0:0:0:0:
256,192,11035,1,8,0:0:0:0:
256,192,11171,1,0,0:0:0:0:
256,192,11580,1,0,0:0:0:0:
256,192,11717,1,8,0:0:0:0:
256,192,11990,1,0,0:0:0:0:
256,192,12262,1,0,0:0:0:0:
256,192,12535,1,0,0:0:0:0:
256,192,12808,1,8,0:0:0:0:
256,192,13080,1,0,0:0:0:0:
256,192,13353,1,0,0:0:0:0:
256,192,13762,1,0,0:0:0:0:
256,192,13899,1,8,0:0:0:0:
256,160,14171,1,8,0:0:0:0:
256,192,14308,1,0,0:0:0:0:
256,192,14580,1,8,0:0:0:0:
256,192,14717,1,0,0:0:0:0:
256,192,14990,1,8,0:0:0:0:
256,192,15262,1,8,0:0:0:0:
256,192,15399,1,8,0:0:0:0:
256,192,15535,1,0,0:0:0:0:
256,192,15944,1,0,0:0:0:0:
256,192,16080,1,8,0:0:0:0:
256,192,16353,1,8,0:0:0:0:
256,192,16626,1,0,0:0:0:0:
256,192,16762,1,8,0:0:0:0:
256,192,16899,1,0,0:0:0:0:
256,192,17171,1,8,0:0:0:0:
256,192,17444,1,0,0:0:0:0:
256,192,18126,1,0,0:0:0:0:
256,192,18262,1,8,0:0:0:0:
256,192,18535,1,8,0:0:0:0:
256,192,18671,1,0,0:0:0:0:
256,192,18944,1,8,0:0:0:0:
256,192,19080,1,0,0:0:0:0:
256,192,19217,1,0,0:0:0:0:
256,192,19353,1,8,0:0:0:0:
256,192,19626,1,8,0:0:0:0:
256,192,19762,1,8,0:0:0:0:
256,192,19899,1,0,0:0:0:0:
256,192,20308,1,0,0:0:0:0:
256,192,20444,1,8,0:0:0:0:
256,192,20717,1,0,0:0:0:0:
256,192,20990,1,0,0:0:0:0:
256,192,21126,1,8,0:0:0:0:
256,192,21262,1,0,0:0:0:0:
256,192,21535,1,8,0:0:0:0:
256,192,21808,1,0,0:0:0:0:
256,192,22080,1,0,0:0:0:0:
256,192,22490,1,0,0:0:0:0:
256,192,22626,1,8,0:0:0:0:
256,192,22899,1,0,0:0:0:0:
256,192,23035,1,8,0:0:0:0:
256,192,23308,1,8,0:0:0:0:
256,192,23444,1,0,0:0:0:0:
256,192,23580,1,0,0:0:0:0:
256,192,23717,1,8,0:0:0:0:
256,192,23853,1,8,0:0:0:0:
256,192,23990,1,0,0:0:0:0:
256,192,24126,1,0,0:0:0:0:
256,192,24535,1,8,0:0:0:0:
256,192,24671,1,8,0:0:0:0:
256,192,24808,1,0,0:0:0:0:
256,192,24944,1,0,0:0:0:0:
256,192,25080,1,0,0:0:0:0:
256,192,25353,1,0,0:0:0:0:
256,192,25762,1,8,0:0:0:0:
256,192,26171,1,0,0:0:0:0:
256,192,26444,1,4,0:0:0:0:
256,192,26717,1,0,0:0:0:0:
256,192,26853,1,0,0:0:0:0:
256,192,26990,1,8,0:0:0:0:
256,192,27262,1,0,0:0:0:0:
256,192,27399,1,8,0:0:0:0:
256,192,27671,1,8,0:0:0:0:
256,192,27808,1,0,0:0:0:0:
256,192,27944,1,0,0:0:0:0:
256,192,28080,1,8,0:0:0:0:
256,192,28217,1,8,0:0:0:0:
256,192,28353,1,0,0:0:0:0:
256,192,28626,1,0,0:0:0:0:
256,192,28762,1,0,0:0:0:0:
256,192,28899,1,0,0:0:0:0:
256,192,29171,1,8,0:0:0:0:
256,192,29444,1,0,0:0:0:0:
256,192,29580,1,8,0:0:0:0:
256,192,29853,1,8,0:0:0:0:
256,192,29990,1,0,0:0:0:0:
256,192,30262,1,8,0:0:0:0:
256,192,30535,1,0,0:0:0:0:
256,192,30808,1,0,0:0:0:0:
256,192,31080,1,0,0:0:0:0:
256,192,31217,1,0,0:0:0:0:
256,192,31353,1,8,0:0:0:0:
256,192,31626,1,0,0:0:0:0:
256,192,31762,1,8,0:0:0:0:
256,192,32035,1,8,0:0:0:0:
256,192,32171,1,0,0:0:0:0:
256,192,32308,1,0,0:0:0:0:
256,192,32444,1,8,0:0:0:0:
256,192,32580,1,8,0:0:0:0:
256,192,32717,1,0,0:0:0:0:
256,192,32990,1,0,0:0:0:0:
256,192,33262,1,0,0:0:0:0:
256,192,33399,1,0,0:0:0:0:
256,192,33535,1,8,0:0:0:0:
256,192,33808,1,0,0:0:0:0:
256,192,33944,1,8,0:0:0:0:
256,192,34217,1,8,0:0:0:0:
256,192,34353,1,0,0:0:0:0:
256,192,34626,1,8,0:0:0:0:
256,192,34899,1,0,0:0:0:0:
256,192,35171,1,0,0:0:0:0:
256,192,35444,1,0,0:0:0:0:
256,192,35580,1,0,0:0:0:0:
256,192,35717,1,8,0:0:0:0:
256,192,35990,1,0,0:0:0:0:
256,192,36126,1,8,0:0:0:0:
256,192,36399,1,8,0:0:0:0:
256,192,36535,1,0,0:0:0:0:
256,192,36808,1,8,0:0:0:0:
256,192,36944,1,0,0:0:0:0:
256,192,37080,1,0,0:0:0:0:
256,192,37353,1,0,0:0:0:0:
256,192,37490,1,0,0:0:0:0:
256,192,37626,1,0,0:0:0:0:
256,192,37899,1,8,0:0:0:0:
256,192,38171,1,0,0:0:0:0:
256,192,38308,1,8,0:0:0:0:
256,192,38580,1,8,0:0:0:0:
256,192,38717,1,0,0:0:0:0:
256,192,38990,1,8,0:0:0:0:
256,192,39126,1,8,0:0:0:0:
256,192,39262,1,0,0:0:0:0:
256,192,39535,1,0,0:0:0:0:
256,192,39808,1,8,0:0:0:0:
256,192,39944,1,0,0:0:0:0:
256,192,40080,1,8,0:0:0:0:
256,192,40353,1,0,0:0:0:0:
256,192,40490,1,8,0:0:0:0:
256,192,40762,1,8,0:0:0:0:
256,192,40899,1,0,0:0:0:0:
256,192,41171,1,8,0:0:0:0:
256,192,41444,1,0,0:0:0:0:
256,192,41717,1,0,0:0:0:0:
256,192,41990,1,8,0:0:0:0:
256,192,42126,1,0,0:0:0:0:
256,192,42262,1,8,0:0:0:0:
256,192,42535,1,0,0:0:0:0:
256,192,42671,1,8,0:0:0:0:
256,192,42944,1,8,0:0:0:0:
256,192,43080,1,0,0:0:0:0:
256,192,43353,1,8,0:0:0:0:
256,192,43490,1,8,0:0:0:0:
256,192,43626,1,0,0:0:0:0:
256,192,43762,1,0,0:0:0:0:
256,192,43899,1,4,0:0:0:0:
256,192,44171,1,0,0:0:0:0:
256,192,44444,1,8,0:0:0:0:
256,192,44717,1,0,0:0:0:0:
256,192,44990,1,0,0:0:0:0:
256,192,45126,1,0,0:0:0:0:
256,192,45262,1,0,0:0:0:0:
256,192,45535,1,8,0:0:0:0:
256,192,45808,1,0,0:0:0:0:
256,192,45944,1,8,0:0:0:0:
256,192,46080,1,0,0:0:0:0:
256,192,46353,1,0,0:0:0:0:
256,192,46626,1,8,0:0:0:0:
256,192,46899,1,0,0:0:0:0:
256,192,47035,1,8,0:0:0:0:
256,192,47308,1,8,0:0:0:0:
256,192,47444,1,0,0:0:0:0:
256,192,47717,1,8,0:0:0:0:
256,192,47990,1,0,0:0:0:0:
256,192,48262,1,0,0:0:0:0:
256,192,48535,1,0,0:0:0:0:
256,192,48808,1,8,0:0:0:0:
256,192,49080,1,0,0:0:0:0:
256,192,49353,1,0,0:0:0:0:
256,192,49490,1,0,0:0:0:0:
256,192,49626,1,8,0:0:0:0:
256,192,49899,1,8,0:0:0:0:
256,192,50171,1,0,0:0:0:0:
256,192,50308,1,8,0:0:0:0:
256,192,50444,1,0,0:0:0:0:
256,192,50717,1,0,0:0:0:0:
256,192,50990,1,8,0:0:0:0:
256,192,51262,1,0,0:0:0:0:
256,192,51399,1,8,0:0:0:0:
256,192,51671,1,8,0:0:0:0:
256,192,51808,1,0,0:0:0:0:
256,192,51944,1,0,0:0:0:0:
256,192,52080,1,8,0:0:0:0:
256,192,52353,1,0,0:0:0:0:
256,192,52490,1,8,0:0:0:0:
256,192,52626,1,0,0:0:0:0:
256,192,52899,1,0,0:0:0:0:
256,192,53035,1,0,0:0:0:0:
256,192,53171,1,8,0:0:0:0:
256,192,53444,1,0,0:0:0:0:
256,192,53717,1,0,0:0:0:0:
256,192,53853,1,8,0:0:0:0:
256,192,53990,1,0,0:0:0:0:
256,192,54262,1,8,0:0:0:0:
256,192,54535,1,0,0:0:0:0:
256,192,54671,1,8,0:0:0:0:
256,192,54808,1,0,0:0:0:0:
256,192,55080,1,0,0:0:0:0:
256,192,55217,1,0,0:0:0:0:
256,192,55353,1,8,0:0:0:0:
256,192,55626,1,0,0:0:0:0:
256,192,55762,1,8,0:0:0:0:
256,192,56035,1,8,0:0:0:0:
256,192,56171,1,0,0:0:0:0:
256,192,56444,1,8,0:0:0:0:
256,192,56717,1,0,0:0:0:0:
256,192,56990,1,0,0:0:0:0:
256,192,57262,1,0,0:0:0:0:
256,192,57399,1,0,0:0:0:0:
256,192,57535,1,8,0:0:0:0:
256,192,57808,1,12,0:0:0:0:
256,192,58353,1,0,0:0:0:0:
256,192,58490,1,0,0:0:0:0:
256,192,58626,1,8,0:0:0:0:
256,192,58899,1,12,0:0:0:0:
256,192,59444,1,0,0:0:0:0:
256,192,59580,1,0,0:0:0:0:
256,192,59717,1,8,0:0:0:0:
256,192,59990,1,12,0:0:0:0:
256,192,60535,1,0,0:0:0:0:
256,192,61080,1,8,0:0:0:0:
256,192,61353,1,12,0:0:0:0:
256,192,78808,5,0,0:0:0:0:
256,192,79080,1,0,0:0:0:0:
256,192,79217,1,0,0:0:0:0:
256,192,79353,1,8,0:0:0:0:
256,192,79626,1,0,0:0:0:0:
256,192,79762,1,8,0:0:0:0:
256,192,80035,1,8,0:0:0:0:
256,192,80171,1,0,0:0:0:0:
256,192,80308,1,0,0:0:0:0:
256,192,80444,1,8,0:0:0:0:
256,192,80717,1,0,0:0:0:0:
256,192,80853,1,8,0:0:0:0:
256,192,80990,1,0,0:0:0:0:
256,192,81262,1,0,0:0:0:0:
256,192,81399,1,0,0:0:0:0:
256,192,81535,1,8,0:0:0:0:
256,192,81808,1,0,0:0:0:0:
256,192,81944,1,8,0:0:0:0:
256,192,82217,1,8,0:0:0:0:
256,192,82353,1,0,0:0:0:0:
256,192,82490,1,0,0:0:0:0:
256,192,82626,1,8,0:0:0:0:
256,192,82899,1,0,0:0:0:0:
256,192,83035,1,8,0:0:0:0:
256,192,83171,1,0,0:0:0:0:
256,192,83444,1,0,0:0:0:0:
256,192,83580,1,0,0:0:0:0:
256,192,83717,1,8,0:0:0:0:
256,192,83990,1,0,0:0:0:0:
256,192,84126,1,8,0:0:0:0:
256,192,84399,1,8,0:0:0:0:
256,192,84535,1,0,0:0:0:0:
256,192,84808,1,8,0:0:0:0:
256,192,84944,1,8,0:0:0:0:
256,192,85080,1,0,0:0:0:0:
256,192,85217,1,8,0:0:0:0:
256,192,85353,1,0,0:0:0:0:
256,192,85626,1,0,0:0:0:0:
256,192,85762,1,0,0:0:0:0:
256,192,85899,1,8,0:0:0:0:
256,192,86171,1,0,0:0:0:0:
256,192,86308,1,8,0:0:0:0:
256,192,86580,1,8,0:0:0:0:
256,192,86717,1,0,0:0:0:0:
256,192,86990,1,8,0:0:0:0:
256,192,87262,1,0,0:0:0:0:
256,192,87535,1,0,0:0:0:0:
256,192,87808,1,0,0:0:0:0:
256,192,87945,1,0,0:0:0:0:
256,192,88081,1,8,0:0:0:0:
256,192,88354,1,0,0:0:0:0:
256,192,88490,1,8,0:0:0:0:
256,192,88763,1,8,0:0:0:0:
256,192,88899,1,0,0:0:0:0:
256,192,89036,1,0,0:0:0:0:
256,192,89172,1,8,0:0:0:0:
256,192,89445,1,0,0:0:0:0:
256,192,89581,1,0,0:0:0:0:
256,192,89718,1,0,0:0:0:0:
256,192,89990,1,0,0:0:0:0:
256,192,90127,1,0,0:0:0:0:
256,192,90263,1,8,0:0:0:0:
256,192,90536,1,0,0:0:0:0:
256,192,90808,1,0,0:0:0:0:
256,192,90945,1,8,0:0:0:0:
256,192,91218,1,0,0:0:0:0:
256,192,91354,1,8,0:0:0:0:
256,192,91626,1,0,0:0:0:0:
256,192,91763,1,0,0:0:0:0:
256,192,91899,1,0,0:0:0:0:
256,192,92172,1,0,0:0:0:0:
256,192,92308,1,0,0:0:0:0:
256,192,92445,1,8,0:0:0:0:
256,192,92718,1,0,0:0:0:0:
256,192,92990,1,0,0:0:0:0:
256,192,93127,1,8,0:0:0:0:
256,192,93263,1,0,0:0:0:0:
256,192,93399,1,0,0:0:0:0:
256,192,93536,1,8,0:0:0:0:
256,192,93808,1,0,0:0:0:0:
256,192,93944,1,8,0:0:0:0:
256,192,94080,1,0,0:0:0:0:
256,192,94354,1,0,0:0:0:0:
256,192,94490,1,0,0:0:0:0:
256,192,94627,1,8,0:0:0:0:
256,192,94899,1,0,0:0:0:0:
256,192,95036,1,8,0:0:0:0:
256,192,95308,1,8,0:0:0:0:
256,192,95444,1,0,0:0:0:0:
256,192,95717,1,8,0:0:0:0:
256,192,95853,1,8,0:0:0:0:
256,192,95990,1,0,0:0:0:0:
256,192,96126,1,0,0:0:0:0:
256,192,96262,1,4,0:0:0:0:
256,192,96535,1,0,0:0:0:0:
256,192,96808,1,8,0:0:0:0:
256,192,97080,1,0,0:0:0:0:
256,192,97217,1,8,0:0:0:0:
256,192,97490,1,0,0:0:0:0:
256,192,97626,1,8,0:0:0:0:
256,192,97899,1,8,0:0:0:0:
256,192,98171,1,0,0:0:0:0:
256,192,98444,1,8,0:0:0:0:
256,192,98717,1,0,0:0:0:0:
256,192,98990,1,8,0:0:0:0:
256,192,99262,1,0,0:0:0:0:
256,192,99535,1,8,0:0:0:0:
256,192,99671,1,0,0:0:0:0:
256,192,99944,1,0,0:0:0:0:
256,192,100080,1,8,0:0:0:0:
256,192,100353,1,0,0:0:0:0:
256,192,100626,1,8,0:0:0:0:
256,192,100899,1,0,0:0:0:0:
256,192,101171,1,8,0:0:0:0:
256,192,101444,1,0,0:0:0:0:
256,192,101580,1,8,0:0:0:0:
256,192,101853,1,0,0:0:0:0:
256,192,101990,1,8,0:0:0:0:
256,192,102262,1,8,0:0:0:0:
256,192,102535,1,0,0:0:0:0:
256,192,102671,1,0,0:0:0:0:
256,192,102808,1,8,0:0:0:0:
256,192,103080,1,0,0:0:0:0:
256,192,103353,1,8,0:0:0:0:
256,192,103626,1,0,0:0:0:0:
256,192,103899,1,8,0:0:0:0:
256,192,104035,1,8,0:0:0:0:
256,192,104171,1,0,0:0:0:0:
256,192,104444,1,8,0:0:0:0:
256,192,104717,1,0,0:0:0:0:
256,192,104990,1,8,0:0:0:0:
256,192,105262,1,0,0:0:0:0:
256,192,105399,1,0,0:0:0:0:
256,192,105535,1,8,0:0:0:0:
256,192,105808,1,0,0:0:0:0:
256,192,105944,1,8,0:0:0:0:
256,192,106217,1,8,0:0:0:0:
256,192,106353,1,0,0:0:0:0:
256,192,106626,1,8,0:0:0:0:
256,192,106899,1,0,0:0:0:0:
256,192,107171,1,8,0:0:0:0:
256,192,107444,1,0,0:0:0:0:
256,192,107717,1,8,0:0:0:0:
256,192,107990,1,0,0:0:0:0:
256,192,108126,1,8,0:0:0:0:
256,192,108399,1,8,0:0:0:0:
256,192,108535,1,0,0:0:0:0:
256,192,108808,1,8,0:0:0:0:
256,192,109080,1,0,0:0:0:0:
256,192,109353,1,8,0:0:0:0:
256,192,109626,1,0,0:0:0:0:
256,192,109762,1,0,0:0:0:0:
256,192,109899,1,8,0:0:0:0:
256,192,110171,1,0,0:0:0:0:
256,192,110308,1,8,0:0:0:0:
256,192,110580,1,8,0:0:0:0:
256,192,110717,1,0,0:0:0:0:
256,192,110853,1,0,0:0:0:0:
256,192,110990,1,8,0:0:0:0:
256,192,111262,1,0,0:0:0:0:
256,192,111535,1,8,0:0:0:0:
256,192,111808,1,0,0:0:0:0:
256,192,111944,1,0,0:0:0:0:
256,192,112080,1,8,0:0:0:0:
256,192,112353,1,0,0:0:0:0:
256,192,112626,1,8,0:0:0:0:
256,192,112762,1,0,0:0:0:0:
256,192,113035,1,0,0:0:0:0:
256,192,113171,1,8,0:0:0:0:
256,192,113444,1,0,0:0:0:0:
256,192,113717,1,4,0:0:0:0:
256,192,113990,1,0,0:0:0:0:
256,192,114262,1,8,0:0:0:0:
256,192,114399,1,8,0:0:0:0:
256,192,114535,1,0,0:0:0:0:
256,192,114808,1,0,0:0:0:0:
256,192,114944,1,8,0:0:0:0:
256,192,115081,1,0,0:0:0:0:
256,192,115217,1,0,0:0:0:0:
256,192,115354,1,8,0:0:0:0:
256,192,115490,1,8,0:0:0:0:
256,192,115626,1,0,0:0:0:0:
256,192,115899,1,0,0:0:0:0:
256,192,116035,1,8,0:0:0:0:
256,192,116171,1,0,0:0:0:0:
256,192,116444,1,8,0:0:0:0:
256,192,116580,1,8,0:0:0:0:
256,192,116717,1,0,0:0:0:0:
256,192,116990,1,0,0:0:0:0:
256,192,117126,1,8,0:0:0:0:
256,192,117262,1,8,0:0:0:0:
256,192,117399,1,0,0:0:0:0:
256,192,117535,1,8,0:0:0:0:
256,192,117671,1,8,0:0:0:0:
256,192,117808,1,0,0:0:0:0:
256,192,118080,1,0,0:0:0:0:
256,192,118353,1,8,0:0:0:0:
256,192,118490,1,0,0:0:0:0:
256,192,118626,1,8,0:0:0:0:
256,192,118762,1,8,0:0:0:0:
256,192,118899,1,0,0:0:0:0:
256,192,119171,1,0,0:0:0:0:
256,192,119308,1,8,0:0:0:0:
256,192,119581,1,0,0:0:0:0:
256,192,119717,1,8,0:0:0:0:
256,192,119854,1,8,0:0:0:0:
256,192,119990,1,0,0:0:0:0:
256,192,120262,1,0,0:0:0:0:
256,192,120399,1,8,0:0:0:0:
256,192,120671,1,0,0:0:0:0:
256,192,120808,1,8,0:0:0:0:
256,192,120944,1,0,0:0:0:0:
256,192,121080,1,8,0:0:0:0:
256,192,121353,1,0,0:0:0:0:
256,192,121490,1,8,0:0:0:0:
256,192,121626,1,0,0:0:0:0:
256,192,121762,1,0,0:0:0:0:
256,192,121899,1,8,0:0:0:0:
256,192,122035,1,0,0:0:0:0:
256,192,122171,1,8,0:0:0:0:
256,192,122444,1,0,0:0:0:0:
256,192,122717,1,8,0:0:0:0:
256,192,122853,1,0,0:0:0:0:
256,192,122990,1,8,0:0:0:0:
256,192,123126,1,8,0:0:0:0:
256,192,123262,1,0,0:0:0:0:
256,192,123535,1,0,0:0:0:0:
256,192,123671,1,8,0:0:0:0:
256,192,123808,1,8,0:0:0:0:
256,192,123944,1,0,0:0:0:0:
256,192,124080,1,8,0:0:0:0:
256,192,124217,1,8,0:0:0:0:
256,192,124353,1,0,0:0:0:0:
256,192,124626,1,0,0:0:0:0:
256,192,124899,1,8,0:0:0:0:
256,192,125035,1,0,0:0:0:0:
256,192,125171,1,8,0:0:0:0:
256,192,125444,1,0,0:0:0:0:
256,192,125580,1,8,0:0:0:0:
256,192,125717,1,0,0:0:0:0:
256,192,125853,1,8,0:0:0:0:
256,192,126126,1,0,0:0:0:0:
256,192,126262,1,8,0:0:0:0:
256,192,126399,1,0,0:0:0:0:
256,192,126535,1,8,0:0:0:0:
256,192,126808,1,0,0:0:0:0:
256,192,126944,1,8,0:0:0:0:
256,192,127080,1,0,0:0:0:0:
256,192,127217,1,0,0:0:0:0:
256,192,127353,1,8,0:0:0:0:
256,192,127626,1,12,0:0:0:0:
256,192,127899,1,0,0:0:0:0:
256,192,128035,1,8,0:0:0:0:
256,192,128171,1,0,0:0:0:0:
256,192,128308,1,0,0:0:0:0:
256,192,128444,1,8,0:0:0:0:
256,192,128717,1,12,0:0:0:0:
256,192,128990,1,0,0:0:0:0:
256,192,129126,1,8,0:0:0:0:
256,192,129262,1,0,0:0:0:0:
256,192,129399,1,0,0:0:0:0:
256,192,129535,1,8,0:0:0:0:
256,192,129808,5,12,0:0:0:0:
256,192,129944,1,0,0:0:0:0:
256,192,130353,1,12,0:0:0:0:
256,192,130626,5,8,0:0:0:0:
256,192,130762,1,0,0:0:0:0:
256,192,130899,1,8,0:0:0:0:
256,192,131035,1,0,0:0:0:0:
256,192,131171,1,12,0:0:0:0:
256,192,131444,1,0,0:0:0:0:
256,192,131717,1,8,0:0:0:0:
256,192,131990,1,8,0:0:0:0:
256,192,132126,1,8,0:0:0:0:
256,192,132262,1,0,0:0:0:0:
256,192,132535,1,0,0:0:0:0:
256,192,132671,1,0,0:0:0:0:
256,192,132808,1,8,0:0:0:0:
256,192,132944,1,0,0:0:0:0:
256,192,133080,1,8,0:0:0:0:
256,192,133626,1,0,0:0:0:0:
256,192,133762,1,0,0:0:0:0:
256,192,133899,1,8,0:0:0:0:
256,192,134035,1,0,0:0:0:0:
256,192,134171,1,8,0:0:0:0:
256,192,134444,1,8,0:0:0:0:
256,192,134717,1,0,0:0:0:0:
256,192,134853,1,8,0:0:0:0:
256,192,135126,1,0,0:0:0:0:
256,192,135262,1,8,0:0:0:0:
256,192,135535,1,0,0:0:0:0:
256,192,135808,1,0,0:0:0:0:
256,192,135944,1,0,0:0:0:0:
256,192,136080,1,8,0:0:0:0:
256,192,136353,1,8,0:0:0:0:
256,192,136490,1,0,0:0:0:0:
256,192,136762,1,8,0:0:0:0:
256,192,136899,1,0,0:0:0:0:
256,192,137171,1,8,0:0:0:0:
256,192,137444,1,8,0:0:0:0:
256,192,137717,5,0,0:0:0:0:
256,192,137899,1,8,0:0:0:0:
256,192,138081,1,0,0:0:0:0:
256,192,138262,1,8,0:0:0:0:
256,192,138444,1,8,0:0:0:0:
256,192,138626,1,8,0:0:0:0:
256,192,138808,5,12,0:0:0:0:
256,192,139217,1,12,0:0:0:0:
256,192,139626,1,12,0:0:0:0:
256,192,139762,1,8,0:0:0:0:
256,192,139899,1,0,0:0:0:0:
256,192,140171,1,0,0:0:0:0:
256,192,140444,1,8,0:0:0:0:
256,192,140717,1,8,0:0:0:0:
256,192,140990,1,0,0:0:0:0:
256,192,141399,1,0,0:0:0:0:
256,192,141535,1,8,0:0:0:0:
256,192,141808,1,8,0:0:0:0:
256,192,142080,1,0,0:0:0:0:
256,192,142353,1,8,0:0:0:0:
256,192,142490,1,0,0:0:0:0:
256,192,142762,1,8,0:0:0:0:
256,192,142899,1,0,0:0:0:0:
256,192,143171,1,8,0:0:0:0:
256,192,143444,1,0,0:0:0:0:
256,192,143580,1,0,0:0:0:0:
256,192,143717,1,8,0:0:0:0:
256,192,143899,1,8,0:0:0:0:
256,192,144080,1,8,0:0:0:0:
256,192,144262,1,0,0:0:0:0:
256,192,144535,1,0,0:0:0:0:
256,192,144808,1,8,0:0:0:0:
256,192,145080,1,8,0:0:0:0:
256,192,145353,1,0,0:0:0:0:
256,192,145762,1,0,0:0:0:0:
256,192,145899,1,8,0:0:0:0:
256,192,146171,1,8,0:0:0:0:
256,192,146444,1,0,0:0:0:0:
256,192,146717,1,0,0:0:0:0:
256,192,146990,1,8,0:0:0:0:
256,192,147262,1,0,0:0:0:0:
256,192,147535,1,8,0:0:0:0:
256,192,147808,1,0,0:0:0:0:
256,192,147944,1,8,0:0:0:0:
256,192,148217,1,0,0:0:0:0:
256,192,148353,1,8,0:0:0:0:
256,192,148626,1,12,0:0:0:0:
