osu file format v14

[General]
AudioFilename: MACROSS 82-99 - NEW DAWN.mp3
AudioLeadIn: 0
PreviewTime: 25080
Countdown: 0
SampleSet: Normal
StackLeniency: 0.7
Mode: 1
LetterboxInBreaks: 0
WidescreenStoryboard: 1

[Editor]
Bookmarks: 49353
DistanceSpacing: 1
BeatDivisor: 4
GridSize: 32
TimelineZoom: 1.6

[Metadata]
Title:NEW DAWN
TitleUnicode:NEW DAWN
Artist:MACROSS 82-99
ArtistUnicode:マクロスMACROSS 82-99
Creator:Culedesu
Version:Futsuu
Source:
Tags:sailorwave vaporwave future funk merry-go-round tatsuro yamashita
BeatmapID:1185255
BeatmapSetID:560501

[Difficulty]
HPDrainRate:4
CircleSize:5
OverallDifficulty:3
ApproachRate:5
SliderMultiplier:2
SliderTickRate:1

[Events]
//Background and Video events
0,0,"dawn.jpg",0,0
//Break Periods
2,61553,77608
//Storyboard Layer 0 (Background)
//Storyboard Layer 1 (Fail)
//Storyboard Layer 2 (Pass)
//Storyboard Layer 3 (Foreground)
//Storyboard Sound Samples

[TimingPoints]
8990,545.454545454546,4,1,0,100,1,0
78808,-100,4,1,0,100,0,1
96262,-100,4,1,0,100,0,0
96399,-100,4,3,0,100,0,0
113719,-100,4,1,0,100,0,1
148626,-100,4,1,0,100,0,0

[HitObjects]
256,192,8990,5,4,0:0:0:0:
256,192,9535,1,8,0:0:0:0:
256,192,10080,1,0,0:0:0:0:
256,192,10353,1,0,0:0:0:0:
256,192,10626,1,8,0:0:0:0:
256,192,10899,1,8,0:0:0:0:
256,192,11171,1,0,0:0:0:0:
256,192,11717,1,8,0:0:0:0:
256,192,12262,1,0,0:0:0:0:
256,192,12535,1,8,0:0:0:0:
256,192,12808,1,0,0:0:0:0:
256,192,13080,1,0,0:0:0:0:
256,192,13353,1,0,0:0:0:0:
256,192,13899,1,8,0:0:0:0:
256,192,14171,1,0,0:0:0:0:
256,192,14717,1,0,0:0:0:0:
256,192,14990,1,8,0:0:0:0:
256,192,15262,1,8,0:0:0:0:
256,192,15535,1,0,0:0:0:0:
256,192,16080,1,8,0:0:0:0:
256,192,16353,1,0,0:0:0:0:
256,192,16626,1,8,0:0:0:0:
256,192,16899,1,8,0:0:0:0:
256,192,17171,1,0,0:0:0:0:
256,192,17444,1,8,0:0:0:0:
256,192,18263,1,8,0:0:0:0:
256,192,18535,1,0,0:0:0:0:
256,192,19080,1,8,0:0:0:0:
256,192,19353,1,8,0:0:0:0:
256,192,19626,1,0,0:0:0:0:
256,192,19899,1,0,0:0:0:0:
256,192,20444,1,8,0:0:0:0:
256,192,20717,1,0,0:0:0:0:
256,192,20990,1,0,0:0:0:0:
256,192,21262,1,8,0:0:0:0:
256,192,21535,1,8,0:0:0:0:
256,192,21808,1,0,0:0:0:0:
256,192,22080,1,0,0:0:0:0:
256,192,22626,1,8,0:0:0:0:
256,192,22899,1,0,0:0:0:0:
256,192,23171,1,8,0:0:0:0:
256,192,23444,1,0,0:0:0:0:
256,192,23717,1,0,0:0:0:0:
256,192,23990,1,8,0:0:0:0:
256,192,24534,1,8,0:0:0:0:
256,192,24808,1,0,0:0:0:0:
256,192,25080,1,0,0:0:0:0:
256,192,25353,1,12,0:0:0:0:
256,192,25762,1,12,0:0:0:0:
256,192,26171,1,12,0:0:0:0:
256,192,26444,1,4,0:0:0:0:
256,192,26990,1,8,0:0:0:0:
256,192,27535,1,0,0:0:0:0:
256,192,27808,1,0,0:0:0:0:
256,192,28080,1,8,0:0:0:0:
256,192,28353,1,8,0:0:0:0:
288,224,28626,1,0,0:0:0:0:
288,192,29171,1,8,0:0:0:0:
288,224,29717,1,0,0:0:0:0:
288,224,29990,1,8,0:0:0:0:
288,224,30262,1,0,0:0:0:0:
288,224,30535,1,8,0:0:0:0:
288,256,30808,1,0,0:0:0:0:
288,256,31353,1,8,0:0:0:0:
288,224,31899,1,0,0:0:0:0:
288,224,32171,1,0,0:0:0:0:
288,224,32444,1,8,0:0:0:0:
288,224,32717,1,8,0:0:0:0:
288,224,32990,1,0,0:0:0:0:
288,224,33535,1,8,0:0:0:0:
320,224,34080,1,8,0:0:0:0:
320,224,34353,1,0,0:0:0:0:
320,224,34626,1,8,0:0:0:0:
320,224,34899,1,8,0:0:0:0:
320,224,35171,1,0,0:0:0:0:
256,192,35717,1,8,0:0:0:0:
214,155,36262,1,0,0:0:0:0:
214,155,36535,1,8,0:0:0:0:
214,155,36808,1,8,0:0:0:0:
214,155,37080,1,0,0:0:0:0:
214,155,37353,1,0,0:0:0:0:
214,155,37899,1,8,0:0:0:0:
214,155,38444,1,0,0:0:0:0:
214,155,38717,1,8,0:0:0:0:
214,155,39262,1,8,0:0:0:0:
214,155,39535,1,0,0:0:0:0:
214,155,40080,1,8,0:0:0:0:
214,155,40353,1,8,0:0:0:0:
214,155,40626,1,0,0:0:0:0:
214,155,41171,1,8,0:0:0:0:
214,155,41444,1,0,0:0:0:0:
206,79,41717,1,0,0:0:0:0:
239,191,42262,1,8,0:0:0:0:
239,191,42535,1,0,0:0:0:0:
241,191,42808,1,0,0:0:0:0:
241,191,43080,1,8,0:0:0:0:
241,191,43353,1,0,0:0:0:0:
241,191,43626,1,8,0:0:0:0:
239,171,43899,1,4,0:0:0:0:
228,153,44444,1,8,0:0:0:0:
237,102,44990,1,0,0:0:0:0:
237,102,45263,1,8,0:0:0:0:
259,158,45536,1,0,0:0:0:0:
237,102,45808,1,8,0:0:0:0:
259,148,46081,1,0,0:0:0:0:
259,148,46627,1,8,0:0:0:0:
259,148,47172,1,8,0:0:0:0:
259,148,47445,1,0,0:0:0:0:
259,148,47717,1,0,0:0:0:0:
259,148,47990,1,8,0:0:0:0:
259,148,48263,1,0,0:0:0:0:
237,102,48808,1,8,0:0:0:0:
237,102,49353,1,0,0:0:0:0:
237,102,49626,1,8,0:0:0:0:
259,158,49899,1,8,0:0:0:0:
237,102,50171,1,0,0:0:0:0:
259,148,50444,1,0,0:0:0:0:
259,148,50990,1,8,0:0:0:0:
259,148,51535,1,0,0:0:0:0:
259,148,51808,1,8,0:0:0:0:
259,148,52080,1,8,0:0:0:0:
259,148,52353,1,0,0:0:0:0:
259,148,52626,1,0,0:0:0:0:
228,153,53171,1,8,0:0:0:0:
237,102,53717,1,0,0:0:0:0:
237,102,53990,1,0,0:0:0:0:
259,158,54263,1,0,0:0:0:0:
237,102,54535,1,8,0:0:0:0:
259,148,54808,1,0,0:0:0:0:
259,148,55354,1,8,0:0:0:0:
259,148,55899,1,8,0:0:0:0:
259,148,56172,1,0,0:0:0:0:
259,148,56444,1,0,0:0:0:0:
259,148,56717,1,8,0:0:0:0:
259,148,56990,1,0,0:0:0:0:
186,198,57535,1,8,0:0:0:0:
208,202,57808,5,8,0:0:0:0:
186,198,58626,1,8,0:0:0:0:
186,198,58899,1,0,0:0:0:0:
179,186,59717,1,0,0:0:0:0:
179,186,59990,1,8,0:0:0:0:
216,96,60535,1,0,0:0:0:0:
216,96,61080,1,8,0:0:0:0:
216,96,61353,1,0,0:0:0:0:
138,188,78808,5,12,0:0:0:0:
215,202,79353,1,8,0:0:0:0:
215,202,79626,1,0,0:0:0:0:
215,202,79899,1,8,0:0:0:0:
215,202,80171,1,8,0:0:0:0:
216,202,80717,1,0,0:0:0:0:
216,202,80990,1,0,0:0:0:0:
234,191,81262,1,8,0:0:0:0:
232,196,81535,1,0,0:0:0:0:
234,197,81808,1,0,0:0:0:0:
234,197,82080,1,8,0:0:0:0:
234,197,82353,1,8,0:0:0:0:
145,155,82626,1,0,0:0:0:0:
179,142,82899,1,8,0:0:0:0:
189,42,83171,1,0,0:0:0:0:
228,175,83717,1,8,0:0:0:0:
240,179,83990,1,0,0:0:0:0:
240,179,84262,1,8,0:0:0:0:
240,179,84535,1,8,0:0:0:0:
290,191,85080,1,8,0:0:0:0:
290,191,85353,1,0,0:0:0:0:
292,184,85626,1,8,0:0:0:0:
292,184,85899,1,8,0:0:0:0:
292,184,86171,1,0,0:0:0:0:
183,75,86444,1,8,0:0:0:0:
183,78,86717,1,0,0:0:0:0:
166,27,86990,1,8,0:0:0:0:
183,78,87262,1,8,0:0:0:0:
138,188,87535,5,12,0:0:0:0:
215,202,88080,1,8,0:0:0:0:
215,202,88353,1,0,0:0:0:0:
215,202,88626,1,8,0:0:0:0:
215,202,88898,1,8,0:0:0:0:
216,202,89444,1,0,0:0:0:0:
232,120,89717,1,8,0:0:0:0:
234,191,89989,1,8,0:0:0:0:
232,196,90262,1,0,0:0:0:0:
234,197,90535,1,0,0:0:0:0:
234,197,90807,1,8,0:0:0:0:
218,89,91080,1,0,0:0:0:0:
145,155,91353,1,0,0:0:0:0:
179,142,91626,1,8,0:0:0:0:
189,42,91898,1,0,0:0:0:0:
228,175,92444,1,8,0:0:0:0:
240,179,92717,1,0,0:0:0:0:
214,82,92990,1,0,0:0:0:0:
129,154,93535,1,0,0:0:0:0:
290,191,93807,1,8,0:0:0:0:
290,191,94080,1,0,0:0:0:0:
292,184,94353,1,8,0:0:0:0:
210,122,94626,1,8,0:0:0:0:
292,184,94898,1,0,0:0:0:0:
183,75,95171,1,8,0:0:0:0:
183,78,95444,1,8,0:0:0:0:
166,27,95717,1,0,0:0:0:0:
183,78,95989,1,8,0:0:0:0:
209,120,96262,1,0,0:0:0:0:
210,120,96808,1,8,0:0:0:0:
212,120,97353,1,0,0:0:0:0:
212,120,97899,1,8,0:0:0:0:
212,120,98171,1,8,0:0:0:0:
212,120,98444,1,0,0:0:0:0:
279,177,98990,1,8,0:0:0:0:
279,177,99535,1,8,0:0:0:0:
279,177,99808,1,0,0:0:0:0:
279,177,100353,1,8,0:0:0:0:
279,177,100626,1,0,0:0:0:0:
254,77,101171,1,0,0:0:0:0:
254,77,101444,1,0,0:0:0:0:
254,77,101717,1,8,0:0:0:0:
206,118,102262,1,8,0:0:0:0:
243,82,102535,1,8,0:0:0:0:
243,82,102808,1,0,0:0:0:0:
243,82,103353,1,0,0:0:0:0:
72,152,103899,1,8,0:0:0:0:
72,152,104171,1,0,0:0:0:0:
274,137,104717,1,8,0:0:0:0:
209,120,104990,1,0,0:0:0:0:
220,134,105535,1,0,0:0:0:0:
246,136,106080,1,8,0:0:0:0:
183,77,106626,5,8,0:0:0:0:
186,42,106899,1,0,0:0:0:0:
212,120,107172,1,0,0:0:0:0:
279,177,107718,1,8,0:0:0:0:
279,177,108263,1,8,0:0:0:0:
279,177,108536,1,0,0:0:0:0:
230,55,109080,1,0,0:0:0:0:
212,74,109353,1,8,0:0:0:0:
254,77,109899,1,0,0:0:0:0:
254,77,110172,1,8,0:0:0:0:
254,77,110445,1,8,0:0:0:0:
206,118,110990,1,0,0:0:0:0:
243,82,111263,1,8,0:0:0:0:
243,82,111536,1,0,0:0:0:0:
243,82,112081,1,0,0:0:0:0:
194,151,112353,1,8,0:0:0:0:
72,152,112627,1,8,0:0:0:0:
72,152,112899,1,0,0:0:0:0:
194,151,113444,1,0,0:0:0:0:
194,151,113717,1,4,0:0:0:0:
190,165,113990,1,8,0:0:0:0:
184,138,114262,1,8,0:0:0:0:
184,138,114535,1,0,0:0:0:0:
201,149,114808,1,8,0:0:0:0:
143,131,115080,1,0,0:0:0:0:
201,149,115626,1,8,0:0:0:0:
201,149,115899,1,0,0:0:0:0:
201,149,116171,1,0,0:0:0:0:
201,149,116444,1,8,0:0:0:0:
201,149,116717,1,0,0:0:0:0:
201,149,116990,1,8,0:0:0:0:
201,149,117262,1,8,0:0:0:0:
201,149,117535,1,8,0:0:0:0:
201,149,117808,1,0,0:0:0:0:
201,149,118080,1,0,0:0:0:0:
214,151,118626,1,8,0:0:0:0:
214,151,118899,1,0,0:0:0:0:
214,151,119171,1,8,0:0:0:0:
193,66,119444,1,8,0:0:0:0:
214,138,119990,1,8,0:0:0:0:
214,138,120262,1,0,0:0:0:0:
214,138,120535,1,0,0:0:0:0:
167,85,120808,1,8,0:0:0:0:
168,92,121080,1,0,0:0:0:0:
174,101,121353,1,8,0:0:0:0:
174,101,121626,1,0,0:0:0:0:
174,101,121899,1,0,0:0:0:0:
203,58,122171,1,8,0:0:0:0:
202,59,122444,1,0,0:0:0:0:
277,135,122990,1,8,0:0:0:0:
277,135,123262,1,0,0:0:0:0:
277,135,123535,1,8,0:0:0:0:
277,135,123808,1,0,0:0:0:0:
281,152,124353,1,8,0:0:0:0:
278,141,124626,1,0,0:0:0:0:
278,141,124899,1,0,0:0:0:0:
278,141,125171,1,8,0:0:0:0:
278,141,125444,1,0,0:0:0:0:
278,141,125717,1,8,0:0:0:0:
278,141,125990,1,8,0:0:0:0:
222,73,126262,1,0,0:0:0:0:
222,74,126535,1,8,0:0:0:0:
222,74,126808,1,0,0:0:0:0:
172,146,127353,1,0,0:0:0:0:
222,74,127626,1,12,0:0:0:0:
90,176,128444,1,8,0:0:0:0:
90,176,128717,1,12,0:0:0:0:
197,181,129535,1,0,0:0:0:0:
197,181,129808,1,12,0:0:0:0:
197,181,130353,1,0,0:0:0:0:
195,178,130899,1,8,0:0:0:0:
195,178,131171,1,8,0:0:0:0:
188,66,131717,1,8,0:0:0:0:
195,24,132262,1,0,0:0:0:0:
156,108,132535,1,8,0:0:0:0:
151,76,132808,1,8,0:0:0:0:
151,78,133080,1,0,0:0:0:0:
151,78,133626,1,0,0:0:0:0:
151,78,133899,1,8,0:0:0:0:
151,78,134171,1,8,0:0:0:0:
151,78,134444,1,0,0:0:0:0:
152,142,134853,1,8,0:0:0:0:
147,127,135262,1,8,0:0:0:0:
147,127,135535,1,0,0:0:0:0:
206,98,136080,1,8,0:0:0:0:
206,98,136626,1,0,0:0:0:0:
206,98,136899,1,8,0:0:0:0:
206,98,137171,1,8,0:0:0:0:
206,98,137444,1,8,0:0:0:0:
193,181,137990,1,0,0:0:0:0:
223,160,138262,1,8,0:0:0:0:
157,192,138535,1,0,0:0:0:0:
156,191,138808,1,12,0:0:0:0:
211,167,139217,1,12,0:0:0:0:
189,118,139626,1,8,0:0:0:0:
210,106,139899,1,4,0:0:0:0:
208,82,140444,1,8,0:0:0:0:
257,160,140990,1,0,0:0:0:0:
257,160,141535,1,0,0:0:0:0:
214,149,141808,1,8,0:0:0:0:
214,149,142080,1,0,0:0:0:0:
221,103,142353,1,8,0:0:0:0:
221,105,142626,1,8,0:0:0:0:
210,124,142899,1,8,0:0:0:0:
210,124,143171,1,0,0:0:0:0:
235,78,143535,1,8,0:0:0:0:
164,155,143990,1,0,0:0:0:0:
164,155,144262,1,0,0:0:0:0:
179,153,144808,1,8,0:0:0:0:
178,153,145353,1,8,0:0:0:0:
173,146,145626,1,0,0:0:0:0:
133,53,146171,1,8,0:0:0:0:
215,198,146444,1,0,0:0:0:0:
226,131,146717,1,0,0:0:0:0:
226,131,146990,1,8,0:0:0:0:
226,131,147262,1,0,0:0:0:0:
226,131,147535,1,8,0:0:0:0:
152,189,147944,1,0,0:0:0:0:
155,191,148353,1,12,0:0:0:0:
