osu file format v14

[General]
AudioFilename: Aogashima Island !.mp3
AudioLeadIn: 0
PreviewTime: 20095
Countdown: 0
SampleSet: None
StackLeniency: 0.7
Mode: 3
LetterboxInBreaks: 0
SpecialStyle: 0
WidescreenStoryboard: 0

[Editor]
DistanceSpacing: 0.8
BeatDivisor: 2
GridSize: 32
TimelineZoom: 1

[Metadata]
Title:Aogashima Island !
TitleUnicode:Aogashima Island !
Artist:MACROSS
ArtistUnicode:MACROSS
Creator:Guilhermeziat
Version:Future Dump
Source:
Tags:
BeatmapID:1450023
BeatmapSetID:685219

[Difficulty]
HPDrainRate:8
CircleSize:4
OverallDifficulty:8.5
ApproachRate:5
SliderMultiplier:1.4
SliderTickRate:1

[Events]
//Background and Video events
0,0,"wdqwdqwdqwdqwdq.jpg",0,0
//Break Periods
//Storyboard Layer 0 (Background)
//Storyboard Layer 1 (Fail)
//Storyboard Layer 2 (Pass)
//Storyboard Layer 3 (Foreground)
//Storyboard Sound Samples

[TimingPoints]
96,499.9875,4,1,0,100,1,0

[HitObjects]
64,192,595,128,0,3095:0:0:0:0:
320,192,2970,1,0,0:0:0:0:
192,192,3095,1,0,0:0:0:0:
320,192,3095,1,0,0:0:0:0:
192,192,3220,1,0,0:0:0:0:
448,192,3220,1,0,0:0:0:0:
64,192,3345,1,0,0:0:0:0:
320,192,3345,1,0,0:0:0:0:
192,192,3429,1,0,0:0:0:0:
320,192,3512,1,0,0:0:0:0:
64,192,3595,1,0,0:0:0:0:
448,192,3595,1,0,0:0:0:0:
192,192,3658,1,0,0:0:0:0:
64,192,3720,1,0,0:0:0:0:
320,192,3783,1,0,0:0:0:0:
192,192,3845,1,0,0:0:0:0:
448,192,3845,1,0,0:0:0:0:
64,192,3908,1,0,0:0:0:0:
448,192,3970,1,0,0:0:0:0:
320,192,4054,1,0,0:0:0:0:
192,192,4137,1,0,0:0:0:0:
64,192,4220,1,0,0:0:0:0:
448,192,4304,1,0,0:0:0:0:
64,192,4345,1,0,0:0:0:0:
192,192,4345,1,0,0:0:0:0:
320,192,4387,1,0,0:0:0:0:
448,192,4470,1,0,0:0:0:0:
64,192,4554,1,0,0:0:0:0:
320,192,4595,1,0,0:0:0:0:
448,192,4595,1,0,0:0:0:0:
192,192,4637,1,0,0:0:0:0:
64,192,4720,1,0,0:0:0:0:
448,192,4804,1,0,0:0:0:0:
192,192,4845,1,0,0:0:0:0:
320,192,4887,1,0,0:0:0:0:
192,192,4970,1,0,0:0:0:0:
448,192,4970,1,0,0:0:0:0:
64,192,5054,1,0,0:0:0:0:
320,192,5095,1,0,0:0:0:0:
448,192,5137,1,0,0:0:0:0:
64,192,5220,1,0,0:0:0:0:
192,192,5304,1,0,0:0:0:0:
64,192,5345,1,0,0:0:0:0:
448,192,5345,1,0,0:0:0:0:
320,192,5387,1,0,0:0:0:0:
192,192,5470,1,0,0:0:0:0:
64,192,5595,1,0,0:0:0:0:
320,192,5595,1,0,0:0:0:0:
448,192,5595,1,0,0:0:0:0:
192,192,5783,1,0,0:0:0:0:
320,192,5845,1,0,0:0:0:0:
192,192,5908,1,0,0:0:0:0:
64,192,6002,1,0,0:0:0:0:
192,192,6064,1,0,0:0:0:0:
448,192,6064,1,0,0:0:0:0:
320,192,6158,1,0,0:0:0:0:
64,192,6220,1,0,0:0:0:0:
192,192,6283,1,0,0:0:0:0:
320,192,6345,1,0,0:0:0:0:
448,192,6345,1,0,0:0:0:0:
64,192,6429,1,0,0:0:0:0:
320,192,6512,1,0,0:0:0:0:
64,192,6595,1,0,0:0:0:0:
192,192,6595,1,0,0:0:0:0:
448,192,6595,1,0,0:0:0:0:
320,192,6679,1,0,0:0:0:0:
192,192,6762,1,0,0:0:0:0:
64,192,6783,1,0,0:0:0:0:
320,192,6845,1,0,0:0:0:0:
448,192,6845,1,0,0:0:0:0:
192,192,6908,1,0,0:0:0:0:
64,192,6970,1,0,0:0:0:0:
320,192,6970,1,0,0:0:0:0:
192,192,7033,1,0,0:0:0:0:
448,192,7095,1,0,0:0:0:0:
64,192,7158,1,0,0:0:0:0:
448,192,7220,1,0,0:0:0:0:
192,192,7283,1,0,0:0:0:0:
64,192,7345,1,0,0:0:0:0:
320,192,7345,1,0,0:0:0:0:
448,192,7387,1,0,0:0:0:0:
192,192,7470,1,0,0:0:0:0:
320,192,7512,1,0,0:0:0:0:
64,192,7595,1,0,0:0:0:0:
192,192,7595,1,0,0:0:0:0:
448,192,7637,1,0,0:0:0:0:
320,192,7689,1,0,0:0:0:0:
64,192,7752,1,0,0:0:0:0:
192,192,7845,1,0,0:0:0:0:
320,192,7887,1,0,0:0:0:0:
64,192,7970,1,0,0:0:0:0:
448,192,8012,1,0,0:0:0:0:
192,192,8095,1,0,0:0:0:0:
320,192,8095,1,0,0:0:0:0:
64,192,8137,1,0,0:0:0:0:
448,192,8220,1,0,0:0:0:0:
192,192,8304,1,0,0:0:0:0:
320,192,8345,1,0,0:0:0:0:
64,192,8387,1,0,0:0:0:0:
448,192,8470,1,0,0:0:0:0:
192,192,8554,1,0,0:0:0:0:
64,192,8595,1,0,0:0:0:0:
320,192,8595,1,0,0:0:0:0:
448,192,8637,1,0,0:0:0:0:
320,192,8720,1,0,0:0:0:0:
192,192,8762,1,0,0:0:0:0:
448,192,8804,1,0,0:0:0:0:
64,192,8887,1,0,0:0:0:0:
320,192,8929,1,0,0:0:0:0:
192,192,8970,1,0,0:0:0:0:
320,192,9054,1,0,0:0:0:0:
64,192,9095,1,0,0:0:0:0:
448,192,9095,1,0,0:0:0:0:
192,192,9137,1,0,0:0:0:0:
320,192,9220,1,0,0:0:0:0:
64,192,9345,1,0,0:0:0:0:
192,192,9345,1,0,0:0:0:0:
320,192,9470,1,0,0:0:0:0:
64,192,9512,1,0,0:0:0:0:
320,192,9595,1,0,0:0:0:0:
448,192,9595,1,0,0:0:0:0:
192,192,9637,1,0,0:0:0:0:
64,192,9720,1,0,0:0:0:0:
320,192,9762,1,0,0:0:0:0:
192,192,9845,1,0,0:0:0:0:
448,192,9887,1,0,0:0:0:0:
320,192,9970,1,0,0:0:0:0:
192,192,10012,1,0,0:0:0:0:
64,192,10095,1,0,0:0:0:0:
320,192,10095,1,0,0:0:0:0:
192,192,10179,1,0,0:0:0:0:
448,192,10220,1,0,0:0:0:0:
320,192,10283,1,0,0:0:0:0:
64,192,10345,1,0,0:0:0:0:
192,192,10345,1,0,0:0:0:0:
448,192,10429,1,0,0:0:0:0:
320,192,10501,1,0,0:0:0:0:
192,192,10554,1,0,0:0:0:0:
64,192,10595,1,0,0:0:0:0:
448,192,10626,1,0,0:0:0:0:
192,192,10679,1,0,0:0:0:0:
320,192,10751,1,0,0:0:0:0:
64,192,10804,1,0,0:0:0:0:
192,192,10845,1,0,0:0:0:0:
320,192,10887,1,0,0:0:0:0:
448,192,10929,1,0,0:0:0:0:
64,192,10970,1,0,0:0:0:0:
192,192,10970,1,0,0:0:0:0:
448,192,11033,1,0,0:0:0:0:
64,192,11095,1,0,0:0:0:0:
448,192,11158,1,0,0:0:0:0:
64,192,11220,1,0,0:0:0:0:
448,192,11283,1,0,0:0:0:0:
64,192,11345,1,0,0:0:0:0:
192,192,11345,1,0,0:0:0:0:
448,192,11408,1,0,0:0:0:0:
320,192,11470,1,0,0:0:0:0:
192,192,11533,1,0,0:0:0:0:
64,192,11595,1,0,0:0:0:0:
448,192,11595,1,0,0:0:0:0:
192,192,11720,1,0,0:0:0:0:
448,192,11720,1,0,0:0:0:0:
64,192,11845,1,0,0:0:0:0:
192,192,11845,1,0,0:0:0:0:
320,192,11845,1,0,0:0:0:0:
192,192,11970,1,0,0:0:0:0:
320,192,11970,1,0,0:0:0:0:
448,192,11970,1,0,0:0:0:0:
64,192,12095,1,0,0:0:0:0:
320,192,12095,1,0,0:0:0:0:
448,192,12095,1,0,0:0:0:0:
320,192,12262,1,0,0:0:0:0:
192,192,12345,1,0,0:0:0:0:
320,192,12429,1,0,0:0:0:0:
192,192,12512,1,0,0:0:0:0:
320,192,12595,1,0,0:0:0:0:
448,192,12595,1,0,0:0:0:0:
192,192,12679,1,0,0:0:0:0:
64,192,12720,1,0,0:0:0:0:
320,192,12762,1,0,0:0:0:0:
192,192,12845,1,0,0:0:0:0:
320,192,12929,1,0,0:0:0:0:
448,192,12970,1,0,0:0:0:0:
192,192,13012,1,0,0:0:0:0:
64,192,13095,1,0,0:0:0:0:
448,192,13220,1,0,0:0:0:0:
192,192,13345,1,0,0:0:0:0:
320,192,13470,1,0,0:0:0:0:
64,192,13595,1,0,0:0:0:0:
320,192,13595,1,0,0:0:0:0:
448,192,13762,128,0,13970:0:0:0:0:
64,192,13970,1,0,0:0:0:0:
320,192,14053,1,0,0:0:0:0:
192,192,14158,128,0,14595:0:0:0:0:
320,192,14595,1,0,0:0:0:0:
448,192,14595,1,0,0:0:0:0:
64,192,14783,1,0,0:0:0:0:
320,192,14845,128,0,15095:0:0:0:0:
64,192,15095,1,0,0:0:0:0:
448,192,15158,1,0,0:0:0:0:
64,192,15220,1,0,0:0:0:0:
448,192,15283,1,0,0:0:0:0:
192,192,15345,1,0,0:0:0:0:
448,192,15408,1,0,0:0:0:0:
64,192,15470,1,0,0:0:0:0:
448,192,15533,1,0,0:0:0:0:
64,192,15595,1,0,0:0:0:0:
192,192,15595,1,0,0:0:0:0:
448,192,15658,1,0,0:0:0:0:
64,192,15720,1,0,0:0:0:0:
448,192,15783,1,0,0:0:0:0:
192,192,15845,1,0,0:0:0:0:
448,192,15908,1,0,0:0:0:0:
64,192,15970,1,0,0:0:0:0:
320,192,16095,1,0,0:0:0:0:
192,192,16345,1,0,0:0:0:0:
320,192,16595,1,0,0:0:0:0:
448,192,16595,1,0,0:0:0:0:
64,192,16751,1,0,0:0:0:0:
448,192,16783,1,0,0:0:0:0:
192,192,16845,1,0,0:0:0:0:
320,192,16939,1,0,0:0:0:0:
448,192,17095,1,0,0:0:0:0:
192,192,17345,128,0,17470:0:0:0:0:
448,192,17470,128,0,17595:0:0:0:0:
64,192,17595,1,0,0:0:0:0:
320,192,17595,128,0,17720:0:0:0:0:
448,192,17720,128,0,17970:0:0:0:0:
192,192,17845,1,0,0:0:0:0:
64,192,17970,1,0,0:0:0:0:
320,192,18095,1,0,0:0:0:0:
192,192,18220,1,0,0:0:0:0:
320,192,18283,1,0,0:0:0:0:
192,192,18345,1,0,0:0:0:0:
448,192,18428,1,0,0:0:0:0:
64,192,18595,1,0,0:0:0:0:
192,192,18595,1,0,0:0:0:0:
320,192,18762,1,0,0:0:0:0:
448,192,18803,1,0,0:0:0:0:
64,192,18845,1,0,0:0:0:0:
320,192,18887,1,0,0:0:0:0:
192,192,18928,1,0,0:0:0:0:
448,192,19012,1,0,0:0:0:0:
192,192,19095,128,0,19595:0:0:0:0:
448,192,19314,1,0,0:0:0:0:
64,192,19595,128,0,19720:0:0:0:0:
320,192,19595,1,0,0:0:0:0:
192,192,19720,1,0,0:0:0:0:
448,192,19720,128,0,19845:0:0:0:0:
64,192,19845,128,0,19908:0:0:0:0:
192,192,19845,1,0,0:0:0:0:
320,192,19970,1,0,0:0:0:0:
448,192,19970,128,0,20033:0:0:0:0:
64,192,20095,1,0,0:0:0:0:
192,192,20095,1,0,0:0:0:0:
320,192,20095,1,0,0:0:0:0:
448,192,20178,1,0,0:0:0:0:
192,192,20262,1,0,0:0:0:0:
64,192,20345,1,0,0:0:0:0:
320,192,20345,1,0,0:0:0:0:
448,192,20387,1,0,0:0:0:0:
320,192,20470,1,0,0:0:0:0:
192,192,20532,1,0,0:0:0:0:
64,192,20595,1,0,0:0:0:0:
320,192,20595,1,0,0:0:0:0:
448,192,20595,1,0,0:0:0:0:
192,192,20637,1,0,0:0:0:0:
320,192,20720,1,0,0:0:0:0:
448,192,20782,1,0,0:0:0:0:
64,192,20845,1,0,0:0:0:0:
192,192,20845,1,0,0:0:0:0:
320,192,20887,1,0,0:0:0:0:
192,192,20970,1,0,0:0:0:0:
448,192,20970,1,0,0:0:0:0:
64,192,21012,1,0,0:0:0:0:
320,192,21095,1,0,0:0:0:0:
192,192,21157,1,0,0:0:0:0:
64,192,21220,1,0,0:0:0:0:
448,192,21220,1,0,0:0:0:0:
192,192,21262,1,0,0:0:0:0:
320,192,21345,1,0,0:0:0:0:
448,192,21345,1,0,0:0:0:0:
64,192,21387,1,0,0:0:0:0:
192,192,21470,1,0,0:0:0:0:
320,192,21532,1,0,0:0:0:0:
64,192,21595,1,0,0:0:0:0:
192,192,21595,1,0,0:0:0:0:
448,192,21595,1,0,0:0:0:0:
320,192,21678,1,0,0:0:0:0:
192,192,21762,1,0,0:0:0:0:
448,192,21845,1,0,0:0:0:0:
320,192,21928,1,0,0:0:0:0:
64,192,21970,1,0,0:0:0:0:
192,192,22012,1,0,0:0:0:0:
64,192,22095,1,0,0:0:0:0:
448,192,22095,1,0,0:0:0:0:
320,192,22178,1,0,0:0:0:0:
64,192,22262,1,0,0:0:0:0:
192,192,22345,1,0,0:0:0:0:
448,192,22345,1,0,0:0:0:0:
320,192,22387,1,0,0:0:0:0:
64,192,22470,1,0,0:0:0:0:
320,192,22532,1,0,0:0:0:0:
64,192,22595,1,0,0:0:0:0:
192,192,22595,1,0,0:0:0:0:
448,192,22595,1,0,0:0:0:0:
320,192,22637,1,0,0:0:0:0:
64,192,22720,1,0,0:0:0:0:
192,192,22782,1,0,0:0:0:0:
320,192,22845,1,0,0:0:0:0:
448,192,22845,1,0,0:0:0:0:
64,192,22887,1,0,0:0:0:0:
192,192,22970,1,0,0:0:0:0:
320,192,22970,1,0,0:0:0:0:
64,192,23012,1,0,0:0:0:0:
448,192,23095,1,0,0:0:0:0:
320,192,23178,1,0,0:0:0:0:
448,192,23262,1,0,0:0:0:0:
64,192,23345,1,0,0:0:0:0:
192,192,23345,1,0,0:0:0:0:
320,192,23387,1,0,0:0:0:0:
448,192,23470,1,0,0:0:0:0:
64,192,23532,1,0,0:0:0:0:
192,192,23595,1,0,0:0:0:0:
320,192,23595,1,0,0:0:0:0:
448,192,23595,1,0,0:0:0:0:
64,192,23637,1,0,0:0:0:0:
320,192,23720,1,0,0:0:0:0:
448,192,23782,1,0,0:0:0:0:
64,192,23845,1,0,0:0:0:0:
192,192,23845,1,0,0:0:0:0:
320,192,23887,1,0,0:0:0:0:
192,192,23970,1,0,0:0:0:0:
448,192,23970,1,0,0:0:0:0:
320,192,24012,1,0,0:0:0:0:
64,192,24095,1,0,0:0:0:0:
448,192,24095,1,0,0:0:0:0:
320,192,24157,1,0,0:0:0:0:
192,192,24220,1,0,0:0:0:0:
448,192,24282,1,0,0:0:0:0:
64,192,24345,1,0,0:0:0:0:
320,192,24428,1,0,0:0:0:0:
64,192,24470,1,0,0:0:0:0:
192,192,24512,1,0,0:0:0:0:
64,192,24595,1,0,0:0:0:0:
320,192,24595,1,0,0:0:0:0:
448,192,24595,1,0,0:0:0:0:
192,192,24678,1,0,0:0:0:0:
448,192,24720,1,0,0:0:0:0:
64,192,24762,1,0,0:0:0:0:
320,192,24845,1,0,0:0:0:0:
448,192,24928,1,0,0:0:0:0:
192,192,24970,1,0,0:0:0:0:
320,192,25012,1,0,0:0:0:0:
64,192,25095,1,0,0:0:0:0:
448,192,25095,1,0,0:0:0:0:
320,192,25178,1,0,0:0:0:0:
192,192,25262,1,0,0:0:0:0:
64,192,25345,1,0,0:0:0:0:
320,192,25428,1,0,0:0:0:0:
192,192,25512,1,0,0:0:0:0:
64,192,25595,1,0,0:0:0:0:
320,192,25595,1,0,0:0:0:0:
448,192,25595,1,0,0:0:0:0:
192,192,25678,1,0,0:0:0:0:
320,192,25762,1,0,0:0:0:0:
448,192,25845,1,0,0:0:0:0:
64,192,25907,1,0,0:0:0:0:
320,192,25970,1,0,0:0:0:0:
64,192,26095,1,0,0:0:0:0:
192,192,26095,1,0,0:0:0:0:
448,192,26157,1,0,0:0:0:0:
320,192,26220,1,0,0:0:0:0:
192,192,26282,1,0,0:0:0:0:
448,192,26345,1,0,0:0:0:0:
192,192,26407,1,0,0:0:0:0:
320,192,26470,1,0,0:0:0:0:
448,192,26532,1,0,0:0:0:0:
64,192,26595,1,0,0:0:0:0:
192,192,26595,1,0,0:0:0:0:
320,192,26657,1,0,0:0:0:0:
192,192,26720,1,0,0:0:0:0:
64,192,26845,1,0,0:0:0:0:
448,192,26845,1,0,0:0:0:0:
320,192,26970,1,0,0:0:0:0:
448,192,26970,1,0,0:0:0:0:
64,192,27095,1,0,0:0:0:0:
192,192,27095,1,0,0:0:0:0:
320,192,27220,1,0,0:0:0:0:
448,192,27220,1,0,0:0:0:0:
64,192,27345,1,0,0:0:0:0:
320,192,27470,1,0,0:0:0:0:
448,192,27470,1,0,0:0:0:0:
64,192,27595,1,0,0:0:0:0:
192,192,27595,1,0,0:0:0:0:
448,192,27595,1,0,0:0:0:0:
192,192,27720,1,0,0:0:0:0:
320,192,27720,1,0,0:0:0:0:
64,192,27970,1,0,0:0:0:0:
192,192,27970,1,0,0:0:0:0:
320,192,27970,1,0,0:0:0:0:
448,192,28032,1,0,0:0:0:0:
64,192,28095,1,0,0:0:0:0:
192,192,28157,1,0,0:0:0:0:
320,192,28220,1,0,0:0:0:0:
448,192,28282,1,0,0:0:0:0:
64,192,28345,1,0,0:0:0:0:
192,192,28345,1,0,0:0:0:0:
448,192,28428,1,0,0:0:0:0:
320,192,28511,1,0,0:0:0:0:
64,192,28595,1,0,0:0:0:0:
192,192,28595,1,0,0:0:0:0:
448,192,28595,1,0,0:0:0:0:
320,192,28636,1,0,0:0:0:0:
64,192,28720,1,0,0:0:0:0:
448,192,28782,1,0,0:0:0:0:
64,192,28845,1,0,0:0:0:0:
192,192,28845,1,0,0:0:0:0:
448,192,28886,1,0,0:0:0:0:
320,192,28970,1,0,0:0:0:0:
192,192,29032,1,0,0:0:0:0:
64,192,29095,1,0,0:0:0:0:
448,192,29095,1,0,0:0:0:0:
320,192,29136,1,0,0:0:0:0:
64,192,29220,1,0,0:0:0:0:
320,192,29282,1,0,0:0:0:0:
192,192,29345,1,0,0:0:0:0:
448,192,29345,1,0,0:0:0:0:
64,192,29386,1,0,0:0:0:0:
192,192,29470,1,0,0:0:0:0:
320,192,29470,1,0,0:0:0:0:
448,192,29511,1,0,0:0:0:0:
64,192,29595,1,0,0:0:0:0:
192,192,29595,1,0,0:0:0:0:
320,192,29595,1,0,0:0:0:0:
448,192,29678,1,0,0:0:0:0:
192,192,29761,1,0,0:0:0:0:
320,192,29845,1,0,0:0:0:0:
64,192,29928,1,0,0:0:0:0:
320,192,30011,1,0,0:0:0:0:
192,192,30095,1,0,0:0:0:0:
448,192,30095,1,0,0:0:0:0:
64,192,30178,1,0,0:0:0:0:
320,192,30261,1,0,0:0:0:0:
64,192,30345,1,0,0:0:0:0:
192,192,30345,1,0,0:0:0:0:
448,192,30386,1,0,0:0:0:0:
64,192,30470,1,0,0:0:0:0:
320,192,30532,1,0,0:0:0:0:
64,192,30595,1,0,0:0:0:0:
192,192,30595,1,0,0:0:0:0:
448,192,30595,1,0,0:0:0:0:
320,192,30636,1,0,0:0:0:0:
192,192,30720,1,0,0:0:0:0:
64,192,30782,1,0,0:0:0:0:
320,192,30845,1,0,0:0:0:0:
448,192,30845,1,0,0:0:0:0:
192,192,30886,1,0,0:0:0:0:
64,192,30970,1,0,0:0:0:0:
320,192,30970,1,0,0:0:0:0:
448,192,31011,1,0,0:0:0:0:
64,192,31095,1,0,0:0:0:0:
320,192,31178,1,0,0:0:0:0:
192,192,31261,1,0,0:0:0:0:
64,192,31345,1,0,0:0:0:0:
448,192,31386,1,0,0:0:0:0:
320,192,31428,1,0,0:0:0:0:
192,192,31511,1,0,0:0:0:0:
64,192,31595,1,0,0:0:0:0:
320,192,31595,1,0,0:0:0:0:
448,192,31595,1,0,0:0:0:0:
192,192,31636,1,0,0:0:0:0:
448,192,31678,1,0,0:0:0:0:
64,192,31761,1,0,0:0:0:0:
192,192,31845,1,0,0:0:0:0:
320,192,31886,1,0,0:0:0:0:
64,192,31928,1,0,0:0:0:0:
448,192,32011,1,0,0:0:0:0:
192,192,32095,1,0,0:0:0:0:
320,192,32095,1,0,0:0:0:0:
64,192,32157,1,0,0:0:0:0:
320,192,32220,1,0,0:0:0:0:
64,192,32282,1,0,0:0:0:0:
320,192,32345,1,0,0:0:0:0:
64,192,32470,1,0,0:0:0:0:
448,192,32532,1,0,0:0:0:0:
64,192,32595,1,0,0:0:0:0:
192,192,32595,1,0,0:0:0:0:
320,192,32595,1,0,0:0:0:0:
448,192,32657,1,0,0:0:0:0:
64,192,32720,1,0,0:0:0:0:
192,192,32803,1,0,0:0:0:0:
320,192,32886,1,0,0:0:0:0:
448,192,32970,1,0,0:0:0:0:
192,192,33095,1,0,0:0:0:0:
320,192,33095,1,0,0:0:0:0:
448,192,33157,1,0,0:0:0:0:
192,192,33220,1,0,0:0:0:0:
448,192,33282,1,0,0:0:0:0:
192,192,33345,1,0,0:0:0:0:
64,192,33470,1,0,0:0:0:0:
448,192,33532,1,0,0:0:0:0:
64,192,33595,1,0,0:0:0:0:
192,192,33595,1,0,0:0:0:0:
320,192,33595,1,0,0:0:0:0:
448,192,33657,1,0,0:0:0:0:
64,192,33720,1,0,0:0:0:0:
320,192,33803,1,0,0:0:0:0:
192,192,33886,1,0,0:0:0:0:
64,192,33928,1,0,0:0:0:0:
448,192,33970,1,0,0:0:0:0:
320,192,34011,1,0,0:0:0:0:
192,192,34053,1,0,0:0:0:0:
64,192,34095,1,0,0:0:0:0:
448,192,34095,1,0,0:0:0:0:
320,192,34157,1,0,0:0:0:0:
64,192,34220,1,0,0:0:0:0:
320,192,34282,1,0,0:0:0:0:
64,192,34345,1,0,0:0:0:0:
320,192,34470,1,0,0:0:0:0:
192,192,34532,1,0,0:0:0:0:
64,192,34595,1,0,0:0:0:0:
448,192,34595,1,0,0:0:0:0:
320,192,34657,1,0,0:0:0:0:
192,192,34720,1,0,0:0:0:0:
448,192,34782,1,0,0:0:0:0:
192,192,34845,1,0,0:0:0:0:
320,192,34907,1,0,0:0:0:0:
448,192,34970,1,0,0:0:0:0:
64,192,35032,1,0,0:0:0:0:
192,192,35095,1,0,0:0:0:0:
320,192,35095,1,0,0:0:0:0:
448,192,35157,1,0,0:0:0:0:
64,192,35220,1,0,0:0:0:0:
192,192,35282,1,0,0:0:0:0:
320,192,35345,1,0,0:0:0:0:
448,192,35407,1,0,0:0:0:0:
64,192,35470,1,0,0:0:0:0:
192,192,35532,1,0,0:0:0:0:
320,192,35595,1,0,0:0:0:0:
448,192,35595,1,0,0:0:0:0:
64,192,35720,1,0,0:0:0:0:
192,192,35720,1,0,0:0:0:0:
448,192,35761,1,0,0:0:0:0:
320,192,35803,1,0,0:0:0:0:
192,192,35845,1,0,0:0:0:0:
64,192,35886,1,0,0:0:0:0:
448,192,35928,1,0,0:0:0:0:
320,192,35970,1,0,0:0:0:0:
192,192,36011,1,0,0:0:0:0:
64,192,36053,1,0,0:0:0:0:
320,192,36095,1,0,0:0:0:0:
448,192,36095,1,0,0:0:0:0:
64,192,36178,1,0,0:0:0:0:
320,192,36261,1,0,0:0:0:0:
192,192,36345,1,0,0:0:0:0:
448,192,36345,1,0,0:0:0:0:
64,192,36386,1,0,0:0:0:0:
192,192,36470,1,0,0:0:0:0:
320,192,36532,1,0,0:0:0:0:
64,192,36595,1,0,0:0:0:0:
192,192,36595,1,0,0:0:0:0:
448,192,36595,1,0,0:0:0:0:
320,192,36636,1,0,0:0:0:0:
192,192,36720,1,0,0:0:0:0:
64,192,36782,1,0,0:0:0:0:
320,192,36845,1,0,0:0:0:0:
448,192,36845,1,0,0:0:0:0:
192,192,36886,1,0,0:0:0:0:
64,192,36970,1,0,0:0:0:0:
320,192,36970,1,0,0:0:0:0:
448,192,37011,1,0,0:0:0:0:
192,192,37095,1,0,0:0:0:0:
320,192,37157,1,0,0:0:0:0:
64,192,37220,1,0,0:0:0:0:
448,192,37220,1,0,0:0:0:0:
320,192,37261,1,0,0:0:0:0:
64,192,37345,1,0,0:0:0:0:
192,192,37345,1,0,0:0:0:0:
448,192,37386,1,0,0:0:0:0:
320,192,37470,1,0,0:0:0:0:
192,192,37532,1,0,0:0:0:0:
64,192,37595,1,0,0:0:0:0:
448,192,37595,1,0,0:0:0:0:
320,192,37626,1,0,0:0:0:0:
192,192,37678,1,0,0:0:0:0:
320,192,37761,1,0,0:0:0:0:
64,192,37845,1,0,0:0:0:0:
192,192,37928,1,0,0:0:0:0:
448,192,37970,1,0,0:0:0:0:
320,192,38011,1,0,0:0:0:0:
64,192,38095,1,0,0:0:0:0:
448,192,38095,1,0,0:0:0:0:
192,192,38178,1,0,0:0:0:0:
448,192,38261,1,0,0:0:0:0:
64,192,38345,1,0,0:0:0:0:
320,192,38345,1,0,0:0:0:0:
192,192,38386,1,0,0:0:0:0:
448,192,38470,1,0,0:0:0:0:
192,192,38532,1,0,0:0:0:0:
64,192,38595,1,0,0:0:0:0:
320,192,38595,1,0,0:0:0:0:
448,192,38595,1,0,0:0:0:0:
192,192,38636,1,0,0:0:0:0:
448,192,38720,1,0,0:0:0:0:
320,192,38782,1,0,0:0:0:0:
64,192,38845,1,0,0:0:0:0:
192,192,38845,1,0,0:0:0:0:
448,192,38886,1,0,0:0:0:0:
192,192,38970,1,0,0:0:0:0:
320,192,38970,1,0,0:0:0:0:
448,192,39011,1,0,0:0:0:0:
64,192,39095,1,0,0:0:0:0:
192,192,39178,1,0,0:0:0:0:
64,192,39261,1,0,0:0:0:0:
320,192,39345,1,0,0:0:0:0:
448,192,39345,1,0,0:0:0:0:
192,192,39386,1,0,0:0:0:0:
64,192,39470,1,0,0:0:0:0:
448,192,39532,1,0,0:0:0:0:
64,192,39595,1,0,0:0:0:0:
192,192,39595,1,0,0:0:0:0:
320,192,39595,1,0,0:0:0:0:
448,192,39636,1,0,0:0:0:0:
192,192,39720,1,0,0:0:0:0:
64,192,39782,1,0,0:0:0:0:
320,192,39845,1,0,0:0:0:0:
448,192,39845,1,0,0:0:0:0:
192,192,39886,1,0,0:0:0:0:
64,192,39970,1,0,0:0:0:0:
320,192,39970,1,0,0:0:0:0:
192,192,40011,1,0,0:0:0:0:
64,192,40094,1,0,0:0:0:0:
448,192,40094,1,0,0:0:0:0:
192,192,40157,1,0,0:0:0:0:
320,192,40219,1,0,0:0:0:0:
64,192,40282,1,0,0:0:0:0:
448,192,40344,1,0,0:0:0:0:
192,192,40428,1,0,0:0:0:0:
448,192,40469,1,0,0:0:0:0:
320,192,40511,1,0,0:0:0:0:
64,192,40594,1,0,0:0:0:0:
192,192,40594,1,0,0:0:0:0:
448,192,40594,1,0,0:0:0:0:
320,192,40678,1,0,0:0:0:0:
64,192,40719,1,0,0:0:0:0:
448,192,40761,1,0,0:0:0:0:
192,192,40844,1,0,0:0:0:0:
64,192,40928,1,0,0:0:0:0:
320,192,40969,1,0,0:0:0:0:
192,192,41011,1,0,0:0:0:0:
64,192,41094,1,0,0:0:0:0:
448,192,41094,1,0,0:0:0:0:
192,192,41178,1,0,0:0:0:0:
320,192,41261,1,0,0:0:0:0:
448,192,41344,1,0,0:0:0:0:
192,192,41428,1,0,0:0:0:0:
320,192,41511,1,0,0:0:0:0:
64,192,41594,1,0,0:0:0:0:
192,192,41594,1,0,0:0:0:0:
448,192,41594,1,0,0:0:0:0:
320,192,41678,1,0,0:0:0:0:
192,192,41761,1,0,0:0:0:0:
64,192,41844,1,0,0:0:0:0:
448,192,41907,1,0,0:0:0:0:
192,192,41969,1,0,0:0:0:0:
320,192,42094,1,0,0:0:0:0:
448,192,42094,1,0,0:0:0:0:
64,192,42157,1,0,0:0:0:0:
192,192,42219,1,0,0:0:0:0:
320,192,42282,1,0,0:0:0:0:
64,192,42344,1,0,0:0:0:0:
320,192,42407,1,0,0:0:0:0:
192,192,42469,1,0,0:0:0:0:
64,192,42532,1,0,0:0:0:0:
320,192,42594,1,0,0:0:0:0:
448,192,42594,1,0,0:0:0:0:
192,192,42657,1,0,0:0:0:0:
320,192,42719,1,0,0:0:0:0:
64,192,42844,1,0,0:0:0:0:
448,192,42844,1,0,0:0:0:0:
64,192,42969,1,0,0:0:0:0:
192,192,42969,1,0,0:0:0:0:
320,192,43094,1,0,0:0:0:0:
448,192,43094,1,0,0:0:0:0:
64,192,43219,1,0,0:0:0:0:
192,192,43219,1,0,0:0:0:0:
448,192,43344,1,0,0:0:0:0:
64,192,43469,1,0,0:0:0:0:
192,192,43469,1,0,0:0:0:0:
64,192,43594,1,0,0:0:0:0:
320,192,43594,1,0,0:0:0:0:
448,192,43594,1,0,0:0:0:0:
192,192,43719,1,0,0:0:0:0:
320,192,43719,1,0,0:0:0:0:
192,192,43969,1,0,0:0:0:0:
320,192,43969,1,0,0:0:0:0:
448,192,43969,1,0,0:0:0:0:
64,192,44032,1,0,0:0:0:0:
448,192,44094,1,0,0:0:0:0:
320,192,44157,1,0,0:0:0:0:
192,192,44219,1,0,0:0:0:0:
64,192,44282,1,0,0:0:0:0:
320,192,44344,1,0,0:0:0:0:
448,192,44344,1,0,0:0:0:0:
64,192,44428,1,0,0:0:0:0:
192,192,44511,1,0,0:0:0:0:
64,192,44594,1,0,0:0:0:0:
320,192,44594,1,0,0:0:0:0:
448,192,44594,1,0,0:0:0:0:
192,192,44636,1,0,0:0:0:0:
448,192,44719,1,0,0:0:0:0:
64,192,44782,1,0,0:0:0:0:
320,192,44844,1,0,0:0:0:0:
448,192,44844,1,0,0:0:0:0:
64,192,44886,1,0,0:0:0:0:
192,192,44969,1,0,0:0:0:0:
320,192,45032,1,0,0:0:0:0:
64,192,45094,1,0,0:0:0:0:
448,192,45094,1,0,0:0:0:0:
192,192,45136,1,0,0:0:0:0:
448,192,45219,1,0,0:0:0:0:
192,192,45282,1,0,0:0:0:0:
64,192,45344,1,0,0:0:0:0:
320,192,45344,1,0,0:0:0:0:
448,192,45386,1,0,0:0:0:0:
192,192,45469,1,0,0:0:0:0:
320,192,45469,1,0,0:0:0:0:
64,192,45511,1,0,0:0:0:0:
192,192,45594,1,0,0:0:0:0:
320,192,45594,1,0,0:0:0:0:
448,192,45594,1,0,0:0:0:0:
64,192,45678,1,0,0:0:0:0:
320,192,45761,1,0,0:0:0:0:
192,192,45844,1,0,0:0:0:0:
448,192,45928,1,0,0:0:0:0:
192,192,46011,1,0,0:0:0:0:
64,192,46094,1,0,0:0:0:0:
320,192,46094,1,0,0:0:0:0:
448,192,46178,1,0,0:0:0:0:
192,192,46261,1,0,0:0:0:0:
320,192,46344,1,0,0:0:0:0:
448,192,46344,1,0,0:0:0:0:
64,192,46386,1,0,0:0:0:0:
448,192,46469,1,0,0:0:0:0:
192,192,46532,1,0,0:0:0:0:
64,192,46594,1,0,0:0:0:0:
320,192,46594,1,0,0:0:0:0:
448,192,46594,1,0,0:0:0:0:
192,192,46636,1,0,0:0:0:0:
320,192,46719,1,0,0:0:0:0:
448,192,46782,1,0,0:0:0:0:
64,192,46844,1,0,0:0:0:0:
192,192,46844,1,0,0:0:0:0:
320,192,46886,1,0,0:0:0:0:
192,192,46969,1,0,0:0:0:0:
448,192,46969,1,0,0:0:0:0:
64,192,47011,1,0,0:0:0:0:
448,192,47094,1,0,0:0:0:0:
192,192,47178,1,0,0:0:0:0:
320,192,47261,1,0,0:0:0:0:
448,192,47344,1,0,0:0:0:0:
64,192,47386,1,0,0:0:0:0:
192,192,47428,1,0,0:0:0:0:
320,192,47511,1,0,0:0:0:0:
64,192,47594,1,0,0:0:0:0:
192,192,47594,1,0,0:0:0:0:
448,192,47594,1,0,0:0:0:0:
320,192,47636,1,0,0:0:0:0:
64,192,47719,1,0,0:0:0:0:
448,192,47761,1,0,0:0:0:0:
320,192,47803,1,0,0:0:0:0:
192,192,47844,1,0,0:0:0:0:
64,192,47886,1,0,0:0:0:0:
448,192,47928,1,0,0:0:0:0:
320,192,47969,1,0,0:0:0:0:
192,192,48011,1,0,0:0:0:0:
64,192,48053,1,0,0:0:0:0:
320,192,48094,1,0,0:0:0:0:
448,192,48094,1,0,0:0:0:0:
192,192,48219,1,0,0:0:0:0:
320,192,48344,1,0,0:0:0:0:
448,192,48469,1,0,0:0:0:0:
64,192,48594,1,0,0:0:0:0:
448,192,48594,1,0,0:0:0:0:
64,192,48719,1,0,0:0:0:0:
192,192,48844,1,0,0:0:0:0:
320,192,49094,1,0,0:0:0:0:
64,192,49594,1,0,0:0:0:0:
448,192,49594,1,0,0:0:0:0:
320,192,49969,1,0,0:0:0:0:
192,192,50094,1,0,0:0:0:0:
448,192,50344,1,0,0:0:0:0:
192,192,50469,1,0,0:0:0:0:
320,192,50594,1,0,0:0:0:0:
448,192,50594,1,0,0:0:0:0:
64,192,50719,1,0,0:0:0:0:
192,192,50844,1,0,0:0:0:0:
320,192,50969,1,0,0:0:0:0:
64,192,51094,1,0,0:0:0:0:
448,192,51219,1,0,0:0:0:0:
192,192,51344,1,0,0:0:0:0:
448,192,51469,1,0,0:0:0:0:
64,192,51594,1,0,0:0:0:0:
320,192,51594,1,0,0:0:0:0:
64,192,51719,1,0,0:0:0:0:
320,192,51844,1,0,0:0:0:0:
320,192,51969,1,0,0:0:0:0:
64,192,52094,1,0,0:0:0:0:
192,192,52219,1,0,0:0:0:0:
448,192,52344,1,0,0:0:0:0:
320,192,52469,1,0,0:0:0:0:
64,192,52594,1,0,0:0:0:0:
192,192,52594,1,0,0:0:0:0:
448,192,52719,1,0,0:0:0:0:
192,192,52844,1,0,0:0:0:0:
320,192,52969,1,0,0:0:0:0:
320,192,53094,1,0,0:0:0:0:
192,192,53219,1,0,0:0:0:0:
64,192,53344,1,0,0:0:0:0:
64,192,53469,1,0,0:0:0:0:
64,192,53594,1,0,0:0:0:0:
320,192,53594,1,0,0:0:0:0:
448,192,53719,1,0,0:0:0:0:
192,192,53844,1,0,0:0:0:0:
320,192,53969,1,0,0:0:0:0:
320,192,54094,1,0,0:0:0:0:
64,192,54219,1,0,0:0:0:0:
192,192,54344,1,0,0:0:0:0:
320,192,54469,1,0,0:0:0:0:
64,192,54594,1,0,0:0:0:0:
448,192,54594,1,0,0:0:0:0:
448,192,54719,1,0,0:0:0:0:
192,192,54844,1,0,0:0:0:0:
192,192,54969,1,0,0:0:0:0:
64,192,55094,1,0,0:0:0:0:
192,192,55219,1,0,0:0:0:0:
192,192,55344,1,0,0:0:0:0:
320,192,55469,1,0,0:0:0:0:
64,192,55594,1,0,0:0:0:0:
192,192,55594,1,0,0:0:0:0:
448,192,55719,1,0,0:0:0:0:
320,192,55844,1,0,0:0:0:0:
192,192,55969,1,0,0:0:0:0:
448,192,56094,1,0,0:0:0:0:
448,192,56219,1,0,0:0:0:0:
192,192,56344,1,0,0:0:0:0:
320,192,56469,1,0,0:0:0:0:
64,192,56594,1,0,0:0:0:0:
448,192,56594,1,0,0:0:0:0:
192,192,56719,1,0,0:0:0:0:
448,192,56844,1,0,0:0:0:0:
64,192,56969,1,0,0:0:0:0:
64,192,57094,1,0,0:0:0:0:
448,192,57219,1,0,0:0:0:0:
320,192,57344,1,0,0:0:0:0:
64,192,57469,1,0,0:0:0:0:
320,192,57594,1,0,0:0:0:0:
448,192,57594,1,0,0:0:0:0:
192,192,57719,1,0,0:0:0:0:
320,192,57844,1,0,0:0:0:0:
64,192,57969,1,0,0:0:0:0:
192,192,58094,1,0,0:0:0:0:
448,192,58219,1,0,0:0:0:0:
64,192,58344,1,0,0:0:0:0:
320,192,58469,1,0,0:0:0:0:
64,192,58594,1,0,0:0:0:0:
192,192,58594,1,0,0:0:0:0:
448,192,58719,1,0,0:0:0:0:
320,192,58844,1,0,0:0:0:0:
64,192,58969,1,0,0:0:0:0:
448,192,59094,1,0,0:0:0:0:
192,192,59219,1,0,0:0:0:0:
320,192,59344,1,0,0:0:0:0:
192,192,59469,1,0,0:0:0:0:
64,192,59594,1,0,0:0:0:0:
320,192,59594,1,0,0:0:0:0:
64,192,59719,1,0,0:0:0:0:
448,192,59844,1,0,0:0:0:0:
448,192,59969,1,0,0:0:0:0:
64,192,60094,1,0,0:0:0:0:
320,192,60094,1,0,0:0:0:0:
192,192,60177,1,0,0:0:0:0:
448,192,60219,1,0,0:0:0:0:
320,192,60261,1,0,0:0:0:0:
192,192,60344,1,0,0:0:0:0:
64,192,60469,1,0,0:0:0:0:
448,192,60552,1,0,0:0:0:0:
192,192,60594,1,0,0:0:0:0:
64,192,60636,1,0,0:0:0:0:
448,192,60719,1,0,0:0:0:0:
320,192,60844,1,0,0:0:0:0:
192,192,60927,1,0,0:0:0:0:
64,192,60969,1,0,0:0:0:0:
320,192,61011,1,0,0:0:0:0:
64,192,61094,1,0,0:0:0:0:
448,192,61177,1,0,0:0:0:0:
64,192,61261,1,0,0:0:0:0:
448,192,61344,1,0,0:0:0:0:
64,192,61427,1,0,0:0:0:0:
448,192,61469,1,0,0:0:0:0:
320,192,61511,1,0,0:0:0:0:
192,192,61594,1,0,0:0:0:0:
448,192,61594,1,0,0:0:0:0:
320,192,61677,1,0,0:0:0:0:
64,192,61719,1,0,0:0:0:0:
192,192,61761,1,0,0:0:0:0:
448,192,61844,1,0,0:0:0:0:
64,192,61927,1,0,0:0:0:0:
448,192,62011,1,0,0:0:0:0:
192,192,62094,1,0,0:0:0:0:
320,192,62177,1,0,0:0:0:0:
192,192,62261,1,0,0:0:0:0:
448,192,62344,1,0,0:0:0:0:
64,192,62406,1,0,0:0:0:0:
448,192,62469,1,0,0:0:0:0:
64,192,62531,1,0,0:0:0:0:
320,192,62594,1,0,0:0:0:0:
448,192,62594,1,0,0:0:0:0:
192,192,62656,1,0,0:0:0:0:
64,192,62719,1,0,0:0:0:0:
192,192,62781,1,0,0:0:0:0:
448,192,62844,1,0,0:0:0:0:
64,192,62906,1,0,0:0:0:0:
448,192,62969,1,0,0:0:0:0:
320,192,63031,1,0,0:0:0:0:
64,192,63094,128,0,63156:0:0:0:0:
448,192,63219,1,0,0:0:0:0:
448,192,63344,1,0,0:0:0:0:
320,192,63469,1,0,0:0:0:0:
64,192,63594,128,0,63656:0:0:0:0:
448,192,63719,1,0,0:0:0:0:
192,192,63844,1,0,0:0:0:0:
320,192,63969,1,0,0:0:0:0:
64,192,64094,1,0,0:0:0:0:
192,192,64094,1,0,0:0:0:0:
448,192,64094,1,0,0:0:0:0:
320,192,64177,1,0,0:0:0:0:
64,192,64219,1,0,0:0:0:0:
192,192,64261,1,0,0:0:0:0:
320,192,64344,1,0,0:0:0:0:
64,192,64469,1,0,0:0:0:0:
448,192,64469,1,0,0:0:0:0:
320,192,64552,1,0,0:0:0:0:
64,192,64594,1,0,0:0:0:0:
192,192,64594,1,0,0:0:0:0:
448,192,64636,1,0,0:0:0:0:
192,192,64719,1,0,0:0:0:0:
64,192,64844,1,0,0:0:0:0:
320,192,64844,1,0,0:0:0:0:
320,192,64969,1,0,0:0:0:0:
448,192,64969,1,0,0:0:0:0:
64,192,65094,1,0,0:0:0:0:
192,192,65094,1,0,0:0:0:0:
64,192,65219,1,0,0:0:0:0:
320,192,65219,1,0,0:0:0:0:
320,192,65344,1,0,0:0:0:0:
192,192,65469,1,0,0:0:0:0:
448,192,65469,1,0,0:0:0:0:
64,192,65594,1,0,0:0:0:0:
192,192,65594,1,0,0:0:0:0:
320,192,65594,1,0,0:0:0:0:
448,192,65656,1,0,0:0:0:0:
64,192,65719,1,0,0:0:0:0:
192,192,65781,1,0,0:0:0:0:
320,192,65844,1,0,0:0:0:0:
448,192,65906,1,0,0:0:0:0:
64,192,65969,1,0,0:0:0:0:
448,192,66011,1,0,0:0:0:0:
320,192,66052,1,0,0:0:0:0:
64,192,66094,1,0,0:0:0:0:
192,192,66094,1,0,0:0:0:0:
448,192,66177,1,0,0:0:0:0:
192,192,66219,1,0,0:0:0:0:
320,192,66261,1,0,0:0:0:0:
64,192,66344,1,0,0:0:0:0:
192,192,66469,1,0,0:0:0:0:
320,192,66469,1,0,0:0:0:0:
64,192,66552,1,0,0:0:0:0:
320,192,66594,1,0,0:0:0:0:
448,192,66594,1,0,0:0:0:0:
192,192,66636,1,0,0:0:0:0:
448,192,66719,1,0,0:0:0:0:
192,192,66844,1,0,0:0:0:0:
320,192,66844,1,0,0:0:0:0:
192,192,66969,1,0,0:0:0:0:
64,192,67094,1,0,0:0:0:0:
320,192,67094,1,0,0:0:0:0:
64,192,67219,1,0,0:0:0:0:
192,192,67219,1,0,0:0:0:0:
320,192,67344,1,0,0:0:0:0:
192,192,67469,1,0,0:0:0:0:
320,192,67469,1,0,0:0:0:0:
64,192,67594,1,0,0:0:0:0:
192,192,67594,1,0,0:0:0:0:
448,192,67594,1,0,0:0:0:0:
320,192,67656,1,0,0:0:0:0:
64,192,67719,1,0,0:0:0:0:
448,192,67781,1,0,0:0:0:0:
192,192,67844,1,0,0:0:0:0:
64,192,67906,1,0,0:0:0:0:
448,192,67969,1,0,0:0:0:0:
320,192,68031,1,0,0:0:0:0:
64,192,68094,1,0,0:0:0:0:
192,192,68094,1,0,0:0:0:0:
448,192,68156,1,0,0:0:0:0:
192,192,68219,1,0,0:0:0:0:
320,192,68281,1,0,0:0:0:0:
64,192,68344,1,0,0:0:0:0:
448,192,68344,1,0,0:0:0:0:
64,192,68469,1,0,0:0:0:0:
192,192,68531,1,0,0:0:0:0:
320,192,68594,1,0,0:0:0:0:
448,192,68594,1,0,0:0:0:0:
192,192,68656,1,0,0:0:0:0:
320,192,68719,1,0,0:0:0:0:
64,192,68844,1,0,0:0:0:0:
192,192,68844,1,0,0:0:0:0:
448,192,68906,1,0,0:0:0:0:
192,192,68969,1,0,0:0:0:0:
64,192,69094,1,0,0:0:0:0:
448,192,69094,1,0,0:0:0:0:
192,192,69156,1,0,0:0:0:0:
320,192,69219,1,0,0:0:0:0:
192,192,69281,1,0,0:0:0:0:
320,192,69344,1,0,0:0:0:0:
448,192,69344,1,0,0:0:0:0:
192,192,69427,1,0,0:0:0:0:
320,192,69510,1,0,0:0:0:0:
64,192,69594,1,0,0:0:0:0:
192,192,69594,1,0,0:0:0:0:
448,192,69656,1,0,0:0:0:0:
192,192,69719,1,0,0:0:0:0:
64,192,69781,1,0,0:0:0:0:
320,192,69844,1,0,0:0:0:0:
448,192,69844,1,0,0:0:0:0:
192,192,69906,1,0,0:0:0:0:
320,192,69969,1,0,0:0:0:0:
64,192,70031,1,0,0:0:0:0:
192,192,70094,1,0,0:0:0:0:
320,192,70094,1,0,0:0:0:0:
448,192,70156,1,0,0:0:0:0:
192,192,70219,1,0,0:0:0:0:
320,192,70344,1,0,0:0:0:0:
448,192,70344,1,0,0:0:0:0:
192,192,70406,1,0,0:0:0:0:
320,192,70469,1,0,0:0:0:0:
64,192,70594,1,0,0:0:0:0:
448,192,70594,1,0,0:0:0:0:
192,192,70656,1,0,0:0:0:0:
64,192,70719,1,0,0:0:0:0:
320,192,70844,1,0,0:0:0:0:
448,192,70844,1,0,0:0:0:0:
192,192,70906,1,0,0:0:0:0:
320,192,70969,1,0,0:0:0:0:
192,192,71031,1,0,0:0:0:0:
64,192,71094,1,0,0:0:0:0:
320,192,71094,1,0,0:0:0:0:
192,192,71177,1,0,0:0:0:0:
320,192,71260,1,0,0:0:0:0:
64,192,71344,1,0,0:0:0:0:
192,192,71344,1,0,0:0:0:0:
320,192,71427,1,0,0:0:0:0:
64,192,71469,1,0,0:0:0:0:
192,192,71510,1,0,0:0:0:0:
320,192,71594,1,0,0:0:0:0:
448,192,71594,1,0,0:0:0:0:
64,192,71656,1,0,0:0:0:0:
320,192,71719,1,0,0:0:0:0:
192,192,71781,1,0,0:0:0:0:
64,192,71844,1,0,0:0:0:0:
448,192,71906,1,0,0:0:0:0:
64,192,71969,1,0,0:0:0:0:
320,192,72010,1,0,0:0:0:0:
448,192,72052,1,0,0:0:0:0:
64,192,72094,1,0,0:0:0:0:
192,192,72094,1,0,0:0:0:0:
320,192,72177,1,0,0:0:0:0:
448,192,72219,1,0,0:0:0:0:
192,192,72260,1,0,0:0:0:0:
64,192,72344,1,0,0:0:0:0:
320,192,72469,1,0,0:0:0:0:
448,192,72469,1,0,0:0:0:0:
192,192,72552,1,0,0:0:0:0:
64,192,72594,1,0,0:0:0:0:
448,192,72594,1,0,0:0:0:0:
320,192,72635,1,0,0:0:0:0:
448,192,72719,1,0,0:0:0:0:
192,192,72844,1,0,0:0:0:0:
320,192,72844,1,0,0:0:0:0:
64,192,72969,1,0,0:0:0:0:
192,192,72969,1,0,0:0:0:0:
320,192,73094,1,0,0:0:0:0:
448,192,73094,1,0,0:0:0:0:
64,192,73219,1,0,0:0:0:0:
448,192,73219,1,0,0:0:0:0:
64,192,73344,1,0,0:0:0:0:
192,192,73469,1,0,0:0:0:0:
320,192,73469,1,0,0:0:0:0:
64,192,73594,1,0,0:0:0:0:
320,192,73594,1,0,0:0:0:0:
448,192,73594,1,0,0:0:0:0:
192,192,73656,1,0,0:0:0:0:
320,192,73719,1,0,0:0:0:0:
64,192,73781,1,0,0:0:0:0:
192,192,73844,1,0,0:0:0:0:
448,192,73906,1,0,0:0:0:0:
320,192,73969,1,0,0:0:0:0:
192,192,74010,1,0,0:0:0:0:
64,192,74052,1,0,0:0:0:0:
320,192,74094,1,0,0:0:0:0:
448,192,74094,1,0,0:0:0:0:
192,192,74177,1,0,0:0:0:0:
64,192,74219,1,0,0:0:0:0:
448,192,74260,1,0,0:0:0:0:
320,192,74344,1,0,0:0:0:0:
64,192,74469,1,0,0:0:0:0:
448,192,74469,1,0,0:0:0:0:
192,192,74552,1,0,0:0:0:0:
320,192,74594,1,0,0:0:0:0:
448,192,74594,1,0,0:0:0:0:
64,192,74635,1,0,0:0:0:0:
320,192,74719,1,0,0:0:0:0:
192,192,74844,1,0,0:0:0:0:
448,192,74844,1,0,0:0:0:0:
192,192,74969,1,0,0:0:0:0:
64,192,75094,1,0,0:0:0:0:
448,192,75094,1,0,0:0:0:0:
64,192,75219,1,0,0:0:0:0:
320,192,75219,1,0,0:0:0:0:
448,192,75344,1,0,0:0:0:0:
192,192,75469,1,0,0:0:0:0:
448,192,75469,1,0,0:0:0:0:
64,192,75594,1,0,0:0:0:0:
192,192,75594,1,0,0:0:0:0:
320,192,75594,1,0,0:0:0:0:
448,192,75656,1,0,0:0:0:0:
64,192,75719,1,0,0:0:0:0:
192,192,75781,1,0,0:0:0:0:
320,192,75844,1,0,0:0:0:0:
64,192,75906,1,0,0:0:0:0:
320,192,75969,1,0,0:0:0:0:
192,192,76031,1,0,0:0:0:0:
64,192,76094,1,0,0:0:0:0:
448,192,76094,1,0,0:0:0:0:
320,192,76156,1,0,0:0:0:0:
448,192,76219,1,0,0:0:0:0:
192,192,76281,1,0,0:0:0:0:
320,192,76344,1,0,0:0:0:0:
448,192,76344,1,0,0:0:0:0:
64,192,76469,1,0,0:0:0:0:
320,192,76531,1,0,0:0:0:0:
64,192,76594,1,0,0:0:0:0:
448,192,76594,1,0,0:0:0:0:
192,192,76656,1,0,0:0:0:0:
64,192,76719,1,0,0:0:0:0:
192,192,76844,1,0,0:0:0:0:
448,192,76844,1,0,0:0:0:0:
320,192,76906,1,0,0:0:0:0:
448,192,76969,1,0,0:0:0:0:
64,192,77094,1,0,0:0:0:0:
192,192,77094,1,0,0:0:0:0:
448,192,77156,1,0,0:0:0:0:
64,192,77219,1,0,0:0:0:0:
320,192,77281,1,0,0:0:0:0:
64,192,77344,1,0,0:0:0:0:
448,192,77344,1,0,0:0:0:0:
192,192,77427,1,0,0:0:0:0:
64,192,77510,1,0,0:0:0:0:
192,192,77594,1,0,0:0:0:0:
448,192,77594,1,0,0:0:0:0:
320,192,77656,1,0,0:0:0:0:
448,192,77719,1,0,0:0:0:0:
192,192,77781,1,0,0:0:0:0:
64,192,77844,1,0,0:0:0:0:
448,192,77844,1,0,0:0:0:0:
320,192,77906,1,0,0:0:0:0:
64,192,77969,1,0,0:0:0:0:
192,192,78031,1,0,0:0:0:0:
64,192,78094,1,0,0:0:0:0:
448,192,78094,1,0,0:0:0:0:
320,192,78156,1,0,0:0:0:0:
448,192,78219,1,0,0:0:0:0:
64,192,78344,1,0,0:0:0:0:
192,192,78344,1,0,0:0:0:0:
320,192,78406,1,0,0:0:0:0:
64,192,78469,1,0,0:0:0:0:
192,192,78594,1,0,0:0:0:0:
320,192,78594,1,0,0:0:0:0:
448,192,78656,1,0,0:0:0:0:
320,192,78719,1,0,0:0:0:0:
64,192,78844,1,0,0:0:0:0:
192,192,78844,1,0,0:0:0:0:
320,192,78906,1,0,0:0:0:0:
64,192,78969,1,0,0:0:0:0:
448,192,79031,1,0,0:0:0:0:
64,192,79094,1,0,0:0:0:0:
320,192,79094,1,0,0:0:0:0:
448,192,79177,1,0,0:0:0:0:
192,192,79260,1,0,0:0:0:0:
64,192,79344,1,0,0:0:0:0:
448,192,79344,1,0,0:0:0:0:
320,192,79427,1,0,0:0:0:0:
64,192,79469,1,0,0:0:0:0:
448,192,79510,1,0,0:0:0:0:
192,192,79594,1,0,0:0:0:0:
320,192,79594,1,0,0:0:0:0:
448,192,79656,1,0,0:0:0:0:
192,192,79719,1,0,0:0:0:0:
320,192,79781,1,0,0:0:0:0:
64,192,79844,1,0,0:0:0:0:
192,192,79906,1,0,0:0:0:0:
64,192,79969,1,0,0:0:0:0:
320,192,80010,1,0,0:0:0:0:
192,192,80052,1,0,0:0:0:0:
448,192,80094,1,0,0:0:0:0:
64,192,80177,1,0,0:0:0:0:
320,192,80218,1,0,0:0:0:0:
192,192,80260,1,0,0:0:0:0:
320,192,80343,1,0,0:0:0:0:
448,192,80343,1,0,0:0:0:0:
64,192,80468,1,0,0:0:0:0:
320,192,80552,1,0,0:0:0:0:
64,192,80593,1,0,0:0:0:0:
192,192,80593,1,0,0:0:0:0:
448,192,80635,1,0,0:0:0:0:
192,192,80718,1,0,0:0:0:0:
320,192,80843,1,0,0:0:0:0:
448,192,80843,1,0,0:0:0:0:
192,192,80968,1,0,0:0:0:0:
320,192,80968,1,0,0:0:0:0:
64,192,81093,1,0,0:0:0:0:
448,192,81093,1,0,0:0:0:0:
64,192,81218,1,0,0:0:0:0:
192,192,81218,1,0,0:0:0:0:
192,192,81343,1,0,0:0:0:0:
320,192,81468,1,0,0:0:0:0:
448,192,81468,1,0,0:0:0:0:
64,192,81593,1,0,0:0:0:0:
192,192,81593,1,0,0:0:0:0:
448,192,81593,1,0,0:0:0:0:
320,192,81656,1,0,0:0:0:0:
192,192,81718,1,0,0:0:0:0:
448,192,81781,1,0,0:0:0:0:
64,192,81843,1,0,0:0:0:0:
320,192,81906,1,0,0:0:0:0:
192,192,81968,1,0,0:0:0:0:
64,192,82010,1,0,0:0:0:0:
448,192,82052,1,0,0:0:0:0:
192,192,82093,1,0,0:0:0:0:
320,192,82093,1,0,0:0:0:0:
64,192,82177,1,0,0:0:0:0:
320,192,82218,1,0,0:0:0:0:
448,192,82260,1,0,0:0:0:0:
192,192,82343,1,0,0:0:0:0:
448,192,82468,1,0,0:0:0:0:
320,192,82552,1,0,0:0:0:0:
64,192,82593,1,0,0:0:0:0:
192,192,82593,1,0,0:0:0:0:
448,192,82635,1,0,0:0:0:0:
64,192,82718,1,0,0:0:0:0:
320,192,82843,1,0,0:0:0:0:
448,192,82843,1,0,0:0:0:0:
320,192,82968,1,0,0:0:0:0:
64,192,83093,1,0,0:0:0:0:
448,192,83093,1,0,0:0:0:0:
192,192,83218,1,0,0:0:0:0:
448,192,83218,1,0,0:0:0:0:
64,192,83343,1,0,0:0:0:0:
64,192,83468,1,0,0:0:0:0:
192,192,83468,1,0,0:0:0:0:
192,192,83593,1,0,0:0:0:0:
320,192,83593,1,0,0:0:0:0:
448,192,83593,1,0,0:0:0:0:
64,192,83656,1,0,0:0:0:0:
320,192,83718,1,0,0:0:0:0:
192,192,83781,1,0,0:0:0:0:
64,192,83843,1,0,0:0:0:0:
320,192,83906,1,0,0:0:0:0:
64,192,83968,1,0,0:0:0:0:
448,192,84031,1,0,0:0:0:0:
192,192,84093,1,0,0:0:0:0:
320,192,84093,1,0,0:0:0:0:
64,192,84156,1,0,0:0:0:0:
192,192,84218,1,0,0:0:0:0:
320,192,84281,1,0,0:0:0:0:
192,192,84343,1,0,0:0:0:0:
448,192,84343,1,0,0:0:0:0:
320,192,84468,1,0,0:0:0:0:
448,192,84531,1,0,0:0:0:0:
64,192,84593,1,0,0:0:0:0:
320,192,84593,1,0,0:0:0:0:
192,192,84656,1,0,0:0:0:0:
320,192,84718,1,0,0:0:0:0:
64,192,84843,1,0,0:0:0:0:
192,192,84843,1,0,0:0:0:0:
320,192,84906,1,0,0:0:0:0:
192,192,84968,1,0,0:0:0:0:
320,192,85093,1,0,0:0:0:0:
448,192,85093,1,0,0:0:0:0:
192,192,85156,1,0,0:0:0:0:
320,192,85218,1,0,0:0:0:0:
448,192,85281,1,0,0:0:0:0:
64,192,85343,1,0,0:0:0:0:
320,192,85343,1,0,0:0:0:0:
192,192,85427,1,0,0:0:0:0:
64,192,85468,1,0,0:0:0:0:
320,192,85510,1,0,0:0:0:0:
192,192,85593,1,0,0:0:0:0:
448,192,85593,1,0,0:0:0:0:
64,192,85656,1,0,0:0:0:0:
192,192,85718,1,0,0:0:0:0:
448,192,85781,1,0,0:0:0:0:
64,192,85843,1,0,0:0:0:0:
320,192,85843,1,0,0:0:0:0:
192,192,85906,1,0,0:0:0:0:
320,192,85968,1,0,0:0:0:0:
448,192,86031,1,0,0:0:0:0:
64,192,86093,1,0,0:0:0:0:
192,192,86093,1,0,0:0:0:0:
320,192,86156,1,0,0:0:0:0:
192,192,86218,1,0,0:0:0:0:
64,192,86343,1,0,0:0:0:0:
320,192,86343,1,0,0:0:0:0:
448,192,86406,1,0,0:0:0:0:
320,192,86468,1,0,0:0:0:0:
64,192,86593,1,0,0:0:0:0:
448,192,86593,1,0,0:0:0:0:
192,192,86656,1,0,0:0:0:0:
64,192,86718,1,0,0:0:0:0:
192,192,86843,1,0,0:0:0:0:
320,192,86843,1,0,0:0:0:0:
448,192,86906,1,0,0:0:0:0:
320,192,86968,1,0,0:0:0:0:
192,192,87031,1,0,0:0:0:0:
64,192,87093,1,0,0:0:0:0:
192,192,87177,1,0,0:0:0:0:
320,192,87260,1,0,0:0:0:0:
448,192,87343,1,0,0:0:0:0:
320,192,87427,1,0,0:0:0:0:
448,192,87468,1,0,0:0:0:0:
192,192,87510,1,0,0:0:0:0:
64,192,87593,1,0,0:0:0:0:
320,192,87593,1,0,0:0:0:0:
448,192,87656,1,0,0:0:0:0:
64,192,87718,1,0,0:0:0:0:
320,192,87781,1,0,0:0:0:0:
448,192,87843,1,0,0:0:0:0:
192,192,87906,1,0,0:0:0:0:
448,192,87968,1,0,0:0:0:0:
64,192,88010,1,0,0:0:0:0:
192,192,88052,1,0,0:0:0:0:
320,192,88093,1,0,0:0:0:0:
448,192,88093,1,0,0:0:0:0:
192,192,88177,1,0,0:0:0:0:
64,192,88218,1,0,0:0:0:0:
320,192,88260,1,0,0:0:0:0:
448,192,88343,1,0,0:0:0:0:
64,192,88468,1,0,0:0:0:0:
192,192,88468,1,0,0:0:0:0:
320,192,88552,1,0,0:0:0:0:
64,192,88593,1,0,0:0:0:0:
448,192,88593,1,0,0:0:0:0:
192,192,88635,1,0,0:0:0:0:
64,192,88718,1,0,0:0:0:0:
192,192,88843,1,0,0:0:0:0:
320,192,88843,1,0,0:0:0:0:
320,192,88968,1,0,0:0:0:0:
448,192,88968,1,0,0:0:0:0:
64,192,89093,1,0,0:0:0:0:
192,192,89093,1,0,0:0:0:0:
64,192,89218,1,0,0:0:0:0:
448,192,89218,1,0,0:0:0:0:
448,192,89343,1,0,0:0:0:0:
192,192,89468,1,0,0:0:0:0:
320,192,89468,1,0,0:0:0:0:
64,192,89593,1,0,0:0:0:0:
192,192,89593,1,0,0:0:0:0:
448,192,89593,1,0,0:0:0:0:
320,192,89656,1,0,0:0:0:0:
192,192,89718,1,0,0:0:0:0:
448,192,89781,1,0,0:0:0:0:
320,192,89843,1,0,0:0:0:0:
64,192,89906,1,0,0:0:0:0:
192,192,89968,1,0,0:0:0:0:
320,192,90010,1,0,0:0:0:0:
448,192,90052,1,0,0:0:0:0:
64,192,90093,1,0,0:0:0:0:
192,192,90093,1,0,0:0:0:0:
320,192,90177,1,0,0:0:0:0:
448,192,90218,1,0,0:0:0:0:
64,192,90260,1,0,0:0:0:0:
192,192,90343,1,0,0:0:0:0:
64,192,90468,1,0,0:0:0:0:
448,192,90468,1,0,0:0:0:0:
320,192,90552,1,0,0:0:0:0:
64,192,90593,1,0,0:0:0:0:
192,192,90593,1,0,0:0:0:0:
448,192,90635,1,0,0:0:0:0:
192,192,90718,1,0,0:0:0:0:
64,192,90843,1,0,0:0:0:0:
320,192,90843,1,0,0:0:0:0:
320,192,90968,1,0,0:0:0:0:
64,192,91093,1,0,0:0:0:0:
448,192,91093,1,0,0:0:0:0:
192,192,91218,1,0,0:0:0:0:
448,192,91218,1,0,0:0:0:0:
64,192,91343,1,0,0:0:0:0:
64,192,91468,1,0,0:0:0:0:
320,192,91468,1,0,0:0:0:0:
192,192,91593,1,0,0:0:0:0:
320,192,91593,1,0,0:0:0:0:
448,192,91593,1,0,0:0:0:0:
64,192,91656,1,0,0:0:0:0:
448,192,91718,1,0,0:0:0:0:
320,192,91781,1,0,0:0:0:0:
192,192,91843,1,0,0:0:0:0:
448,192,91906,1,0,0:0:0:0:
192,192,91968,1,0,0:0:0:0:
320,192,92031,1,0,0:0:0:0:
64,192,92093,1,0,0:0:0:0:
448,192,92093,1,0,0:0:0:0:
192,192,92156,1,0,0:0:0:0:
64,192,92218,1,0,0:0:0:0:
320,192,92281,1,0,0:0:0:0:
64,192,92343,1,0,0:0:0:0:
192,192,92343,1,0,0:0:0:0:
448,192,92468,1,0,0:0:0:0:
192,192,92531,1,0,0:0:0:0:
64,192,92593,1,0,0:0:0:0:
448,192,92593,1,0,0:0:0:0:
320,192,92656,1,0,0:0:0:0:
448,192,92718,1,0,0:0:0:0:
64,192,92843,1,0,0:0:0:0:
320,192,92843,1,0,0:0:0:0:
192,192,92906,1,0,0:0:0:0:
64,192,92968,1,0,0:0:0:0:
320,192,93093,1,0,0:0:0:0:
448,192,93093,1,0,0:0:0:0:
64,192,93156,1,0,0:0:0:0:
448,192,93218,1,0,0:0:0:0:
192,192,93281,1,0,0:0:0:0:
64,192,93343,1,0,0:0:0:0:
448,192,93343,1,0,0:0:0:0:
320,192,93427,1,0,0:0:0:0:
192,192,93468,1,0,0:0:0:0:
448,192,93510,1,0,0:0:0:0:
64,192,93593,1,0,0:0:0:0:
320,192,93593,1,0,0:0:0:0:
192,192,93656,1,0,0:0:0:0:
64,192,93718,1,0,0:0:0:0:
320,192,93781,1,0,0:0:0:0:
64,192,93843,1,0,0:0:0:0:
448,192,93843,1,0,0:0:0:0:
192,192,93906,1,0,0:0:0:0:
448,192,93968,1,0,0:0:0:0:
320,192,94031,1,0,0:0:0:0:
64,192,94093,1,0,0:0:0:0:
448,192,94093,1,0,0:0:0:0:
192,192,94156,1,0,0:0:0:0:
64,192,94218,1,0,0:0:0:0:
320,192,94343,1,0,0:0:0:0:
448,192,94343,1,0,0:0:0:0:
192,192,94406,1,0,0:0:0:0:
448,192,94468,1,0,0:0:0:0:
192,192,94593,1,0,0:0:0:0:
320,192,94593,1,0,0:0:0:0:
64,192,94656,1,0,0:0:0:0:
192,192,94718,1,0,0:0:0:0:
320,192,94843,1,0,0:0:0:0:
448,192,94843,1,0,0:0:0:0:
192,192,94906,1,0,0:0:0:0:
448,192,94968,1,0,0:0:0:0:
64,192,95031,1,0,0:0:0:0:
192,192,95093,1,0,0:0:0:0:
448,192,95093,1,0,0:0:0:0:
64,192,95176,1,0,0:0:0:0:
320,192,95260,1,0,0:0:0:0:
64,192,95343,1,0,0:0:0:0:
448,192,95343,1,0,0:0:0:0:
192,192,95406,1,0,0:0:0:0:
448,192,95468,1,0,0:0:0:0:
192,192,95531,1,0,0:0:0:0:
64,192,95593,1,0,0:0:0:0:
320,192,95593,1,0,0:0:0:0:
448,192,95656,1,0,0:0:0:0:
192,192,95718,1,0,0:0:0:0:
320,192,95781,1,0,0:0:0:0:
64,192,95843,1,0,0:0:0:0:
192,192,95885,1,0,0:0:0:0:
320,192,95926,1,0,0:0:0:0:
448,192,95968,1,0,0:0:0:0:
64,192,96010,1,0,0:0:0:0:
192,192,96051,1,0,0:0:0:0:
320,192,96093,1,0,0:0:0:0:
448,192,96093,1,0,0:0:0:0:
64,192,96176,1,0,0:0:0:0:
320,192,96260,1,0,0:0:0:0:
192,192,96343,1,0,0:0:0:0:
448,192,96385,1,0,0:0:0:0:
64,192,96468,1,0,0:0:0:0:
320,192,96510,1,0,0:0:0:0:
64,192,96593,1,0,0:0:0:0:
192,192,96593,1,0,0:0:0:0:
448,192,96676,1,0,0:0:0:0:
320,192,96760,1,0,0:0:0:0:
64,192,96843,1,0,0:0:0:0:
448,192,96968,1,0,0:0:0:0:
64,192,97093,1,0,0:0:0:0:
192,192,97093,1,0,0:0:0:0:
320,192,97218,1,0,0:0:0:0:
320,192,97343,1,0,0:0:0:0:
192,192,97468,1,0,0:0:0:0:
320,192,97593,1,0,0:0:0:0:
448,192,97593,1,0,0:0:0:0:
64,192,97718,1,0,0:0:0:0:
448,192,97843,1,0,0:0:0:0:
320,192,97968,1,0,0:0:0:0:
192,192,98031,1,0,0:0:0:0:
64,192,98093,1,0,0:0:0:0:
448,192,98093,1,0,0:0:0:0:
320,192,98176,1,0,0:0:0:0:
64,192,98260,1,0,0:0:0:0:
192,192,98343,1,0,0:0:0:0:
448,192,98468,1,0,0:0:0:0:
64,192,98510,1,0,0:0:0:0:
192,192,98593,1,0,0:0:0:0:
448,192,98593,1,0,0:0:0:0:
320,192,98676,1,0,0:0:0:0:
448,192,98760,1,0,0:0:0:0:
192,192,98843,1,0,0:0:0:0:
64,192,98968,1,0,0:0:0:0:
64,192,99093,1,0,0:0:0:0:
192,192,99093,1,0,0:0:0:0:
448,192,99218,1,0,0:0:0:0:
320,192,99343,1,0,0:0:0:0:
448,192,99468,1,0,0:0:0:0:
64,192,99593,1,0,0:0:0:0:
192,192,99593,1,0,0:0:0:0:
192,192,99718,1,0,0:0:0:0:
320,192,99843,1,0,0:0:0:0:
320,192,99968,1,0,0:0:0:0:
64,192,100093,1,0,0:0:0:0:
448,192,100093,1,0,0:0:0:0:
320,192,100155,1,0,0:0:0:0:
192,192,100218,1,0,0:0:0:0:
448,192,100343,1,0,0:0:0:0:
64,192,100468,1,0,0:0:0:0:
192,192,100530,1,0,0:0:0:0:
320,192,100593,1,0,0:0:0:0:
448,192,100593,1,0,0:0:0:0:
192,192,100718,1,0,0:0:0:0:
192,192,100843,1,0,0:0:0:0:
320,192,100905,1,0,0:0:0:0:
64,192,100968,1,0,0:0:0:0:
64,192,101093,1,0,0:0:0:0:
192,192,101155,1,0,0:0:0:0:
448,192,101218,1,0,0:0:0:0:
192,192,101280,1,0,0:0:0:0:
320,192,101343,1,0,0:0:0:0:
320,192,101468,1,0,0:0:0:0:
320,192,101593,1,0,0:0:0:0:
448,192,101593,1,0,0:0:0:0:
64,192,101718,1,0,0:0:0:0:
192,192,101843,1,0,0:0:0:0:
448,192,101968,1,0,0:0:0:0:
448,192,102093,1,0,0:0:0:0:
320,192,102218,1,0,0:0:0:0:
192,192,102343,1,0,0:0:0:0:
64,192,102468,1,0,0:0:0:0:
192,192,102593,1,0,0:0:0:0:
320,192,102593,1,0,0:0:0:0:
320,192,102718,1,0,0:0:0:0:
192,192,102843,1,0,0:0:0:0:
192,192,102968,1,0,0:0:0:0:
448,192,103093,1,0,0:0:0:0:
192,192,103218,1,0,0:0:0:0:
192,192,103343,1,0,0:0:0:0:
320,192,103468,1,0,0:0:0:0:
448,192,103593,1,0,0:0:0:0:
192,192,103718,1,0,0:0:0:0:
64,192,103843,1,0,0:0:0:0:
448,192,103968,1,0,0:0:0:0:
192,192,104093,1,0,0:0:0:0:
320,192,104093,1,0,0:0:0:0:
192,192,104218,1,0,0:0:0:0:
320,192,104343,1,0,0:0:0:0:
448,192,104468,1,0,0:0:0:0:
64,192,104593,1,0,0:0:0:0:
64,192,104718,1,0,0:0:0:0:
192,192,104843,1,0,0:0:0:0:
320,192,104968,1,0,0:0:0:0:
64,192,105093,1,0,0:0:0:0:
448,192,105218,1,0,0:0:0:0:
448,192,105343,1,0,0:0:0:0:
192,192,105468,1,0,0:0:0:0:
448,192,105593,1,0,0:0:0:0:
64,192,105718,1,0,0:0:0:0:
320,192,105843,1,0,0:0:0:0:
192,192,105968,1,0,0:0:0:0:
64,192,106093,1,0,0:0:0:0:
320,192,106093,1,0,0:0:0:0:
448,192,106218,1,0,0:0:0:0:
64,192,106343,1,0,0:0:0:0:
192,192,106468,1,0,0:0:0:0:
448,192,106593,1,0,0:0:0:0:
320,192,106718,1,0,0:0:0:0:
64,192,106843,1,0,0:0:0:0:
192,192,106968,1,0,0:0:0:0:
192,192,107093,1,0,0:0:0:0:
320,192,107218,1,0,0:0:0:0:
64,192,107343,1,0,0:0:0:0:
320,192,107468,1,0,0:0:0:0:
448,192,107593,1,0,0:0:0:0:
448,192,107718,1,0,0:0:0:0:
64,192,107843,1,0,0:0:0:0:
64,192,107968,1,0,0:0:0:0:
320,192,108093,1,0,0:0:0:0:
448,192,108093,1,0,0:0:0:0:
64,192,108176,1,0,0:0:0:0:
192,192,108218,1,0,0:0:0:0:
448,192,108259,1,0,0:0:0:0:
320,192,108343,1,0,0:0:0:0:
448,192,108468,1,0,0:0:0:0:
320,192,108551,1,0,0:0:0:0:
64,192,108593,1,0,0:0:0:0:
192,192,108593,1,0,0:0:0:0:
448,192,108634,1,0,0:0:0:0:
64,192,108718,1,0,0:0:0:0:
448,192,108843,1,0,0:0:0:0:
192,192,108926,1,0,0:0:0:0:
320,192,108968,1,0,0:0:0:0:
320,192,109093,1,0,0:0:0:0:
64,192,109176,1,0,0:0:0:0:
192,192,109218,1,0,0:0:0:0:
448,192,109259,1,0,0:0:0:0:
64,192,109343,1,0,0:0:0:0:
320,192,109426,1,0,0:0:0:0:
64,192,109468,1,0,0:0:0:0:
64,192,109593,1,0,0:0:0:0:
320,192,109593,1,0,0:0:0:0:
192,192,109676,1,0,0:0:0:0:
448,192,109718,1,0,0:0:0:0:
64,192,109843,1,0,0:0:0:0:
320,192,109926,1,0,0:0:0:0:
64,192,110009,1,0,0:0:0:0:
192,192,110093,1,0,0:0:0:0:
448,192,110093,1,0,0:0:0:0:
320,192,110176,1,0,0:0:0:0:
192,192,110259,1,0,0:0:0:0:
64,192,110343,1,0,0:0:0:0:
320,192,110426,1,0,0:0:0:0:
192,192,110468,1,0,0:0:0:0:
64,192,110509,1,0,0:0:0:0:
192,192,110593,1,0,0:0:0:0:
448,192,110593,1,0,0:0:0:0:
320,192,110676,1,0,0:0:0:0:
448,192,110759,1,0,0:0:0:0:
64,192,110843,1,0,0:0:0:0:
192,192,110905,1,0,0:0:0:0:
64,192,110968,1,0,0:0:0:0:
320,192,111030,1,0,0:0:0:0:
448,192,111093,1,0,0:0:0:0:
192,192,111155,1,0,0:0:0:0:
64,192,111218,1,0,0:0:0:0:
320,192,111280,1,0,0:0:0:0:
64,192,111343,1,0,0:0:0:0:
448,192,111405,1,0,0:0:0:0:
320,192,111468,1,0,0:0:0:0:
64,192,111509,1,0,0:0:0:0:
192,192,111551,1,0,0:0:0:0:
448,192,111593,1,0,0:0:0:0:
64,192,111718,1,0,0:0:0:0:
320,192,111843,1,0,0:0:0:0:
192,192,111968,1,0,0:0:0:0:
64,192,112093,1,0,0:0:0:0:
320,192,112093,1,0,0:0:0:0:
448,192,112093,1,0,0:0:0:0:
192,192,112176,1,0,0:0:0:0:
448,192,112218,1,0,0:0:0:0:
320,192,112259,1,0,0:0:0:0:
192,192,112343,1,0,0:0:0:0:
64,192,112468,1,0,0:0:0:0:
448,192,112468,1,0,0:0:0:0:
192,192,112551,1,0,0:0:0:0:
320,192,112593,1,0,0:0:0:0:
448,192,112593,1,0,0:0:0:0:
64,192,112634,1,0,0:0:0:0:
320,192,112718,1,0,0:0:0:0:
192,192,112843,1,0,0:0:0:0:
448,192,112843,1,0,0:0:0:0:
64,192,112968,1,0,0:0:0:0:
192,192,112968,1,0,0:0:0:0:
320,192,113093,1,0,0:0:0:0:
448,192,113093,1,0,0:0:0:0:
192,192,113218,1,0,0:0:0:0:
448,192,113218,1,0,0:0:0:0:
192,192,113343,1,0,0:0:0:0:
64,192,113468,1,0,0:0:0:0:
320,192,113468,1,0,0:0:0:0:
192,192,113593,1,0,0:0:0:0:
320,192,113593,1,0,0:0:0:0:
448,192,113593,1,0,0:0:0:0:
64,192,113655,1,0,0:0:0:0:
448,192,113718,1,0,0:0:0:0:
320,192,113780,1,0,0:0:0:0:
192,192,113843,1,0,0:0:0:0:
64,192,113905,1,0,0:0:0:0:
448,192,113968,1,0,0:0:0:0:
64,192,114009,1,0,0:0:0:0:
192,192,114051,1,0,0:0:0:0:
320,192,114093,1,0,0:0:0:0:
448,192,114093,1,0,0:0:0:0:
64,192,114176,1,0,0:0:0:0:
320,192,114218,1,0,0:0:0:0:
192,192,114259,1,0,0:0:0:0:
448,192,114343,1,0,0:0:0:0:
192,192,114468,1,0,0:0:0:0:
320,192,114468,1,0,0:0:0:0:
448,192,114551,1,0,0:0:0:0:
64,192,114593,1,0,0:0:0:0:
192,192,114593,1,0,0:0:0:0:
320,192,114634,1,0,0:0:0:0:
64,192,114718,1,0,0:0:0:0:
192,192,114843,1,0,0:0:0:0:
320,192,114843,1,0,0:0:0:0:
320,192,114968,1,0,0:0:0:0:
192,192,115093,1,0,0:0:0:0:
448,192,115093,1,0,0:0:0:0:
320,192,115218,1,0,0:0:0:0:
448,192,115218,1,0,0:0:0:0:
192,192,115343,1,0,0:0:0:0:
192,192,115468,1,0,0:0:0:0:
320,192,115468,1,0,0:0:0:0:
64,192,115593,1,0,0:0:0:0:
320,192,115593,1,0,0:0:0:0:
448,192,115593,1,0,0:0:0:0:
192,192,115655,1,0,0:0:0:0:
448,192,115718,1,0,0:0:0:0:
64,192,115780,1,0,0:0:0:0:
320,192,115843,1,0,0:0:0:0:
448,192,115905,1,0,0:0:0:0:
64,192,115968,1,0,0:0:0:0:
192,192,116030,1,0,0:0:0:0:
320,192,116093,1,0,0:0:0:0:
448,192,116093,1,0,0:0:0:0:
64,192,116155,1,0,0:0:0:0:
320,192,116218,1,0,0:0:0:0:
192,192,116280,1,0,0:0:0:0:
64,192,116343,1,0,0:0:0:0:
448,192,116343,1,0,0:0:0:0:
448,192,116468,1,0,0:0:0:0:
320,192,116530,1,0,0:0:0:0:
64,192,116593,1,0,0:0:0:0:
192,192,116593,1,0,0:0:0:0:
320,192,116655,1,0,0:0:0:0:
192,192,116718,1,0,0:0:0:0:
320,192,116843,1,0,0:0:0:0:
448,192,116843,1,0,0:0:0:0:
64,192,116905,1,0,0:0:0:0:
320,192,116968,1,0,0:0:0:0:
64,192,117093,1,0,0:0:0:0:
448,192,117093,1,0,0:0:0:0:
320,192,117155,1,0,0:0:0:0:
192,192,117218,1,0,0:0:0:0:
320,192,117280,1,0,0:0:0:0:
64,192,117343,1,0,0:0:0:0:
192,192,117343,1,0,0:0:0:0:
320,192,117426,1,0,0:0:0:0:
448,192,117468,1,0,0:0:0:0:
192,192,117509,1,0,0:0:0:0:
320,192,117593,1,0,0:0:0:0:
448,192,117593,1,0,0:0:0:0:
64,192,117655,1,0,0:0:0:0:
320,192,117718,1,0,0:0:0:0:
448,192,117780,1,0,0:0:0:0:
64,192,117843,1,0,0:0:0:0:
192,192,117843,1,0,0:0:0:0:
320,192,117905,1,0,0:0:0:0:
192,192,117968,1,0,0:0:0:0:
448,192,118030,1,0,0:0:0:0:
192,192,118093,1,0,0:0:0:0:
320,192,118093,1,0,0:0:0:0:
64,192,118155,1,0,0:0:0:0:
320,192,118218,1,0,0:0:0:0:
64,192,118343,1,0,0:0:0:0:
192,192,118343,1,0,0:0:0:0:
320,192,118405,1,0,0:0:0:0:
192,192,118468,1,0,0:0:0:0:
64,192,118593,1,0,0:0:0:0:
448,192,118593,1,0,0:0:0:0:
320,192,118655,1,0,0:0:0:0:
448,192,118718,1,0,0:0:0:0:
64,192,118843,1,0,0:0:0:0:
192,192,118843,1,0,0:0:0:0:
320,192,118905,1,0,0:0:0:0:
192,192,118968,1,0,0:0:0:0:
320,192,119030,1,0,0:0:0:0:
192,192,119093,1,0,0:0:0:0:
448,192,119093,1,0,0:0:0:0:
320,192,119176,1,0,0:0:0:0:
192,192,119259,1,0,0:0:0:0:
320,192,119343,1,0,0:0:0:0:
448,192,119343,1,0,0:0:0:0:
192,192,119426,1,0,0:0:0:0:
448,192,119468,1,0,0:0:0:0:
320,192,119509,1,0,0:0:0:0:
64,192,119593,1,0,0:0:0:0:
192,192,119593,1,0,0:0:0:0:
448,192,119655,1,0,0:0:0:0:
192,192,119718,1,0,0:0:0:0:
320,192,119780,1,0,0:0:0:0:
448,192,119843,1,0,0:0:0:0:
64,192,119905,1,0,0:0:0:0:
448,192,119968,1,0,0:0:0:0:
192,192,120009,1,0,0:0:0:0:
64,192,120051,1,0,0:0:0:0:
320,192,120093,1,0,0:0:0:0:
448,192,120093,1,0,0:0:0:0:
192,192,120176,1,0,0:0:0:0:
320,192,120217,1,0,0:0:0:0:
64,192,120259,1,0,0:0:0:0:
448,192,120342,1,0,0:0:0:0:
192,192,120467,1,0,0:0:0:0:
320,192,120551,1,0,0:0:0:0:
64,192,120592,1,0,0:0:0:0:
192,192,120592,1,0,0:0:0:0:
448,192,120634,1,0,0:0:0:0:
64,192,120717,1,0,0:0:0:0:
192,192,120842,1,0,0:0:0:0:
448,192,120842,1,0,0:0:0:0:
448,192,120967,1,0,0:0:0:0:
64,192,121092,1,0,0:0:0:0:
320,192,121092,1,0,0:0:0:0:
64,192,121217,1,0,0:0:0:0:
192,192,121217,1,0,0:0:0:0:
192,192,121342,1,0,0:0:0:0:
64,192,121467,1,0,0:0:0:0:
448,192,121467,1,0,0:0:0:0:
192,192,121592,1,0,0:0:0:0:
320,192,121592,1,0,0:0:0:0:
448,192,121592,1,0,0:0:0:0:
64,192,121655,1,0,0:0:0:0:
320,192,121717,1,0,0:0:0:0:
192,192,121780,1,0,0:0:0:0:
448,192,121842,1,0,0:0:0:0:
320,192,121905,1,0,0:0:0:0:
448,192,121967,1,0,0:0:0:0:
192,192,122030,1,0,0:0:0:0:
64,192,122092,1,0,0:0:0:0:
320,192,122092,1,0,0:0:0:0:
448,192,122176,1,0,0:0:0:0:
192,192,122217,1,0,0:0:0:0:
320,192,122342,1,0,0:0:0:0:
192,192,122467,1,0,0:0:0:0:
64,192,122551,1,0,0:0:0:0:
320,192,122592,1,0,0:0:0:0:
448,192,122592,1,0,0:0:0:0:
320,192,122717,1,0,0:0:0:0:
64,192,122842,1,0,0:0:0:0:
192,192,122842,1,0,0:0:0:0:
192,192,122967,1,0,0:0:0:0:
64,192,123092,1,0,0:0:0:0:
448,192,123092,1,0,0:0:0:0:
192,192,123217,1,0,0:0:0:0:
320,192,123217,1,0,0:0:0:0:
448,192,123342,1,0,0:0:0:0:
320,192,123467,1,0,0:0:0:0:
448,192,123467,1,0,0:0:0:0:
64,192,123592,1,0,0:0:0:0:
192,192,123592,1,0,0:0:0:0:
320,192,123592,1,0,0:0:0:0:
448,192,123655,1,0,0:0:0:0:
64,192,123717,1,0,0:0:0:0:
192,192,123780,1,0,0:0:0:0:
320,192,123842,1,0,0:0:0:0:
448,192,123905,1,0,0:0:0:0:
64,192,123967,1,0,0:0:0:0:
448,192,124030,1,0,0:0:0:0:
192,192,124092,1,0,0:0:0:0:
320,192,124092,1,0,0:0:0:0:
192,192,124217,1,0,0:0:0:0:
192,192,124342,1,0,0:0:0:0:
320,192,124342,1,0,0:0:0:0:
320,192,124467,1,0,0:0:0:0:
64,192,124592,1,0,0:0:0:0:
192,192,124592,1,0,0:0:0:0:
448,192,124592,1,0,0:0:0:0:
64,192,124717,1,0,0:0:0:0:
64,192,124842,1,0,0:0:0:0:
448,192,124842,1,0,0:0:0:0:
448,192,124967,1,0,0:0:0:0:
192,192,125092,1,0,0:0:0:0:
448,192,125092,1,0,0:0:0:0:
192,192,125217,1,0,0:0:0:0:
192,192,125342,1,0,0:0:0:0:
448,192,125342,1,0,0:0:0:0:
448,192,125467,1,0,0:0:0:0:
64,192,125592,1,0,0:0:0:0:
192,192,125592,1,0,0:0:0:0:
320,192,125592,1,0,0:0:0:0:
320,192,125717,1,0,0:0:0:0:
64,192,125842,1,0,0:0:0:0:
320,192,125842,1,0,0:0:0:0:
64,192,125967,1,0,0:0:0:0:
64,192,126092,1,0,0:0:0:0:
192,192,126092,1,0,0:0:0:0:
192,192,126217,1,0,0:0:0:0:
448,192,126217,1,0,0:0:0:0:
64,192,126342,1,0,0:0:0:0:
192,192,126342,1,0,0:0:0:0:
64,192,126467,1,0,0:0:0:0:
320,192,126467,1,0,0:0:0:0:
192,192,126592,1,0,0:0:0:0:
320,192,126592,1,0,0:0:0:0:
448,192,126592,1,0,0:0:0:0:
64,192,126717,1,0,0:0:0:0:
448,192,126717,1,0,0:0:0:0:
320,192,126842,1,0,0:0:0:0:
448,192,126842,1,0,0:0:0:0:
64,192,126967,1,0,0:0:0:0:
320,192,126967,1,0,0:0:0:0:
64,192,127092,1,0,0:0:0:0:
192,192,127092,1,0,0:0:0:0:
192,192,127217,1,0,0:0:0:0:
320,192,127217,1,0,0:0:0:0:
64,192,127342,1,0,0:0:0:0:
192,192,127342,1,0,0:0:0:0:
64,192,127467,1,0,0:0:0:0:
448,192,127467,1,0,0:0:0:0:
320,192,127592,1,0,0:0:0:0:
448,192,127592,1,0,0:0:0:0:
192,192,127655,1,0,0:0:0:0:
64,192,127717,1,0,0:0:0:0:
448,192,127717,1,0,0:0:0:0:
320,192,127780,1,0,0:0:0:0:
64,192,127842,1,0,0:0:0:0:
192,192,127842,1,0,0:0:0:0:
448,192,127905,1,0,0:0:0:0:
320,192,127967,1,0,0:0:0:0:
192,192,128030,1,0,0:0:0:0:
64,192,128092,1,0,0:0:0:0:
320,192,128092,1,0,0:0:0:0:
448,192,128092,1,0,0:0:0:0:
192,192,128217,1,0,0:0:0:0:
192,192,128342,1,0,0:0:0:0:
320,192,128342,1,0,0:0:0:0:
64,192,128467,1,0,0:0:0:0:
320,192,128467,1,0,0:0:0:0:
192,192,128592,1,0,0:0:0:0:
448,192,128592,1,0,0:0:0:0:
64,192,128717,1,0,0:0:0:0:
320,192,128717,1,0,0:0:0:0:
320,192,128842,1,0,0:0:0:0:
192,192,128967,1,0,0:0:0:0:
448,192,128967,1,0,0:0:0:0:
64,192,129092,1,0,0:0:0:0:
320,192,129217,1,0,0:0:0:0:
192,192,129342,1,0,0:0:0:0:
448,192,129467,1,0,0:0:0:0:
64,192,129592,1,0,0:0:0:0:
192,192,129717,1,0,0:0:0:0:
320,192,129842,1,0,0:0:0:0:
64,192,129967,1,0,0:0:0:0:
192,192,130051,1,0,0:0:0:0:
320,192,130092,1,0,0:0:0:0:
448,192,130092,1,0,0:0:0:0:
192,192,130217,1,0,0:0:0:0:
64,192,130342,1,0,0:0:0:0:
448,192,130342,1,0,0:0:0:0:
64,192,130467,1,0,0:0:0:0:
192,192,130467,1,0,0:0:0:0:
64,192,130592,1,0,0:0:0:0:
192,192,130592,1,0,0:0:0:0:
448,192,130717,1,0,0:0:0:0:
320,192,130759,1,0,0:0:0:0:
192,192,130842,1,0,0:0:0:0:
320,192,130926,1,0,0:0:0:0:
64,192,130967,1,0,0:0:0:0:
448,192,131092,1,0,0:0:0:0:
64,192,131155,1,0,0:0:0:0:
320,192,131217,1,0,0:0:0:0:
192,192,131342,1,0,0:0:0:0:
64,192,131467,1,0,0:0:0:0:
320,192,131592,1,0,0:0:0:0:
448,192,131717,1,0,0:0:0:0:
192,192,131842,1,0,0:0:0:0:
320,192,131967,1,0,0:0:0:0:
192,192,132030,1,0,0:0:0:0:
64,192,132092,1,0,0:0:0:0:
448,192,132092,1,0,0:0:0:0:
320,192,132217,1,0,0:0:0:0:
192,192,132342,1,0,0:0:0:0:
320,192,132342,1,0,0:0:0:0:
64,192,132467,1,0,0:0:0:0:
448,192,132509,1,0,0:0:0:0:
64,192,132592,1,0,0:0:0:0:
192,192,132592,1,0,0:0:0:0:
320,192,132717,1,0,0:0:0:0:
448,192,132717,1,0,0:0:0:0:
192,192,132842,1,0,0:0:0:0:
64,192,132967,1,0,0:0:0:0:
320,192,132967,1,0,0:0:0:0:
64,192,133092,1,0,0:0:0:0:
448,192,133092,1,0,0:0:0:0:
320,192,133217,1,0,0:0:0:0:
192,192,133342,1,0,0:0:0:0:
448,192,133342,1,0,0:0:0:0:
64,192,133467,1,0,0:0:0:0:
192,192,133592,1,0,0:0:0:0:
320,192,133592,1,0,0:0:0:0:
448,192,133717,1,0,0:0:0:0:
64,192,133842,1,0,0:0:0:0:
320,192,133842,1,0,0:0:0:0:
192,192,133967,1,0,0:0:0:0:
64,192,134092,1,0,0:0:0:0:
448,192,134092,1,0,0:0:0:0:
320,192,134175,1,0,0:0:0:0:
192,192,134217,1,0,0:0:0:0:
448,192,134259,1,0,0:0:0:0:
320,192,134342,1,0,0:0:0:0:
64,192,134467,1,0,0:0:0:0:
192,192,134550,1,0,0:0:0:0:
320,192,134592,1,0,0:0:0:0:
64,192,134634,1,0,0:0:0:0:
192,192,134717,1,0,0:0:0:0:
448,192,134842,1,0,0:0:0:0:
320,192,134925,1,0,0:0:0:0:
192,192,134967,1,0,0:0:0:0:
448,192,135009,1,0,0:0:0:0:
64,192,135092,1,0,0:0:0:0:
192,192,135175,1,0,0:0:0:0:
320,192,135217,1,0,0:0:0:0:
64,192,135259,1,0,0:0:0:0:
192,192,135342,1,0,0:0:0:0:
64,192,135425,1,0,0:0:0:0:
448,192,135467,1,0,0:0:0:0:
192,192,135530,1,0,0:0:0:0:
320,192,135592,1,0,0:0:0:0:
448,192,135655,1,0,0:0:0:0:
64,192,135717,1,0,0:0:0:0:
320,192,135780,1,0,0:0:0:0:
192,192,135842,1,0,0:0:0:0:
448,192,135842,1,0,0:0:0:0:
64,192,135905,1,0,0:0:0:0:
320,192,135967,1,0,0:0:0:0:
448,192,135967,1,0,0:0:0:0:
192,192,136030,1,0,0:0:0:0:
64,192,136092,1,0,0:0:0:0:
320,192,136092,1,0,0:0:0:0:
448,192,136134,1,0,0:0:0:0:
64,192,136217,1,0,0:0:0:0:
192,192,136300,1,0,0:0:0:0:
320,192,136342,1,0,0:0:0:0:
64,192,136467,1,0,0:0:0:0:
320,192,136530,1,0,0:0:0:0:
192,192,136592,1,0,0:0:0:0:
448,192,136717,1,0,0:0:0:0:
64,192,136780,1,0,0:0:0:0:
192,192,136842,1,0,0:0:0:0:
320,192,136967,1,0,0:0:0:0:
64,192,137092,1,0,0:0:0:0:
192,192,137217,1,0,0:0:0:0:
320,192,137342,1,0,0:0:0:0:
448,192,137467,1,0,0:0:0:0:
448,192,137592,1,0,0:0:0:0:
192,192,137717,1,0,0:0:0:0:
64,192,137842,1,0,0:0:0:0:
448,192,137842,1,0,0:0:0:0:
192,192,137905,1,0,0:0:0:0:
320,192,137967,1,0,0:0:0:0:
192,192,138092,1,0,0:0:0:0:
448,192,138092,1,0,0:0:0:0:
64,192,138155,1,0,0:0:0:0:
320,192,138217,1,0,0:0:0:0:
448,192,138280,1,0,0:0:0:0:
64,192,138342,1,0,0:0:0:0:
192,192,138342,1,0,0:0:0:0:
320,192,138425,1,0,0:0:0:0:
64,192,138509,1,0,0:0:0:0:
320,192,138592,1,0,0:0:0:0:
192,192,138717,1,0,0:0:0:0:
64,192,138842,1,0,0:0:0:0:
448,192,138842,1,0,0:0:0:0:
320,192,138905,1,0,0:0:0:0:
192,192,138967,1,0,0:0:0:0:
64,192,139030,1,0,0:0:0:0:
448,192,139092,1,0,0:0:0:0:
64,192,139217,1,0,0:0:0:0:
320,192,139342,1,0,0:0:0:0:
448,192,139342,1,0,0:0:0:0:
64,192,139405,1,0,0:0:0:0:
192,192,139467,1,0,0:0:0:0:
64,192,139592,1,0,0:0:0:0:
192,192,139592,1,0,0:0:0:0:
448,192,139655,1,0,0:0:0:0:
320,192,139717,1,0,0:0:0:0:
64,192,139842,1,0,0:0:0:0:
448,192,139842,1,0,0:0:0:0:
192,192,139905,1,0,0:0:0:0:
320,192,139967,1,0,0:0:0:0:
64,192,140030,1,0,0:0:0:0:
448,192,140092,1,0,0:0:0:0:
192,192,140154,1,0,0:0:0:0:
320,192,140217,1,0,0:0:0:0:
64,192,140279,1,0,0:0:0:0:
448,192,140342,1,0,0:0:0:0:
192,192,140404,1,0,0:0:0:0:
320,192,140467,1,0,0:0:0:0:
64,192,140529,1,0,0:0:0:0:
448,192,140592,1,0,0:0:0:0:
192,192,140675,1,0,0:0:0:0:
320,192,140759,1,0,0:0:0:0:
64,192,140842,1,0,0:0:0:0:
448,192,140925,1,0,0:0:0:0:
192,192,141009,1,0,0:0:0:0:
320,192,141092,1,0,0:0:0:0:
64,192,141175,1,0,0:0:0:0:
448,192,141259,1,0,0:0:0:0:
192,192,141342,1,0,0:0:0:0:
320,192,141467,1,0,0:0:0:0:
192,192,141592,1,0,0:0:0:0:
448,192,141592,1,0,0:0:0:0:
320,192,141634,1,0,0:0:0:0:
64,192,141675,1,0,0:0:0:0:
192,192,141717,1,0,0:0:0:0:
320,192,141842,1,0,0:0:0:0:
448,192,141842,1,0,0:0:0:0:
192,192,141884,1,0,0:0:0:0:
64,192,141925,1,0,0:0:0:0:
448,192,141967,1,0,0:0:0:0:
320,192,142009,1,0,0:0:0:0:
192,192,142050,1,0,0:0:0:0:
64,192,142092,1,0,0:0:0:0:
448,192,142134,1,0,0:0:0:0:
320,192,142175,1,0,0:0:0:0:
448,192,142342,1,0,0:0:0:0:
192,192,142384,1,0,0:0:0:0:
64,192,142425,1,0,0:0:0:0:
320,192,142467,1,0,0:0:0:0:
448,192,142592,1,0,0:0:0:0:
64,192,142634,1,0,0:0:0:0:
192,192,142675,1,0,0:0:0:0:
320,192,142717,1,0,0:0:0:0:
64,192,142842,1,0,0:0:0:0:
192,192,142884,1,0,0:0:0:0:
320,192,142925,1,0,0:0:0:0:
448,192,142967,1,0,0:0:0:0:
64,192,143009,1,0,0:0:0:0:
192,192,143050,1,0,0:0:0:0:
320,192,143092,1,0,0:0:0:0:
448,192,143092,1,0,0:0:0:0:
64,192,143342,1,0,0:0:0:0:
448,192,143342,1,0,0:0:0:0:
320,192,143592,1,0,0:0:0:0:
448,192,143592,1,0,0:0:0:0:
64,192,143842,1,0,0:0:0:0:
448,192,143842,1,0,0:0:0:0:
64,192,144092,1,0,0:0:0:0:
192,192,144092,1,0,0:0:0:0:
448,192,144092,1,0,0:0:0:0:
320,192,144175,1,0,0:0:0:0:
64,192,144217,1,0,0:0:0:0:
192,192,144259,1,0,0:0:0:0:
448,192,144342,1,0,0:0:0:0:
192,192,144467,1,0,0:0:0:0:
320,192,144550,1,0,0:0:0:0:
64,192,144592,1,0,0:0:0:0:
448,192,144592,1,0,0:0:0:0:
192,192,144634,1,0,0:0:0:0:
448,192,144717,1,0,0:0:0:0:
64,192,144842,1,0,0:0:0:0:
192,192,144842,1,0,0:0:0:0:
192,192,144967,1,0,0:0:0:0:
64,192,145092,1,0,0:0:0:0:
320,192,145092,1,0,0:0:0:0:
192,192,145217,1,0,0:0:0:0:
320,192,145217,1,0,0:0:0:0:
448,192,145342,1,0,0:0:0:0:
64,192,145467,1,0,0:0:0:0:
448,192,145467,1,0,0:0:0:0:
64,192,145592,1,0,0:0:0:0:
192,192,145592,1,0,0:0:0:0:
320,192,145592,1,0,0:0:0:0:
448,192,145654,1,0,0:0:0:0:
320,192,145717,1,0,0:0:0:0:
192,192,145779,1,0,0:0:0:0:
448,192,145842,1,0,0:0:0:0:
64,192,145904,1,0,0:0:0:0:
320,192,145967,1,0,0:0:0:0:
192,192,146009,1,0,0:0:0:0:
64,192,146050,1,0,0:0:0:0:
320,192,146092,1,0,0:0:0:0:
448,192,146092,1,0,0:0:0:0:
192,192,146175,1,0,0:0:0:0:
448,192,146217,1,0,0:0:0:0:
320,192,146259,1,0,0:0:0:0:
64,192,146342,1,0,0:0:0:0:
320,192,146467,1,0,0:0:0:0:
192,192,146550,1,0,0:0:0:0:
64,192,146592,1,0,0:0:0:0:
448,192,146592,1,0,0:0:0:0:
320,192,146634,1,0,0:0:0:0:
64,192,146717,1,0,0:0:0:0:
320,192,146842,1,0,0:0:0:0:
448,192,146842,1,0,0:0:0:0:
320,192,146967,1,0,0:0:0:0:
64,192,147092,1,0,0:0:0:0:
192,192,147092,1,0,0:0:0:0:
192,192,147217,1,0,0:0:0:0:
320,192,147217,1,0,0:0:0:0:
64,192,147342,1,0,0:0:0:0:
64,192,147467,1,0,0:0:0:0:
448,192,147467,1,0,0:0:0:0:
192,192,147592,1,0,0:0:0:0:
320,192,147592,1,0,0:0:0:0:
448,192,147592,1,0,0:0:0:0:
64,192,147654,1,0,0:0:0:0:
320,192,147717,1,0,0:0:0:0:
192,192,147779,1,0,0:0:0:0:
448,192,147842,1,0,0:0:0:0:
64,192,147904,1,0,0:0:0:0:
320,192,147967,1,0,0:0:0:0:
448,192,148029,1,0,0:0:0:0:
64,192,148092,1,0,0:0:0:0:
192,192,148092,1,0,0:0:0:0:
320,192,148154,1,0,0:0:0:0:
192,192,148217,1,0,0:0:0:0:
320,192,148279,1,0,0:0:0:0:
192,192,148342,1,0,0:0:0:0:
320,192,148467,1,0,0:0:0:0:
448,192,148467,1,0,0:0:0:0:
64,192,148529,1,0,0:0:0:0:
192,192,148592,1,0,0:0:0:0:
448,192,148592,1,0,0:0:0:0:
64,192,148654,1,0,0:0:0:0:
448,192,148717,1,0,0:0:0:0:
320,192,148842,1,0,0:0:0:0:
192,192,148904,1,0,0:0:0:0:
320,192,148967,1,0,0:0:0:0:
64,192,149092,1,0,0:0:0:0:
192,192,149092,1,0,0:0:0:0:
448,192,149154,1,0,0:0:0:0:
64,192,149217,1,0,0:0:0:0:
448,192,149279,1,0,0:0:0:0:
64,192,149342,1,0,0:0:0:0:
448,192,149425,1,0,0:0:0:0:
64,192,149508,1,0,0:0:0:0:
192,192,149592,1,0,0:0:0:0:
448,192,149592,1,0,0:0:0:0:
320,192,149654,1,0,0:0:0:0:
192,192,149717,1,0,0:0:0:0:
320,192,149842,1,0,0:0:0:0:
448,192,149842,1,0,0:0:0:0:
64,192,149904,1,0,0:0:0:0:
448,192,149967,1,0,0:0:0:0:
64,192,150092,1,0,0:0:0:0:
320,192,150092,1,0,0:0:0:0:
192,192,150154,1,0,0:0:0:0:
320,192,150217,1,0,0:0:0:0:
64,192,150342,1,0,0:0:0:0:
192,192,150342,1,0,0:0:0:0:
448,192,150404,1,0,0:0:0:0:
64,192,150467,1,0,0:0:0:0:
192,192,150592,1,0,0:0:0:0:
320,192,150592,1,0,0:0:0:0:
448,192,150654,1,0,0:0:0:0:
320,192,150717,1,0,0:0:0:0:
64,192,150842,1,0,0:0:0:0:
192,192,150842,1,0,0:0:0:0:
448,192,150904,1,0,0:0:0:0:
64,192,150967,1,0,0:0:0:0:
448,192,151029,1,0,0:0:0:0:
64,192,151092,1,0,0:0:0:0:
320,192,151092,1,0,0:0:0:0:
448,192,151175,1,0,0:0:0:0:
192,192,151258,1,0,0:0:0:0:
64,192,151342,1,0,0:0:0:0:
448,192,151425,1,0,0:0:0:0:
64,192,151467,1,0,0:0:0:0:
192,192,151508,1,0,0:0:0:0:
320,192,151592,1,0,0:0:0:0:
448,192,151592,1,0,0:0:0:0:
192,192,151654,1,0,0:0:0:0:
320,192,151717,1,0,0:0:0:0:
448,192,151779,1,0,0:0:0:0:
64,192,151842,1,0,0:0:0:0:
320,192,151904,1,0,0:0:0:0:
64,192,151967,1,0,0:0:0:0:
192,192,152029,1,0,0:0:0:0:
320,192,152092,1,0,0:0:0:0:
448,192,152092,1,0,0:0:0:0:
64,192,152175,1,0,0:0:0:0:
448,192,152217,1,0,0:0:0:0:
320,192,152258,1,0,0:0:0:0:
192,192,152342,1,0,0:0:0:0:
320,192,152467,1,0,0:0:0:0:
448,192,152467,1,0,0:0:0:0:
192,192,152550,1,0,0:0:0:0:
64,192,152592,1,0,0:0:0:0:
448,192,152592,1,0,0:0:0:0:
64,192,152717,1,0,0:0:0:0:
192,192,152842,1,0,0:0:0:0:
320,192,152842,1,0,0:0:0:0:
320,192,152967,1,0,0:0:0:0:
64,192,153092,1,0,0:0:0:0:
192,192,153092,1,0,0:0:0:0:
192,192,153217,1,0,0:0:0:0:
320,192,153217,1,0,0:0:0:0:
448,192,153342,1,0,0:0:0:0:
192,192,153467,1,0,0:0:0:0:
448,192,153467,1,0,0:0:0:0:
64,192,153592,1,0,0:0:0:0:
320,192,153592,1,0,0:0:0:0:
448,192,153592,1,0,0:0:0:0:
192,192,153654,1,0,0:0:0:0:
64,192,153717,1,0,0:0:0:0:
320,192,153779,1,0,0:0:0:0:
192,192,153842,1,0,0:0:0:0:
448,192,153904,1,0,0:0:0:0:
320,192,153967,1,0,0:0:0:0:
448,192,154029,1,0,0:0:0:0:
64,192,154092,1,0,0:0:0:0:
192,192,154092,1,0,0:0:0:0:
448,192,154175,1,0,0:0:0:0:
64,192,154217,1,0,0:0:0:0:
320,192,154342,1,0,0:0:0:0:
64,192,154467,1,0,0:0:0:0:
192,192,154467,1,0,0:0:0:0:
320,192,154550,1,0,0:0:0:0:
64,192,154592,1,0,0:0:0:0:
448,192,154592,1,0,0:0:0:0:
448,192,154717,1,0,0:0:0:0:
192,192,154842,1,0,0:0:0:0:
320,192,154842,1,0,0:0:0:0:
192,192,154967,1,0,0:0:0:0:
64,192,155092,1,0,0:0:0:0:
320,192,155092,1,0,0:0:0:0:
192,192,155217,1,0,0:0:0:0:
320,192,155217,1,0,0:0:0:0:
64,192,155342,1,0,0:0:0:0:
64,192,155467,1,0,0:0:0:0:
320,192,155467,1,0,0:0:0:0:
64,192,155592,1,0,0:0:0:0:
192,192,155592,1,0,0:0:0:0:
448,192,155592,1,0,0:0:0:0:
320,192,155654,1,0,0:0:0:0:
448,192,155717,1,0,0:0:0:0:
192,192,155779,1,0,0:0:0:0:
320,192,155842,1,0,0:0:0:0:
64,192,155904,1,0,0:0:0:0:
192,192,155967,1,0,0:0:0:0:
64,192,156029,1,0,0:0:0:0:
320,192,156092,1,0,0:0:0:0:
448,192,156092,1,0,0:0:0:0:
192,192,156175,1,0,0:0:0:0:
64,192,156217,1,0,0:0:0:0:
320,192,156258,1,0,0:0:0:0:
192,192,156342,1,0,0:0:0:0:
448,192,156467,1,0,0:0:0:0:
64,192,156550,1,0,0:0:0:0:
192,192,156592,1,0,0:0:0:0:
320,192,156592,1,0,0:0:0:0:
448,192,156633,1,0,0:0:0:0:
64,192,156717,1,0,0:0:0:0:
320,192,156842,1,0,0:0:0:0:
192,192,156925,1,0,0:0:0:0:
448,192,156967,1,0,0:0:0:0:
320,192,157008,1,0,0:0:0:0:
64,192,157092,1,0,0:0:0:0:
192,192,157092,1,0,0:0:0:0:
448,192,157175,1,0,0:0:0:0:
320,192,157217,1,0,0:0:0:0:
64,192,157258,1,0,0:0:0:0:
448,192,157342,1,0,0:0:0:0:
64,192,157425,1,0,0:0:0:0:
448,192,157508,1,0,0:0:0:0:
64,192,157592,1,0,0:0:0:0:
320,192,157592,1,0,0:0:0:0:
192,192,157654,1,0,0:0:0:0:
320,192,157717,1,0,0:0:0:0:
448,192,157779,1,0,0:0:0:0:
64,192,157842,1,0,0:0:0:0:
192,192,157904,1,0,0:0:0:0:
64,192,157967,1,0,0:0:0:0:
448,192,158029,1,0,0:0:0:0:
64,192,158092,1,0,0:0:0:0:
192,192,158092,1,0,0:0:0:0:
320,192,158175,1,0,0:0:0:0:
64,192,158217,1,0,0:0:0:0:
192,192,158258,1,0,0:0:0:0:
448,192,158342,1,0,0:0:0:0:
64,192,158425,1,0,0:0:0:0:
320,192,158467,1,0,0:0:0:0:
448,192,158508,1,0,0:0:0:0:
192,192,158592,1,0,0:0:0:0:
320,192,158592,1,0,0:0:0:0:
64,192,158675,1,0,0:0:0:0:
448,192,158717,1,0,0:0:0:0:
192,192,158758,1,0,0:0:0:0:
320,192,158842,1,0,0:0:0:0:
64,192,158925,1,0,0:0:0:0:
192,192,158967,1,0,0:0:0:0:
320,192,159008,1,0,0:0:0:0:
64,192,159092,1,0,0:0:0:0:
192,192,159092,1,0,0:0:0:0:
320,192,159175,1,0,0:0:0:0:
448,192,159258,1,0,0:0:0:0:
64,192,159342,1,0,0:0:0:0:
192,192,159467,1,0,0:0:0:0:
320,192,159592,1,0,0:0:0:0:
448,192,159592,1,0,0:0:0:0:
64,192,159654,1,0,0:0:0:0:
320,192,159717,1,0,0:0:0:0:
192,192,159779,1,0,0:0:0:0:
64,192,159842,1,0,0:0:0:0:
320,192,159904,1,0,0:0:0:0:
192,192,159967,1,0,0:0:0:0:
448,192,160029,1,0,0:0:0:0:
64,192,160092,1,0,0:0:0:0:
320,192,160092,1,0,0:0:0:0:
320,192,160216,1,0,0:0:0:0:
192,192,160341,1,0,0:0:0:0:
448,192,160341,1,0,0:0:0:0:
192,192,160466,1,0,0:0:0:0:
320,192,160466,1,0,0:0:0:0:
64,192,160591,1,0,0:0:0:0:
448,192,160591,1,0,0:0:0:0:
64,192,160716,1,0,0:0:0:0:
320,192,160841,1,0,0:0:0:0:
448,192,160966,1,0,0:0:0:0:
192,192,161091,1,0,0:0:0:0:
320,192,161091,1,0,0:0:0:0:
64,192,161216,1,0,0:0:0:0:
192,192,161216,1,0,0:0:0:0:
320,192,161341,1,0,0:0:0:0:
192,192,161466,1,0,0:0:0:0:
448,192,161466,1,0,0:0:0:0:
64,192,161591,1,0,0:0:0:0:
448,192,161591,1,0,0:0:0:0:
320,192,161654,1,0,0:0:0:0:
192,192,161716,1,0,0:0:0:0:
448,192,161779,1,0,0:0:0:0:
64,192,161841,1,0,0:0:0:0:
320,192,161904,1,0,0:0:0:0:
192,192,161966,1,0,0:0:0:0:
64,192,162029,1,0,0:0:0:0:
320,192,162091,1,0,0:0:0:0:
448,192,162091,1,0,0:0:0:0:
192,192,162216,1,0,0:0:0:0:
64,192,162341,1,0,0:0:0:0:
320,192,162341,1,0,0:0:0:0:
64,192,162466,1,0,0:0:0:0:
448,192,162466,1,0,0:0:0:0:
192,192,162591,1,0,0:0:0:0:
320,192,162591,1,0,0:0:0:0:
448,192,162716,1,0,0:0:0:0:
64,192,162841,1,0,0:0:0:0:
320,192,162966,1,0,0:0:0:0:
320,192,163091,1,0,0:0:0:0:
448,192,163091,1,0,0:0:0:0:
192,192,163216,1,0,0:0:0:0:
448,192,163341,1,0,0:0:0:0:
192,192,163466,1,0,0:0:0:0:
64,192,163591,1,0,0:0:0:0:
320,192,163591,1,0,0:0:0:0:
448,192,163654,1,0,0:0:0:0:
64,192,163716,1,0,0:0:0:0:
320,192,163779,1,0,0:0:0:0:
192,192,163841,1,0,0:0:0:0:
448,192,163904,1,0,0:0:0:0:
192,192,163966,1,0,0:0:0:0:
320,192,164029,1,0,0:0:0:0:
64,192,164091,1,0,0:0:0:0:
448,192,164091,1,0,0:0:0:0:
192,192,164216,1,0,0:0:0:0:
448,192,164341,1,0,0:0:0:0:
64,192,164466,1,0,0:0:0:0:
320,192,164591,1,0,0:0:0:0:
448,192,164591,1,0,0:0:0:0:
192,192,164716,1,0,0:0:0:0:
64,192,164841,1,0,0:0:0:0:
320,192,164966,1,0,0:0:0:0:
64,192,165091,1,0,0:0:0:0:
320,192,165091,1,0,0:0:0:0:
192,192,165216,1,0,0:0:0:0:
448,192,165341,1,0,0:0:0:0:
448,192,165466,1,0,0:0:0:0:
64,192,165591,1,0,0:0:0:0:
448,192,165591,1,0,0:0:0:0:
192,192,165654,1,0,0:0:0:0:
320,192,165716,1,0,0:0:0:0:
64,192,165779,1,0,0:0:0:0:
448,192,165841,1,0,0:0:0:0:
192,192,165904,1,0,0:0:0:0:
64,192,165966,1,0,0:0:0:0:
320,192,166029,1,0,0:0:0:0:
192,192,166091,1,0,0:0:0:0:
448,192,166091,1,0,0:0:0:0:
320,192,166216,1,0,0:0:0:0:
448,192,166341,1,0,0:0:0:0:
64,192,166466,1,0,0:0:0:0:
192,192,166591,1,0,0:0:0:0:
320,192,166591,1,0,0:0:0:0:
320,192,166716,1,0,0:0:0:0:
448,192,166841,1,0,0:0:0:0:
448,192,166966,1,0,0:0:0:0:
64,192,167091,1,0,0:0:0:0:
192,192,167091,1,0,0:0:0:0:
448,192,167216,1,0,0:0:0:0:
448,192,167341,1,0,0:0:0:0:
320,192,167466,1,0,0:0:0:0:
64,192,167591,1,0,0:0:0:0:
192,192,167591,1,0,0:0:0:0:
448,192,167654,1,0,0:0:0:0:
320,192,167716,1,0,0:0:0:0:
192,192,167779,1,0,0:0:0:0:
64,192,167841,1,0,0:0:0:0:
320,192,167904,1,0,0:0:0:0:
448,192,167966,1,0,0:0:0:0:
64,192,168029,1,0,0:0:0:0:
192,192,168091,1,0,0:0:0:0:
320,192,168091,128,0,168123:0:0:0:0:
192,192,168216,1,0,0:0:0:0:
320,192,168341,1,0,0:0:0:0:
448,192,168466,1,0,0:0:0:0:
64,192,168591,1,0,0:0:0:0:
192,192,168591,128,0,168623:0:0:0:0:
64,192,168716,1,0,0:0:0:0:
192,192,168841,1,0,0:0:0:0:
320,192,168966,1,0,0:0:0:0:
64,192,169091,128,0,169123:0:0:0:0:
448,192,169216,1,0,0:0:0:0:
448,192,169341,128,0,169373:0:0:0:0:
192,192,169466,128,0,169498:0:0:0:0:
320,192,169591,1,0,0:0:0:0:
448,192,169591,1,0,0:0:0:0:
192,192,169654,1,0,0:0:0:0:
64,192,169716,128,0,169748:0:0:0:0:
448,192,169779,1,0,0:0:0:0:
320,192,169841,128,0,169873:0:0:0:0:
64,192,169904,1,0,0:0:0:0:
192,192,169966,1,0,0:0:0:0:
448,192,170029,1,0,0:0:0:0:
64,192,170091,1,0,0:0:0:0:
320,192,170091,128,0,170122:0:0:0:0:
448,192,170216,1,0,0:0:0:0:
64,192,170341,1,0,0:0:0:0:
192,192,170466,1,0,0:0:0:0:
64,192,170591,1,0,0:0:0:0:
448,192,170591,128,0,170622:0:0:0:0:
320,192,170716,1,0,0:0:0:0:
64,192,170841,1,0,0:0:0:0:
192,192,170966,1,0,0:0:0:0:
192,192,171091,128,0,171122:0:0:0:0:
320,192,171216,1,0,0:0:0:0:
64,192,171341,128,0,171372:0:0:0:0:
320,192,171466,128,0,171497:0:0:0:0:
192,192,171591,1,0,0:0:0:0:
448,192,171591,1,0,0:0:0:0:
64,192,171654,1,0,0:0:0:0:
448,192,171716,128,0,171747:0:0:0:0:
320,192,171779,1,0,0:0:0:0:
64,192,171841,128,0,171872:0:0:0:0:
448,192,171904,1,0,0:0:0:0:
64,192,171966,1,0,0:0:0:0:
192,192,172029,1,0,0:0:0:0:
320,192,172091,128,0,172122:0:0:0:0:
448,192,172091,1,0,0:0:0:0:
192,192,172216,1,0,0:0:0:0:
448,192,172341,1,0,0:0:0:0:
64,192,172466,1,0,0:0:0:0:
320,192,172591,1,0,0:0:0:0:
448,192,172591,128,0,172622:0:0:0:0:
192,192,172716,1,0,0:0:0:0:
64,192,172841,128,0,172872:0:0:0:0:
192,192,172966,128,0,172997:0:0:0:0:
192,192,173091,1,0,0:0:0:0:
448,192,173216,128,0,173247:0:0:0:0:
320,192,173341,128,0,173372:0:0:0:0:
320,192,173466,1,0,0:0:0:0:
192,192,173591,128,0,173622:0:0:0:0:
320,192,173591,1,0,0:0:0:0:
448,192,173654,1,0,0:0:0:0:
64,192,173716,1,0,0:0:0:0:
192,192,173779,1,0,0:0:0:0:
320,192,173841,1,0,0:0:0:0:
448,192,173904,1,0,0:0:0:0:
192,192,173966,1,0,0:0:0:0:
64,192,174029,1,0,0:0:0:0:
320,192,174091,1,0,0:0:0:0:
448,192,174091,1,0,0:0:0:0:
192,192,174216,1,0,0:0:0:0:
320,192,174341,1,0,0:0:0:0:
448,192,174466,1,0,0:0:0:0:
64,192,174591,1,0,0:0:0:0:
192,192,174591,1,0,0:0:0:0:
64,192,174716,1,0,0:0:0:0:
320,192,174841,1,0,0:0:0:0:
320,192,174966,1,0,0:0:0:0:
192,192,175091,1,0,0:0:0:0:
448,192,175091,1,0,0:0:0:0:
320,192,175216,1,0,0:0:0:0:
64,192,175341,1,0,0:0:0:0:
320,192,175341,1,0,0:0:0:0:
64,192,175466,1,0,0:0:0:0:
192,192,175466,1,0,0:0:0:0:
448,192,175591,1,0,0:0:0:0:
64,192,175716,1,0,0:0:0:0:
320,192,175716,1,0,0:0:0:0:
192,192,175841,1,0,0:0:0:0:
448,192,175841,1,0,0:0:0:0:
320,192,175966,1,0,0:0:0:0:
