osu file format v14

[General]
AudioFilename: audio.mp3
AudioLeadIn: 0
PreviewTime: -1
Countdown: 1
SampleSet: None
StackLeniency: 0.7
Mode: 2
LetterboxInBreaks: 0
WidescreenStoryboard: 1

[Editor]
DistanceSpacing: 1
BeatDivisor: 4
GridSize: 16
TimelineZoom: 0.6999999

[Metadata]
Title:Lisa Frank 420 / Modern Computing
TitleUnicode:リサフランク420 / 現代のコンピュー
Artist:MACINTOSH PLUS
ArtistUnicode:MACINTOSH PLUS
Creator:Stats-Kun
Version:Vapourwave Unstable
Source:NMSNL {Vaporwave Category)
Tags:NMSNL, Vaporwave, MACINTOSH PLUS, Lisa Frank, 420, The Modern Computer
BeatmapID:1264126
BeatmapSetID:586339

[Difficulty]
HPDrainRate:5
CircleSize:2
OverallDifficulty:8
ApproachRate:9.8
SliderMultiplier:1.4
SliderTickRate:1

[Events]
//Background and Video events
//Break Periods
2,292074,296955
//Storyboard Layer 0 (Background)
//Storyboard Layer 1 (Fail)
//Storyboard Layer 2 (Pass)
//Storyboard Layer 3 (Foreground)
//Storyboard Sound Samples

[TimingPoints]
171,342.075256556442,4,1,0,100,1,0
194469,-83.3333333333333,4,1,0,100,0,0
199942,-71.4285714285714,4,1,0,100,0,0
205416,-62.5,4,1,0,100,0,0
210889,-55.5555555555556,4,1,0,100,0,0
216362,-50,4,1,0,100,0,1
232782,-100,4,1,0,100,0,0
352166,684.150513112885,4,1,0,100,1,0

[HitObjects]
128,192,171,6,0,L|80:96,1,70
400,192,513,2,0,L|448:128,1,70
176,192,855,2,0,L|112:112,1,70
448,192,1197,2,0,L|496:128,1,70
80,192,1539,2,0,L|144:128,1,70
400,192,1881,2,0,L|352:128,1,70
64,192,2223,2,0,L|112:192,1,35
304,192,2394,2,0,L|240:192,1,35
64,192,2565,2,0,L|128:112,1,70
256,192,2907,6,0,L|208:128,1,70
480,192,3249,2,0,L|416:112,1,70
112,192,3591,2,0,L|160:128,1,70
416,192,3933,2,0,L|464:112,1,70
160,192,4275,2,0,L|112:128,1,70
432,192,4617,2,0,L|384:128,1,70
80,192,4960,2,0,L|144:192,1,35
304,192,5131,2,0,L|256:192,1,35
32,192,5302,2,0,B|64:144|64:144|96:144,1,70
384,192,5644,6,0,L|432:96,1,70
112,192,5986,2,0,L|64:128,1,70
336,192,6328,2,0,L|400:112,1,70
64,192,6670,2,0,L|16:128,1,70
432,192,7012,2,0,L|368:128,1,70
112,192,7354,2,0,L|160:128,1,70
448,192,7696,2,0,L|400:192,1,35
208,192,7867,2,0,L|272:192,1,35
448,192,8038,2,0,L|384:112,1,70
256,192,8380,6,0,L|304:128,1,70
32,192,8722,2,0,L|96:112,1,70
400,192,9064,2,0,L|352:128,1,70
96,192,9406,2,0,L|48:112,1,70
352,192,9748,2,0,L|400:128,1,70
80,192,10090,2,0,L|128:128,1,70
432,192,10433,2,0,L|368:192,1,35
208,192,10604,2,0,L|256:192,1,35
480,192,10775,2,0,B|448:144|448:144|416:144,1,70
384,192,11117,6,0,L|432:96,1,70
112,192,11459,2,0,L|64:128,1,70
336,192,11801,2,0,L|400:112,1,70
64,192,12143,2,0,L|16:128,1,70
432,192,12485,2,0,L|368:128,1,70
112,192,12827,2,0,L|160:128,1,70
448,192,13169,2,0,L|400:192,1,35
208,192,13340,2,0,L|272:192,1,35
448,192,13511,2,0,L|384:112,1,70
256,192,13853,6,0,L|304:128,1,70
32,192,14195,2,0,L|96:112,1,70
400,192,14537,2,0,L|352:128,1,70
96,192,14879,2,0,L|48:112,1,70
352,192,15221,2,0,L|400:128,1,70
80,192,15563,2,0,L|128:128,1,70
432,192,15906,2,0,L|368:192,1,35
208,192,16077,2,0,L|256:192,1,35
480,192,16248,2,0,B|448:144|448:144|416:144,1,70
128,192,16590,6,0,L|80:96,1,70
400,192,16932,2,0,L|448:128,1,70
176,192,17274,2,0,L|112:112,1,70
448,192,17616,2,0,L|496:128,1,70
80,192,17958,2,0,L|144:128,1,70
400,192,18300,2,0,L|352:128,1,70
64,192,18642,2,0,L|112:192,1,35
304,192,18813,2,0,L|240:192,1,35
64,192,18984,2,0,L|128:112,1,70
256,192,19326,6,0,L|208:128,1,70
480,192,19668,2,0,L|416:112,1,70
112,192,20010,2,0,L|160:128,1,70
416,192,20352,2,0,L|464:112,1,70
160,192,20694,2,0,L|112:128,1,70
432,192,21036,2,0,L|384:128,1,70
80,192,21379,2,0,L|144:192,1,35
304,192,21550,2,0,L|256:192,1,35
32,192,21721,2,0,B|64:144|64:144|96:144,1,70
128,192,22063,6,0,L|80:96,1,70
400,192,22405,2,0,L|448:128,1,70
176,192,22747,2,0,L|112:112,1,70
448,192,23089,2,0,L|496:128,1,70
80,192,23431,2,0,L|144:128,1,70
400,192,23773,2,0,L|352:128,1,70
64,192,24115,2,0,L|112:192,1,35
304,192,24286,2,0,L|240:192,1,35
64,192,24457,2,0,L|128:112,1,70
256,192,24799,6,0,L|208:128,1,70
480,192,25141,2,0,L|416:112,1,70
112,192,25483,2,0,L|160:128,1,70
416,192,25825,2,0,L|464:112,1,70
160,192,26167,2,0,L|112:128,1,70
432,192,26509,2,0,L|384:128,1,70
80,192,26852,2,0,L|144:192,1,35
304,192,27023,2,0,L|256:192,1,35
32,192,27194,2,0,B|64:144|64:144|96:144,1,70
384,192,27536,6,0,L|432:96,1,70
112,192,27878,2,0,L|64:128,1,70
336,192,28220,2,0,L|400:112,1,70
64,192,28562,2,0,L|16:128,1,70
432,192,28904,2,0,L|368:128,1,70
112,192,29246,2,0,L|160:128,1,70
448,192,29588,2,0,L|400:192,1,35
208,192,29759,2,0,L|272:192,1,35
448,192,29930,2,0,L|384:112,1,70
256,192,30272,6,0,L|304:128,1,70
32,192,30614,2,0,L|96:112,1,70
400,192,30956,2,0,L|352:128,1,70
96,192,31298,2,0,L|48:112,1,70
352,192,31640,2,0,L|400:128,1,70
80,192,31982,2,0,L|128:128,1,70
432,192,32325,2,0,L|368:192,1,35
208,192,32496,2,0,L|256:192,1,35
480,192,32667,2,0,B|448:144|448:144|416:144,1,70
384,192,33009,6,0,L|432:96,1,70
112,192,33351,2,0,L|64:128,1,70
336,192,33693,2,0,L|400:112,1,70
64,192,34035,2,0,L|16:128,1,70
432,192,34377,2,0,L|368:128,1,70
112,192,34719,2,0,L|160:128,1,70
448,192,35061,2,0,L|400:192,1,35
208,192,35232,2,0,L|272:192,1,35
448,192,35403,2,0,L|384:112,1,70
256,192,35745,6,0,L|304:128,1,70
32,192,36087,2,0,L|96:112,1,70
400,192,36429,2,0,L|352:128,1,70
96,192,36771,2,0,L|48:112,1,70
352,192,37113,2,0,L|400:128,1,70
80,192,37455,2,0,L|128:128,1,70
432,192,37798,2,0,L|368:192,1,35
208,192,37969,2,0,L|256:192,1,35
480,192,38140,2,0,B|448:144|448:144|416:144,1,70
128,192,38482,6,0,L|80:96,1,70
400,192,38824,2,0,L|448:128,1,70
176,192,39166,2,0,L|112:112,1,70
448,192,39508,2,0,L|496:128,1,70
80,192,39850,2,0,L|144:128,1,70
400,192,40192,2,0,L|352:128,1,70
64,192,40534,2,0,L|112:192,1,35
304,192,40705,2,0,L|240:192,1,35
64,192,40876,2,0,L|128:112,1,70
256,192,41218,6,0,L|208:128,1,70
480,192,41560,2,0,L|416:112,1,70
112,192,41902,2,0,L|160:128,1,70
416,192,42244,2,0,L|464:112,1,70
160,192,42586,2,0,L|112:128,1,70
432,192,42928,2,0,L|384:128,1,70
80,192,43271,2,0,L|144:192,1,35
304,192,43442,2,0,L|256:192,1,35
32,192,43613,2,0,B|64:144|64:144|96:144,1,70
467,192,43956,6,0,L|403:192,1,35
400,192,44127,2,0,L|336:192,1,35
336,192,44298,2,0,L|272:192,1,35
256,192,44469,2,0,L|208:192,1,35
208,192,44640,2,0,L|144:192,1,35
144,192,44811,2,0,L|96:192,1,35
96,192,44982,2,0,L|48:192,1,35
192,192,45153,1,0,0:0:0:0:
304,192,45239,1,0,0:0:0:0:
45,192,45324,6,0,L|109:192,1,35
112,192,45495,2,0,L|176:192,1,35
176,192,45666,2,0,L|240:192,1,35
256,192,45837,2,0,L|304:192,1,35
304,192,46008,2,0,L|368:192,1,35
368,192,46179,2,0,L|416:192,1,35
416,192,46350,2,0,L|464:192,1,35
320,192,46521,1,0,0:0:0:0:
208,192,46607,1,0,0:0:0:0:
467,192,46693,6,0,L|403:192,1,35
400,192,46864,2,0,L|336:192,1,35
336,192,47035,2,0,L|272:192,1,35
256,192,47206,2,0,L|208:192,1,35
208,192,47377,2,0,L|144:192,1,35
144,192,47548,2,0,L|96:192,1,35
96,192,47719,2,0,L|48:192,1,35
192,192,47890,1,0,0:0:0:0:
304,192,47976,1,0,0:0:0:0:
464,192,48061,6,0,L|432:144,1,35
352,192,48232,2,0,L|320:144,1,35
64,192,48403,2,0,L|96:144,1,35
176,192,48574,2,0,L|208:144,1,35
464,192,48745,6,0,L|432:144,1,35
352,192,48916,2,0,L|320:144,1,35
64,192,49087,2,0,L|96:144,1,35
176,192,49258,2,0,L|208:144,1,35
467,192,49429,6,0,L|403:192,1,35
400,192,49600,2,0,L|336:192,1,35
336,192,49771,2,0,L|272:192,1,35
256,192,49942,2,0,L|208:192,1,35
208,192,50113,2,0,L|144:192,1,35
144,192,50284,2,0,L|96:192,1,35
96,192,50455,2,0,L|48:192,1,35
192,192,50626,1,0,0:0:0:0:
304,192,50712,1,0,0:0:0:0:
45,192,50797,6,0,L|109:192,1,35
112,192,50968,2,0,L|176:192,1,35
176,192,51139,2,0,L|240:192,1,35
256,192,51310,2,0,L|304:192,1,35
304,192,51481,2,0,L|368:192,1,35
368,192,51652,2,0,L|416:192,1,35
416,192,51823,2,0,L|464:192,1,35
320,192,51994,1,0,0:0:0:0:
208,192,52080,1,0,0:0:0:0:
467,192,52166,6,0,L|403:192,1,35
400,192,52337,2,0,L|336:192,1,35
336,192,52508,2,0,L|272:192,1,35
256,192,52679,2,0,L|208:192,1,35
208,192,52850,2,0,L|144:192,1,35
144,192,53021,2,0,L|96:192,1,35
96,192,53192,2,0,L|48:192,1,35
192,192,53363,1,0,0:0:0:0:
304,192,53449,1,0,0:0:0:0:
464,192,53534,6,0,L|432:144,1,35
352,192,53705,2,0,L|320:144,1,35
64,192,53876,2,0,L|96:144,1,35
176,192,54047,2,0,L|208:144,1,35
464,192,54218,6,0,L|432:144,1,35
352,192,54389,2,0,L|320:144,1,35
64,192,54560,2,0,L|96:144,1,35
176,192,54731,2,0,L|208:144,1,35
467,192,54903,6,0,L|403:192,1,35
400,192,55074,2,0,L|336:192,1,35
336,192,55245,2,0,L|272:192,1,35
256,192,55416,2,0,L|208:192,1,35
208,192,55587,2,0,L|144:192,1,35
144,192,55758,2,0,L|96:192,1,35
96,192,55929,2,0,L|48:192,1,35
192,192,56100,1,0,0:0:0:0:
304,192,56186,1,0,0:0:0:0:
45,192,56271,6,0,L|109:192,1,35
112,192,56442,2,0,L|176:192,1,35
176,192,56613,2,0,L|240:192,1,35
256,192,56784,2,0,L|304:192,1,35
304,192,56955,2,0,L|368:192,1,35
368,192,57126,2,0,L|416:192,1,35
416,192,57297,2,0,L|464:192,1,35
320,192,57468,1,0,0:0:0:0:
208,192,57554,1,0,0:0:0:0:
467,192,57640,6,0,L|403:192,1,35
400,192,57811,2,0,L|336:192,1,35
336,192,57982,2,0,L|272:192,1,35
256,192,58153,2,0,L|208:192,1,35
208,192,58324,2,0,L|144:192,1,35
144,192,58495,2,0,L|96:192,1,35
96,192,58666,2,0,L|48:192,1,35
192,192,58837,1,0,0:0:0:0:
304,192,58923,1,0,0:0:0:0:
464,192,59008,6,0,L|432:144,1,35
352,192,59179,2,0,L|320:144,1,35
64,192,59350,2,0,L|96:144,1,35
176,192,59521,2,0,L|208:144,1,35
464,192,59692,6,0,L|432:144,1,35
352,192,59863,2,0,L|320:144,1,35
64,192,60034,2,0,L|96:144,1,35
176,192,60205,2,0,L|208:144,1,35
467,192,60376,6,0,L|403:192,1,35
400,192,60547,2,0,L|336:192,1,35
336,192,60718,2,0,L|272:192,1,35
256,192,60889,2,0,L|208:192,1,35
208,192,61060,2,0,L|144:192,1,35
144,192,61231,2,0,L|96:192,1,35
96,192,61402,2,0,L|48:192,1,35
192,192,61573,1,0,0:0:0:0:
304,192,61659,1,0,0:0:0:0:
45,192,61744,6,0,L|109:192,1,35
112,192,61915,2,0,L|176:192,1,35
176,192,62086,2,0,L|240:192,1,35
256,192,62257,2,0,L|304:192,1,35
304,192,62428,2,0,L|368:192,1,35
368,192,62599,2,0,L|416:192,1,35
416,192,62770,2,0,L|464:192,1,35
320,192,62941,1,0,0:0:0:0:
208,192,63027,1,0,0:0:0:0:
467,192,63113,6,0,L|403:192,1,35
400,192,63284,2,0,L|336:192,1,35
336,192,63455,2,0,L|272:192,1,35
256,192,63626,2,0,L|208:192,1,35
208,192,63797,2,0,L|144:192,1,35
144,192,63968,2,0,L|96:192,1,35
96,192,64139,2,0,L|48:192,1,35
192,192,64310,1,0,0:0:0:0:
304,192,64396,1,0,0:0:0:0:
464,192,64481,6,0,L|432:144,1,35
352,192,64652,2,0,L|320:144,1,35
64,192,64823,2,0,L|96:144,1,35
176,192,64994,2,0,L|208:144,1,35
464,192,65165,6,0,L|432:144,1,35
352,192,65336,2,0,L|320:144,1,35
64,192,65507,2,0,L|96:144,1,35
176,192,65678,2,0,L|208:144,1,35
384,192,65849,6,0,L|432:96,1,70
112,192,66191,2,0,L|64:128,1,70
336,192,66533,2,0,L|400:112,1,70
64,192,66875,2,0,L|16:128,1,70
432,192,67217,2,0,L|368:128,1,70
112,192,67559,2,0,L|160:128,1,70
448,192,67901,2,0,L|400:192,1,35
208,192,68072,2,0,L|272:192,1,35
448,192,68243,2,0,L|384:112,1,70
256,192,68585,6,0,L|304:128,1,70
32,192,68927,2,0,L|96:112,1,70
400,192,69269,2,0,L|352:128,1,70
96,192,69611,2,0,L|48:112,1,70
352,192,69953,2,0,L|400:128,1,70
80,192,70295,2,0,L|128:128,1,70
432,192,70638,2,0,L|368:192,1,35
208,192,70809,2,0,L|256:192,1,35
480,192,70980,2,0,B|448:144|448:144|416:144,1,70
128,192,71322,6,0,L|80:96,1,70
400,192,71664,2,0,L|448:128,1,70
176,192,72006,2,0,L|112:112,1,70
448,192,72348,2,0,L|496:128,1,70
80,192,72690,2,0,L|144:128,1,70
400,192,73032,2,0,L|352:128,1,70
64,192,73374,2,0,L|112:192,1,35
304,192,73545,2,0,L|240:192,1,35
64,192,73716,2,0,L|128:112,1,70
256,192,74058,6,0,L|208:128,1,70
480,192,74400,2,0,L|416:112,1,70
112,192,74742,2,0,L|160:128,1,70
416,192,75084,2,0,L|464:112,1,70
160,192,75426,2,0,L|112:128,1,70
432,192,75768,2,0,L|384:128,1,70
80,192,76111,2,0,L|144:192,1,35
304,192,76282,2,0,L|256:192,1,35
32,192,76453,2,0,B|64:144|64:144|96:144,1,70
128,192,76795,6,0,L|80:96,1,70
400,192,77137,2,0,L|448:128,1,70
176,192,77479,2,0,L|112:112,1,70
448,192,77821,2,0,L|496:128,1,70
80,192,78163,2,0,L|144:128,1,70
400,192,78505,2,0,L|352:128,1,70
64,192,78847,2,0,L|112:192,1,35
304,192,79018,2,0,L|240:192,1,35
64,192,79189,2,0,L|128:112,1,70
256,192,79531,6,0,L|208:128,1,70
480,192,79873,2,0,L|416:112,1,70
112,192,80215,2,0,L|160:128,1,70
416,192,80557,2,0,L|464:112,1,70
160,192,80899,2,0,L|112:128,1,70
432,192,81241,2,0,L|384:128,1,70
80,192,81584,2,0,L|144:192,1,35
304,192,81755,2,0,L|256:192,1,35
32,192,81926,2,0,B|64:144|64:144|96:144,1,70
384,192,82268,6,0,L|432:96,1,70
112,192,82610,2,0,L|64:128,1,70
336,192,82952,2,0,L|400:112,1,70
64,192,83294,2,0,L|16:128,1,70
432,192,83636,2,0,L|368:128,1,70
112,192,83978,2,0,L|160:128,1,70
448,192,84320,2,0,L|400:192,1,35
208,192,84491,2,0,L|272:192,1,35
448,192,84662,2,0,L|384:112,1,70
256,192,85004,6,0,L|304:128,1,70
32,192,85346,2,0,L|96:112,1,70
400,192,85688,2,0,L|352:128,1,70
96,192,86030,2,0,L|48:112,1,70
352,192,86372,2,0,L|400:128,1,70
80,192,86714,2,0,L|128:128,1,70
432,192,87057,2,0,L|368:192,1,35
208,192,87228,2,0,L|256:192,1,35
480,192,87399,2,0,B|448:144|448:144|416:144,1,70
384,192,87741,6,0,L|432:96,1,70
112,192,88083,2,0,L|64:128,1,70
336,192,88425,2,0,L|400:112,1,70
64,192,88767,2,0,L|16:128,1,70
432,192,89109,2,0,L|368:128,1,70
112,192,89451,2,0,L|160:128,1,70
448,192,89793,2,0,L|400:192,1,35
208,192,89964,2,0,L|272:192,1,35
448,192,90135,2,0,L|384:112,1,70
256,192,90477,6,0,L|304:128,1,70
32,192,90819,2,0,L|96:112,1,70
400,192,91161,2,0,L|352:128,1,70
96,192,91503,2,0,L|48:112,1,70
352,192,91845,2,0,L|400:128,1,70
80,192,92187,2,0,L|128:128,1,70
432,192,92530,2,0,L|368:192,1,35
208,192,92701,2,0,L|256:192,1,35
480,192,92872,2,0,B|448:144|448:144|416:144,1,70
128,192,93214,6,0,L|80:96,1,70
400,192,93556,2,0,L|448:128,1,70
176,192,93898,2,0,L|112:112,1,70
448,192,94240,2,0,L|496:128,1,70
80,192,94582,2,0,L|144:128,1,70
400,192,94924,2,0,L|352:128,1,70
64,192,95266,2,0,L|112:192,1,35
304,192,95437,2,0,L|240:192,1,35
64,192,95608,2,0,L|128:112,1,70
256,192,95950,6,0,L|208:128,1,70
480,192,96292,2,0,L|416:112,1,70
112,192,96634,2,0,L|160:128,1,70
416,192,96976,2,0,L|464:112,1,70
160,192,97318,2,0,L|112:128,1,70
432,192,97660,2,0,L|384:128,1,70
80,192,98003,2,0,L|144:192,1,35
304,192,98174,2,0,L|256:192,1,35
32,192,98345,2,0,B|64:144|64:144|96:144,1,70
128,192,98687,6,0,L|80:96,1,70
400,192,99029,2,0,L|448:128,1,70
176,192,99371,2,0,L|112:112,1,70
448,192,99713,2,0,L|496:128,1,70
80,192,100055,2,0,L|144:128,1,70
400,192,100397,2,0,L|352:128,1,70
64,192,100739,2,0,L|112:192,1,35
304,192,100910,2,0,L|240:192,1,35
64,192,101081,2,0,L|128:112,1,70
256,192,101423,6,0,L|208:128,1,70
480,192,101765,2,0,L|416:112,1,70
112,192,102107,2,0,L|160:128,1,70
416,192,102449,2,0,L|464:112,1,70
160,192,102791,2,0,L|112:128,1,70
432,192,103133,2,0,L|384:128,1,70
80,192,103476,2,0,L|144:192,1,35
304,192,103647,2,0,L|256:192,1,35
32,192,103818,2,0,B|64:144|64:144|96:144,1,70
384,192,104160,6,0,L|432:96,1,70
112,192,104502,2,0,L|64:128,1,70
336,192,104844,2,0,L|400:112,1,70
64,192,105186,2,0,L|16:128,1,70
432,192,105528,2,0,L|368:128,1,70
112,192,105870,2,0,L|160:128,1,70
448,192,106212,2,0,L|400:192,1,35
208,192,106383,2,0,L|272:192,1,35
448,192,106554,2,0,L|384:112,1,70
256,192,106896,6,0,L|304:128,1,70
32,192,107238,2,0,L|96:112,1,70
400,192,107580,2,0,L|352:128,1,70
96,192,107922,2,0,L|48:112,1,70
352,192,108264,2,0,L|400:128,1,70
80,192,108606,2,0,L|128:128,1,70
432,192,108949,2,0,L|368:192,1,35
208,192,109120,2,0,L|256:192,1,35
480,192,109291,2,0,B|448:144|448:144|416:144,1,70
45,192,109634,6,0,L|109:192,1,35
112,192,109805,2,0,L|176:192,1,35
176,192,109976,2,0,L|240:192,1,35
256,192,110147,2,0,L|304:192,1,35
304,192,110318,2,0,L|368:192,1,35
368,192,110489,2,0,L|416:192,1,35
416,192,110660,2,0,L|464:192,1,35
320,192,110831,1,0,0:0:0:0:
208,192,110917,1,0,0:0:0:0:
467,192,111002,6,0,L|403:192,1,35
400,192,111173,2,0,L|336:192,1,35
336,192,111344,2,0,L|272:192,1,35
256,192,111515,2,0,L|208:192,1,35
208,192,111686,2,0,L|144:192,1,35
144,192,111857,2,0,L|96:192,1,35
96,192,112028,2,0,L|48:192,1,35
192,192,112199,1,0,0:0:0:0:
304,192,112285,1,0,0:0:0:0:
45,192,112371,6,0,L|109:192,1,35
112,192,112542,2,0,L|176:192,1,35
176,192,112713,2,0,L|240:192,1,35
256,192,112884,2,0,L|304:192,1,35
304,192,113055,2,0,L|368:192,1,35
368,192,113226,2,0,L|416:192,1,35
416,192,113397,2,0,L|464:192,1,35
320,192,113568,1,0,0:0:0:0:
208,192,113654,1,0,0:0:0:0:
48,192,113739,6,0,L|80:144,1,35
160,192,113910,2,0,L|192:144,1,35
448,192,114081,2,0,L|416:144,1,35
336,192,114252,2,0,L|304:144,1,35
48,192,114423,6,0,L|80:144,1,35
160,192,114594,2,0,L|192:144,1,35
448,192,114765,2,0,L|416:144,1,35
336,192,114936,2,0,L|304:144,1,35
45,192,115107,6,0,L|109:192,1,35
112,192,115278,2,0,L|176:192,1,35
176,192,115449,2,0,L|240:192,1,35
256,192,115620,2,0,L|304:192,1,35
304,192,115791,2,0,L|368:192,1,35
368,192,115962,2,0,L|416:192,1,35
416,192,116133,2,0,L|464:192,1,35
320,192,116304,1,0,0:0:0:0:
208,192,116390,1,0,0:0:0:0:
467,192,116475,6,0,L|403:192,1,35
400,192,116646,2,0,L|336:192,1,35
336,192,116817,2,0,L|272:192,1,35
256,192,116988,2,0,L|208:192,1,35
208,192,117159,2,0,L|144:192,1,35
144,192,117330,2,0,L|96:192,1,35
96,192,117501,2,0,L|48:192,1,35
192,192,117672,1,0,0:0:0:0:
304,192,117758,1,0,0:0:0:0:
45,192,117844,6,0,L|109:192,1,35
112,192,118015,2,0,L|176:192,1,35
176,192,118186,2,0,L|240:192,1,35
256,192,118357,2,0,L|304:192,1,35
304,192,118528,2,0,L|368:192,1,35
368,192,118699,2,0,L|416:192,1,35
416,192,118870,2,0,L|464:192,1,35
320,192,119041,1,0,0:0:0:0:
208,192,119127,1,0,0:0:0:0:
48,192,119212,6,0,L|80:144,1,35
160,192,119383,2,0,L|192:144,1,35
448,192,119554,2,0,L|416:144,1,35
336,192,119725,2,0,L|304:144,1,35
48,192,119896,6,0,L|80:144,1,35
160,192,120067,2,0,L|192:144,1,35
448,192,120238,2,0,L|416:144,1,35
336,192,120409,2,0,L|304:144,1,35
45,192,120581,6,0,L|109:192,1,35
112,192,120752,2,0,L|176:192,1,35
176,192,120923,2,0,L|240:192,1,35
256,192,121094,2,0,L|304:192,1,35
304,192,121265,2,0,L|368:192,1,35
368,192,121436,2,0,L|416:192,1,35
416,192,121607,2,0,L|464:192,1,35
320,192,121778,1,0,0:0:0:0:
208,192,121864,1,0,0:0:0:0:
467,192,121949,6,0,L|403:192,1,35
400,192,122120,2,0,L|336:192,1,35
336,192,122291,2,0,L|272:192,1,35
256,192,122462,2,0,L|208:192,1,35
208,192,122633,2,0,L|144:192,1,35
144,192,122804,2,0,L|96:192,1,35
96,192,122975,2,0,L|48:192,1,35
192,192,123146,1,0,0:0:0:0:
304,192,123232,1,0,0:0:0:0:
45,192,123318,6,0,L|109:192,1,35
112,192,123489,2,0,L|176:192,1,35
176,192,123660,2,0,L|240:192,1,35
256,192,123831,2,0,L|304:192,1,35
304,192,124002,2,0,L|368:192,1,35
368,192,124173,2,0,L|416:192,1,35
416,192,124344,2,0,L|464:192,1,35
320,192,124515,1,0,0:0:0:0:
208,192,124601,1,0,0:0:0:0:
48,192,124686,6,0,L|80:144,1,35
160,192,124857,2,0,L|192:144,1,35
448,192,125028,2,0,L|416:144,1,35
336,192,125199,2,0,L|304:144,1,35
48,192,125370,6,0,L|80:144,1,35
160,192,125541,2,0,L|192:144,1,35
448,192,125712,2,0,L|416:144,1,35
336,192,125883,2,0,L|304:144,1,35
45,192,126054,6,0,L|109:192,1,35
112,192,126225,2,0,L|176:192,1,35
176,192,126396,2,0,L|240:192,1,35
256,192,126567,2,0,L|304:192,1,35
304,192,126738,2,0,L|368:192,1,35
368,192,126909,2,0,L|416:192,1,35
416,192,127080,2,0,L|464:192,1,35
320,192,127251,1,0,0:0:0:0:
208,192,127337,1,0,0:0:0:0:
467,192,127422,6,0,L|403:192,1,35
400,192,127593,2,0,L|336:192,1,35
336,192,127764,2,0,L|272:192,1,35
256,192,127935,2,0,L|208:192,1,35
208,192,128106,2,0,L|144:192,1,35
144,192,128277,2,0,L|96:192,1,35
96,192,128448,2,0,L|48:192,1,35
192,192,128619,1,0,0:0:0:0:
304,192,128705,1,0,0:0:0:0:
45,192,128791,6,0,L|109:192,1,35
112,192,128962,2,0,L|176:192,1,35
176,192,129133,2,0,L|240:192,1,35
256,192,129304,2,0,L|304:192,1,35
304,192,129475,2,0,L|368:192,1,35
368,192,129646,2,0,L|416:192,1,35
416,192,129817,2,0,L|464:192,1,35
320,192,129988,1,0,0:0:0:0:
208,192,130074,1,0,0:0:0:0:
48,192,130159,6,0,L|80:144,1,35
160,192,130330,2,0,L|192:144,1,35
448,192,130501,2,0,L|416:144,1,35
336,192,130672,2,0,L|304:144,1,35
48,192,130843,6,0,L|80:144,1,35
160,192,131014,2,0,L|192:144,1,35
448,192,131185,2,0,L|416:144,1,35
336,192,131356,2,0,L|304:144,1,35
128,192,131527,6,0,L|80:96,1,70
400,192,131869,2,0,L|448:128,1,70
176,192,132211,2,0,L|112:112,1,70
448,192,132553,2,0,L|496:128,1,70
80,192,132895,2,0,L|144:128,1,70
400,192,133237,2,0,L|352:128,1,70
64,192,133579,2,0,L|112:192,1,35
304,192,133750,2,0,L|240:192,1,35
64,192,133921,2,0,L|128:112,1,70
256,192,134263,6,0,L|208:128,1,70
480,192,134605,2,0,L|416:112,1,70
112,192,134947,2,0,L|160:128,1,70
416,192,135289,2,0,L|464:112,1,70
160,192,135631,2,0,L|112:128,1,70
432,192,135973,2,0,L|384:128,1,70
80,192,136316,2,0,L|144:192,1,35
304,192,136487,2,0,L|256:192,1,35
32,192,136658,2,0,B|64:144|64:144|96:144,1,70
384,192,137000,6,0,L|432:96,1,70
112,192,137342,2,0,L|64:128,1,70
336,192,137684,2,0,L|400:112,1,70
64,192,138026,2,0,L|16:128,1,70
432,192,138368,2,0,L|368:128,1,70
112,192,138710,2,0,L|160:128,1,70
448,192,139052,2,0,L|400:192,1,35
208,192,139223,2,0,L|272:192,1,35
448,192,139394,2,0,L|384:112,1,70
256,192,139736,6,0,L|304:128,1,70
32,192,140078,2,0,L|96:112,1,70
400,192,140420,2,0,L|352:128,1,70
96,192,140762,2,0,L|48:112,1,70
352,192,141104,2,0,L|400:128,1,70
80,192,141446,2,0,L|128:128,1,70
432,192,141789,2,0,L|368:192,1,35
208,192,141960,2,0,L|256:192,1,35
480,192,142131,2,0,B|448:144|448:144|416:144,1,70
384,192,142473,6,0,L|432:96,1,70
112,192,142815,2,0,L|64:128,1,70
336,192,143157,2,0,L|400:112,1,70
64,192,143499,2,0,L|16:128,1,70
432,192,143841,2,0,L|368:128,1,70
112,192,144183,2,0,L|160:128,1,70
448,192,144525,2,0,L|400:192,1,35
208,192,144696,2,0,L|272:192,1,35
448,192,144867,2,0,L|384:112,1,70
256,192,145209,6,0,L|304:128,1,70
32,192,145551,2,0,L|96:112,1,70
400,192,145893,2,0,L|352:128,1,70
96,192,146235,2,0,L|48:112,1,70
352,192,146577,2,0,L|400:128,1,70
80,192,146919,2,0,L|128:128,1,70
432,192,147262,2,0,L|368:192,1,35
208,192,147433,2,0,L|256:192,1,35
480,192,147604,2,0,B|448:144|448:144|416:144,1,70
128,192,147946,6,0,L|80:96,1,70
400,192,148288,2,0,L|448:128,1,70
176,192,148630,2,0,L|112:112,1,70
448,192,148972,2,0,L|496:128,1,70
80,192,149314,2,0,L|144:128,1,70
400,192,149656,2,0,L|352:128,1,70
64,192,149998,2,0,L|112:192,1,35
304,192,150169,2,0,L|240:192,1,35
64,192,150340,2,0,L|128:112,1,70
256,192,150682,6,0,L|208:128,1,70
480,192,151024,2,0,L|416:112,1,70
112,192,151366,2,0,L|160:128,1,70
416,192,151708,2,0,L|464:112,1,70
160,192,152050,2,0,L|112:128,1,70
432,192,152392,2,0,L|384:128,1,70
80,192,152735,2,0,L|144:192,1,35
304,192,152906,2,0,L|256:192,1,35
32,192,153077,2,0,B|64:144|64:144|96:144,1,70
128,192,153419,6,0,L|80:96,1,70
400,192,153761,2,0,L|448:128,1,70
176,192,154103,2,0,L|112:112,1,70
448,192,154445,2,0,L|496:128,1,70
80,192,154787,2,0,L|144:128,1,70
400,192,155129,2,0,L|352:128,1,70
64,192,155471,2,0,L|112:192,1,35
304,192,155642,2,0,L|240:192,1,35
64,192,155813,2,0,L|128:112,1,70
256,192,156155,6,0,L|208:128,1,70
480,192,156497,2,0,L|416:112,1,70
112,192,156839,2,0,L|160:128,1,70
416,192,157181,2,0,L|464:112,1,70
160,192,157523,2,0,L|112:128,1,70
432,192,157865,2,0,L|384:128,1,70
80,192,158208,2,0,L|144:192,1,35
304,192,158379,2,0,L|256:192,1,35
32,192,158550,2,0,B|64:144|64:144|96:144,1,70
384,192,158892,6,0,L|432:96,1,70
112,192,159234,2,0,L|64:128,1,70
336,192,159576,2,0,L|400:112,1,70
64,192,159918,2,0,L|16:128,1,70
432,192,160260,2,0,L|368:128,1,70
112,192,160602,2,0,L|160:128,1,70
448,192,160944,2,0,L|400:192,1,35
208,192,161115,2,0,L|272:192,1,35
448,192,161286,2,0,L|384:112,1,70
256,192,161628,6,0,L|304:128,1,70
32,192,161970,2,0,L|96:112,1,70
400,192,162312,2,0,L|352:128,1,70
96,192,162654,2,0,L|48:112,1,70
352,192,162996,2,0,L|400:128,1,70
80,192,163338,2,0,L|128:128,1,70
432,192,163681,2,0,L|368:192,1,35
208,192,163852,2,0,L|256:192,1,35
480,192,164023,2,0,B|448:144|448:144|416:144,1,70
384,192,164365,6,0,L|432:96,1,70
112,192,164707,2,0,L|64:128,1,70
336,192,165049,2,0,L|400:112,1,70
64,192,165391,2,0,L|16:128,1,70
432,192,165733,2,0,L|368:128,1,70
112,192,166075,2,0,L|160:128,1,70
448,192,166417,2,0,L|400:192,1,35
208,192,166588,2,0,L|272:192,1,35
448,192,166759,2,0,L|384:112,1,70
256,192,167101,6,0,L|304:128,1,70
32,192,167443,2,0,L|96:112,1,70
400,192,167785,2,0,L|352:128,1,70
96,192,168127,2,0,L|48:112,1,70
352,192,168469,2,0,L|400:128,1,70
80,192,168811,2,0,L|128:128,1,70
432,192,169154,2,0,L|368:192,1,35
208,192,169325,2,0,L|256:192,1,35
480,192,169496,2,0,B|448:144|448:144|416:144,1,70
128,192,169838,6,0,L|80:96,1,70
400,192,170180,2,0,L|448:128,1,70
176,192,170522,2,0,L|112:112,1,70
448,192,170864,2,0,L|496:128,1,70
80,192,171206,2,0,L|144:128,1,70
400,192,171548,2,0,L|352:128,1,70
64,192,171890,2,0,L|112:192,1,35
304,192,172061,2,0,L|240:192,1,35
64,192,172232,2,0,L|128:112,1,70
256,192,172574,6,0,L|208:128,1,70
480,192,172916,2,0,L|416:112,1,70
112,192,173258,2,0,L|160:128,1,70
416,192,173600,2,0,L|464:112,1,70
160,192,173942,2,0,L|112:128,1,70
432,192,174284,2,0,L|384:128,1,70
80,192,174627,2,0,L|144:192,1,35
304,192,174798,2,0,L|256:192,1,35
32,192,174969,2,0,B|64:144|64:144|96:144,1,70
467,192,175312,6,0,L|403:192,1,35
400,192,175483,2,0,L|336:192,1,35
336,192,175654,2,0,L|272:192,1,35
256,192,175825,2,0,L|208:192,1,35
208,192,175996,2,0,L|144:192,1,35
144,192,176167,2,0,L|96:192,1,35
96,192,176338,2,0,L|48:192,1,35
192,192,176509,1,0,0:0:0:0:
304,192,176595,1,0,0:0:0:0:
45,192,176680,6,0,L|109:192,1,35
112,192,176851,2,0,L|176:192,1,35
176,192,177022,2,0,L|240:192,1,35
256,192,177193,2,0,L|304:192,1,35
304,192,177364,2,0,L|368:192,1,35
368,192,177535,2,0,L|416:192,1,35
416,192,177706,2,0,L|464:192,1,35
320,192,177877,1,0,0:0:0:0:
208,192,177963,1,0,0:0:0:0:
467,192,178049,6,0,L|403:192,1,35
400,192,178220,2,0,L|336:192,1,35
336,192,178391,2,0,L|272:192,1,35
256,192,178562,2,0,L|208:192,1,35
208,192,178733,2,0,L|144:192,1,35
144,192,178904,2,0,L|96:192,1,35
96,192,179075,2,0,L|48:192,1,35
192,192,179246,1,0,0:0:0:0:
304,192,179332,1,0,0:0:0:0:
464,192,179417,6,0,L|432:144,1,35
352,192,179588,2,0,L|320:144,1,35
64,192,179759,2,0,L|96:144,1,35
176,192,179930,2,0,L|208:144,1,35
464,192,180101,6,0,L|432:144,1,35
352,192,180272,2,0,L|320:144,1,35
64,192,180443,2,0,L|96:144,1,35
176,192,180614,2,0,L|208:144,1,35
467,192,180785,6,0,L|403:192,1,35
400,192,180956,2,0,L|336:192,1,35
336,192,181127,2,0,L|272:192,1,35
256,192,181298,2,0,L|208:192,1,35
208,192,181469,2,0,L|144:192,1,35
144,192,181640,2,0,L|96:192,1,35
96,192,181811,2,0,L|48:192,1,35
192,192,181982,1,0,0:0:0:0:
304,192,182068,1,0,0:0:0:0:
45,192,182153,6,0,L|109:192,1,35
112,192,182324,2,0,L|176:192,1,35
176,192,182495,2,0,L|240:192,1,35
256,192,182666,2,0,L|304:192,1,35
304,192,182837,2,0,L|368:192,1,35
368,192,183008,2,0,L|416:192,1,35
416,192,183179,2,0,L|464:192,1,35
320,192,183350,1,0,0:0:0:0:
208,192,183436,1,0,0:0:0:0:
467,192,183522,6,0,L|403:192,1,35
400,192,183693,2,0,L|336:192,1,35
336,192,183864,2,0,L|272:192,1,35
256,192,184035,2,0,L|208:192,1,35
208,192,184206,2,0,L|144:192,1,35
144,192,184377,2,0,L|96:192,1,35
96,192,184548,2,0,L|48:192,1,35
192,192,184719,1,0,0:0:0:0:
304,192,184805,1,0,0:0:0:0:
464,192,184890,6,0,L|432:144,1,35
352,192,185061,2,0,L|320:144,1,35
64,192,185232,2,0,L|96:144,1,35
176,192,185403,2,0,L|208:144,1,35
464,192,185574,6,0,L|432:144,1,35
352,192,185745,2,0,L|320:144,1,35
64,192,185916,2,0,L|96:144,1,35
176,192,186087,2,0,L|208:144,1,35
467,192,186259,6,0,L|403:192,1,35
400,192,186430,2,0,L|336:192,1,35
336,192,186601,2,0,L|272:192,1,35
256,192,186772,2,0,L|208:192,1,35
208,192,186943,2,0,L|144:192,1,35
144,192,187114,2,0,L|96:192,1,35
96,192,187285,2,0,L|48:192,1,35
192,192,187456,1,0,0:0:0:0:
304,192,187542,1,0,0:0:0:0:
45,192,187627,6,0,L|109:192,1,35
112,192,187798,2,0,L|176:192,1,35
176,192,187969,2,0,L|240:192,1,35
256,192,188140,2,0,L|304:192,1,35
304,192,188311,2,0,L|368:192,1,35
368,192,188482,2,0,L|416:192,1,35
416,192,188653,2,0,L|464:192,1,35
320,192,188824,1,0,0:0:0:0:
208,192,188910,1,0,0:0:0:0:
464,192,188996,6,0,L|432:144,1,35
288,192,189167,2,0,L|256:144,1,35
112,192,189338,2,0,L|144:144,1,35
320,192,189509,2,0,L|336:160,1,35
352,192,189680,2,0,B|240:144|240:144|32:144,1,315
384,192,190706,2,0,L|432:144,1,35
256,192,190877,2,0,L|224:144,1,35
128,192,191048,2,0,B|192:80|192:80|336:80,1,245
464,192,191733,6,0,L|432:144,1,35
288,192,191904,2,0,L|256:144,1,35
112,192,192075,2,0,L|144:144,1,35
320,192,192246,2,0,L|336:160,1,35
352,192,192417,2,0,B|240:144|240:144|32:144,1,315
384,192,193443,2,0,L|432:144,1,35
256,192,193614,2,0,L|224:144,1,35
128,192,193785,2,0,B|192:80|192:80|336:80,1,245
48,192,194469,6,0,L|96:128,1,41.9999987182618
208,192,194640,2,0,L|240:128,1,41.9999987182618
400,192,194811,2,0,L|352:128,1,41.9999987182618
192,192,194982,2,0,L|160:144,1,41.9999987182618
160,192,195153,2,0,B|256:64|256:64|480:64,1,377.999988464356
128,192,196179,2,0,L|80:144,1,41.9999987182618
256,192,196350,2,0,L|288:128,1,41.9999987182618
384,192,196521,2,0,B|320:80|320:80|144:80,1,293.999991027832
48,192,197206,6,0,L|96:128,1,41.9999987182618
224,192,197377,2,0,L|256:128,1,41.9999987182618
400,192,197548,2,0,L|352:128,1,41.9999987182618
192,192,197719,2,0,L|144:128,1,41.9999987182618
160,192,197890,2,0,B|272:64|272:64|480:64,1,377.999988464356
128,192,198916,2,0,L|80:128,1,41.9999987182618
256,192,199087,2,0,L|288:128,1,41.9999987182618
384,192,199258,2,0,B|320:80|320:80|128:80,1,293.999991027832
464,192,199942,6,0,L|416:128,1,48.9999985046387
288,192,200113,2,0,L|240:112,1,48.9999985046387
112,192,200284,2,0,L|144:128,1,48.9999985046387
320,192,200455,2,0,L|352:144,1,48.9999985046387
384,192,200627,2,0,B|256:32|256:32|16:32,1,440.999986541748
384,192,201652,2,0,L|432:128,1,48.9999985046387
256,192,201823,2,0,L|208:128,1,48.9999985046387
128,192,201994,2,0,B|192:80|192:80|416:80,1,342.999989532471
464,192,202679,6,0,L|416:128,1,48.9999985046387
288,192,202850,2,0,L|256:128,1,48.9999985046387
112,192,203021,2,0,L|160:128,1,48.9999985046387
320,192,203192,2,0,L|352:144,1,48.9999985046387
384,192,203363,2,0,B|256:32|256:32|16:32,1,440.999986541748
384,192,204389,2,0,L|448:128,1,48.9999985046387
256,192,204560,2,0,L|224:128,1,48.9999985046387
128,192,204731,2,0,B|192:80|192:80|416:80,1,342.999989532471
48,192,205415,6,0,L|96:128,1,48.9999985046387
224,192,205586,2,0,L|256:128,1,56
400,192,205757,2,0,L|352:128,1,56
192,192,205928,2,0,L|160:144,1,56
16,192,206100,2,0,B|256:32|256:32|480:32,1,504
128,192,207125,2,0,L|80:128,1,56
256,192,207296,2,0,L|304:128,1,56
384,192,207467,2,0,B|320:80|320:80|16:80,1,392
48,192,208152,6,0,L|96:128,1,56
224,192,208323,2,0,L|256:128,1,56
400,192,208494,2,0,L|368:128,1,56
192,192,208665,2,0,L|160:128,1,56
32,192,208836,2,0,B|256:32|256:32|496:32,1,504
128,192,209862,2,0,L|80:128,1,56
256,192,210033,2,0,L|304:128,1,56
384,192,210204,2,0,B|320:80|320:80|48:80,1,392
464,192,210889,6,0,L|416:128,1,62.9999980773926
288,192,211060,2,0,L|240:128,1,62.9999980773926
112,192,211231,2,0,L|160:128,1,62.9999980773926
320,192,211402,2,0,L|352:128,1,62.9999980773926
480,352,211573,2,0,B|256:32|256:32|64:192,1,629.999980773926
384,192,212599,2,0,L|448:128,1,62.9999980773926
256,192,212770,2,0,L|208:128,1,62.9999980773926
32,192,212941,2,0,B|176:80|176:80|448:80,1,440.999986541748
464,192,213626,6,0,L|416:128,1,62.9999980773926
288,192,213797,2,0,L|240:112,1,62.9999980773926
112,192,213968,2,0,L|160:128,1,62.9999980773926
320,192,214139,2,0,L|352:128,1,62.9999980773926
464,352,214310,2,0,B|256:16|256:16|96:192,1,629.999980773926
384,192,215336,2,0,L|432:128,1,62.9999980773926
256,192,215507,2,0,L|208:128,1,62.9999980773926
32,192,215678,2,0,B|192:80|192:80|448:80,1,440.999986541748
459,192,216362,6,0,L|400:128,1,70
288,192,216533,2,0,L|224:96,1,70
112,192,216704,2,0,L|176:96,1,70
320,192,216875,2,0,L|368:128,1,70
464,352,217046,2,0,B|256:16|256:16|48:240,1,700
384,192,218072,2,0,L|448:112,1,70
256,192,218243,2,0,L|192:112,1,70
32,192,218414,2,0,B|192:80|192:80|496:80,1,490
459,192,219099,6,0,L|400:128,1,70
288,192,219270,2,0,L|224:96,1,70
112,192,219441,2,0,L|176:96,1,70
320,192,219612,2,0,L|368:128,1,70
464,352,219783,2,0,B|256:16|256:16|48:240,1,700
384,192,220809,2,0,L|448:112,1,70
256,192,220980,2,0,L|192:112,1,70
32,192,221151,2,0,B|192:80|192:80|496:80,1,490
459,192,221836,6,0,L|400:128,1,70
288,192,222007,2,0,L|224:96,1,70
112,192,222178,2,0,L|176:96,1,70
320,192,222349,2,0,L|368:128,1,70
464,352,222520,2,0,B|256:16|256:16|48:240,1,700
384,192,223546,2,0,L|448:112,1,70
256,192,223717,2,0,L|192:112,1,70
32,192,223888,2,0,B|192:80|192:80|496:80,1,490
459,192,224572,6,0,L|400:128,1,70
288,192,224743,2,0,L|224:96,1,70
112,192,224914,2,0,L|176:96,1,70
320,192,225085,2,0,L|368:128,1,70
464,352,225256,2,0,B|256:16|256:16|48:240,1,700
384,192,226282,2,0,L|448:112,1,70
256,192,226453,2,0,L|192:112,1,70
32,192,226624,2,0,B|192:80|192:80|496:80,1,490
459,192,227308,6,0,L|400:128,1,70
288,192,227479,2,0,L|224:96,1,70
112,192,227650,2,0,L|176:96,1,70
320,192,227821,2,0,L|368:128,1,70
464,352,227992,2,0,B|256:16|256:16|48:240,1,700
384,192,229018,2,0,L|448:112,1,70
256,192,229189,2,0,L|192:112,1,70
32,192,229360,2,0,B|192:80|192:80|496:80,1,490
459,192,230045,6,0,L|400:128,1,70
288,192,230216,2,0,L|224:96,1,70
112,192,230387,2,0,L|176:96,1,70
320,192,230558,2,0,L|368:128,1,70
464,352,230729,2,0,B|256:16|256:16|48:240,1,700
384,192,231755,2,0,L|448:112,1,70
256,192,231926,2,0,L|192:112,1,70
32,192,232097,2,0,B|192:80|192:80|496:80,1,490
128,192,232782,6,0,L|80:96,1,70
400,192,233124,2,0,L|448:128,1,70
176,192,233466,2,0,L|112:112,1,70
448,192,233808,2,0,L|496:128,1,70
80,192,234150,2,0,L|144:128,1,70
400,192,234492,2,0,L|352:128,1,70
64,192,234834,2,0,L|112:192,1,35
304,192,235005,2,0,L|240:192,1,35
64,192,235176,2,0,L|128:112,1,70
256,192,235518,6,0,L|208:128,1,70
480,192,235860,2,0,L|416:112,1,70
112,192,236202,2,0,L|160:128,1,70
416,192,236544,2,0,L|464:112,1,70
160,192,236886,2,0,L|112:128,1,70
432,192,237228,2,0,L|384:128,1,70
80,192,237571,2,0,L|144:192,1,35
304,192,237742,2,0,L|256:192,1,35
32,192,237913,2,0,B|64:144|64:144|96:144,1,70
384,192,238255,6,0,L|432:96,1,70
112,192,238597,2,0,L|64:128,1,70
336,192,238939,2,0,L|400:112,1,70
64,192,239281,2,0,L|16:128,1,70
432,192,239623,2,0,L|368:128,1,70
112,192,239965,2,0,L|160:128,1,70
448,192,240307,2,0,L|400:192,1,35
208,192,240478,2,0,L|272:192,1,35
448,192,240649,2,0,L|384:112,1,70
256,192,240991,6,0,L|304:128,1,70
32,192,241333,2,0,L|96:112,1,70
400,192,241675,2,0,L|352:128,1,70
96,192,242017,2,0,L|48:112,1,70
352,192,242359,2,0,L|400:128,1,70
80,192,242701,2,0,L|128:128,1,70
432,192,243044,2,0,L|368:192,1,35
208,192,243215,2,0,L|256:192,1,35
480,192,243386,2,0,B|448:144|448:144|416:144,1,70
384,192,243728,6,0,L|432:96,1,70
112,192,244070,2,0,L|64:128,1,70
336,192,244412,2,0,L|400:112,1,70
64,192,244754,2,0,L|16:128,1,70
432,192,245096,2,0,L|368:128,1,70
112,192,245438,2,0,L|160:128,1,70
448,192,245780,2,0,L|400:192,1,35
208,192,245951,2,0,L|272:192,1,35
448,192,246122,2,0,L|384:112,1,70
256,192,246464,6,0,L|304:128,1,70
32,192,246806,2,0,L|96:112,1,70
400,192,247148,2,0,L|352:128,1,70
96,192,247490,2,0,L|48:112,1,70
352,192,247832,2,0,L|400:128,1,70
80,192,248174,2,0,L|128:128,1,70
432,192,248517,2,0,L|368:192,1,35
208,192,248688,2,0,L|256:192,1,35
480,192,248859,2,0,B|448:144|448:144|416:144,1,70
128,192,249201,6,0,L|80:96,1,70
400,192,249543,2,0,L|448:128,1,70
176,192,249885,2,0,L|112:112,1,70
448,192,250227,2,0,L|496:128,1,70
80,192,250569,2,0,L|144:128,1,70
400,192,250911,2,0,L|352:128,1,70
64,192,251253,2,0,L|112:192,1,35
304,192,251424,2,0,L|240:192,1,35
64,192,251595,2,0,L|128:112,1,70
256,192,251937,6,0,L|208:128,1,70
480,192,252279,2,0,L|416:112,1,70
112,192,252621,2,0,L|160:128,1,70
416,192,252963,2,0,L|464:112,1,70
160,192,253305,2,0,L|112:128,1,70
432,192,253647,2,0,L|384:128,1,70
80,192,253990,2,0,L|144:192,1,35
304,192,254161,2,0,L|256:192,1,35
32,192,254332,2,0,B|64:144|64:144|96:144,1,70
384,192,254674,6,0,L|432:96,1,70
112,192,255016,2,0,L|64:128,1,70
336,192,255358,2,0,L|400:112,1,70
64,192,255700,2,0,L|16:128,1,70
432,192,256042,2,0,L|368:128,1,70
112,192,256384,2,0,L|160:128,1,70
448,192,256726,2,0,L|400:192,1,35
208,192,256897,2,0,L|272:192,1,35
448,192,257068,2,0,L|384:112,1,70
256,192,257410,6,0,L|304:128,1,70
32,192,257752,2,0,L|96:112,1,70
400,192,258094,2,0,L|352:128,1,70
96,192,258436,2,0,L|48:112,1,70
352,192,258778,2,0,L|400:128,1,70
80,192,259120,2,0,L|128:128,1,70
432,192,259463,2,0,L|368:192,1,35
208,192,259634,2,0,L|256:192,1,35
480,192,259805,2,0,B|448:144|448:144|416:144,1,70
384,192,260147,6,0,L|432:96,1,70
112,192,260489,2,0,L|64:128,1,70
336,192,260831,2,0,L|400:112,1,70
64,192,261173,2,0,L|16:128,1,70
432,192,261515,2,0,L|368:128,1,70
112,192,261857,2,0,L|160:128,1,70
448,192,262199,2,0,L|400:192,1,35
208,192,262370,2,0,L|272:192,1,35
448,192,262541,2,0,L|384:112,1,70
256,192,262883,6,0,L|304:128,1,70
32,192,263225,2,0,L|96:112,1,70
400,192,263567,2,0,L|352:128,1,70
96,192,263909,2,0,L|48:112,1,70
352,192,264251,2,0,L|400:128,1,70
80,192,264593,2,0,L|128:128,1,70
432,192,264936,2,0,L|368:192,1,35
208,192,265107,2,0,L|256:192,1,35
480,192,265278,2,0,B|448:144|448:144|416:144,1,70
467,192,265621,6,0,L|403:192,1,35
400,192,265792,2,0,L|336:192,1,35
336,192,265963,2,0,L|272:192,1,35
256,192,266134,2,0,L|208:192,1,35
208,192,266305,2,0,L|144:192,1,35
144,192,266476,2,0,L|96:192,1,35
96,192,266647,2,0,L|48:192,1,35
192,192,266818,1,0,0:0:0:0:
304,192,266904,1,0,0:0:0:0:
45,192,266989,6,0,L|109:192,1,35
112,192,267160,2,0,L|176:192,1,35
176,192,267331,2,0,L|240:192,1,35
256,192,267502,2,0,L|304:192,1,35
304,192,267673,2,0,L|368:192,1,35
368,192,267844,2,0,L|416:192,1,35
416,192,268015,2,0,L|464:192,1,35
320,192,268186,1,0,0:0:0:0:
208,192,268272,1,0,0:0:0:0:
467,192,268358,6,0,L|403:192,1,35
400,192,268529,2,0,L|336:192,1,35
336,192,268700,2,0,L|272:192,1,35
256,192,268871,2,0,L|208:192,1,35
208,192,269042,2,0,L|144:192,1,35
144,192,269213,2,0,L|96:192,1,35
96,192,269384,2,0,L|48:192,1,35
192,192,269555,1,0,0:0:0:0:
304,192,269641,1,0,0:0:0:0:
464,192,269726,6,0,L|432:144,1,35
352,192,269897,2,0,L|320:144,1,35
64,192,270068,2,0,L|96:144,1,35
176,192,270239,2,0,L|208:144,1,35
464,192,270410,6,0,L|432:144,1,35
352,192,270581,2,0,L|320:144,1,35
64,192,270752,2,0,L|96:144,1,35
176,192,270923,2,0,L|208:144,1,35
467,192,271094,6,0,L|403:192,1,35
400,192,271265,2,0,L|336:192,1,35
336,192,271436,2,0,L|272:192,1,35
256,192,271607,2,0,L|208:192,1,35
208,192,271778,2,0,L|144:192,1,35
144,192,271949,2,0,L|96:192,1,35
96,192,272120,2,0,L|48:192,1,35
192,192,272291,1,0,0:0:0:0:
304,192,272377,1,0,0:0:0:0:
45,192,272462,6,0,L|109:192,1,35
112,192,272633,2,0,L|176:192,1,35
176,192,272804,2,0,L|240:192,1,35
256,192,272975,2,0,L|304:192,1,35
304,192,273146,2,0,L|368:192,1,35
368,192,273317,2,0,L|416:192,1,35
416,192,273488,2,0,L|464:192,1,35
320,192,273659,1,0,0:0:0:0:
208,192,273745,1,0,0:0:0:0:
467,192,273831,6,0,L|403:192,1,35
400,192,274002,2,0,L|336:192,1,35
336,192,274173,2,0,L|272:192,1,35
256,192,274344,2,0,L|208:192,1,35
208,192,274515,2,0,L|144:192,1,35
144,192,274686,2,0,L|96:192,1,35
96,192,274857,2,0,L|48:192,1,35
192,192,275028,1,0,0:0:0:0:
304,192,275114,1,0,0:0:0:0:
464,192,275199,6,0,L|432:144,1,35
352,192,275370,2,0,L|320:144,1,35
64,192,275541,2,0,L|96:144,1,35
176,192,275712,2,0,L|208:144,1,35
464,192,275883,6,0,L|432:144,1,35
352,192,276054,2,0,L|320:144,1,35
64,192,276225,2,0,L|96:144,1,35
176,192,276396,2,0,L|208:144,1,35
467,192,276567,6,0,L|403:192,1,35
400,192,276738,2,0,L|336:192,1,35
336,192,276909,2,0,L|272:192,1,35
256,192,277080,2,0,L|208:192,1,35
208,192,277251,2,0,L|144:192,1,35
144,192,277422,2,0,L|96:192,1,35
96,192,277593,2,0,L|48:192,1,35
192,192,277764,1,0,0:0:0:0:
304,192,277850,1,0,0:0:0:0:
45,192,277935,6,0,L|109:192,1,35
112,192,278106,2,0,L|176:192,1,35
176,192,278277,2,0,L|240:192,1,35
256,192,278448,2,0,L|304:192,1,35
304,192,278619,2,0,L|368:192,1,35
368,192,278790,2,0,L|416:192,1,35
416,192,278961,2,0,L|464:192,1,35
320,192,279132,1,0,0:0:0:0:
208,192,279218,1,0,0:0:0:0:
467,192,279304,6,0,L|403:192,1,35
400,192,279475,2,0,L|336:192,1,35
336,192,279646,2,0,L|272:192,1,35
256,192,279817,2,0,L|208:192,1,35
208,192,279988,2,0,L|144:192,1,35
144,192,280159,2,0,L|96:192,1,35
96,192,280330,2,0,L|48:192,1,35
192,192,280501,1,0,0:0:0:0:
304,192,280587,1,0,0:0:0:0:
48,192,280843,5,0,0:0:0:0:
467,192,281014,6,0,L|403:192,1,35
400,192,281185,2,0,L|336:192,1,35
336,192,281356,2,0,L|272:192,1,35
256,192,281527,2,0,L|208:192,1,35
208,192,281698,2,0,L|144:192,1,35
144,192,281869,2,0,L|96:192,1,35
96,192,282040,2,0,L|48:192,1,35
192,192,282211,1,0,0:0:0:0:
304,192,282297,1,0,0:0:0:0:
45,192,282382,6,0,L|109:192,1,35
112,192,282553,2,0,L|176:192,1,35
176,192,282724,2,0,L|240:192,1,35
256,192,282895,2,0,L|304:192,1,35
304,192,283066,2,0,L|368:192,1,35
368,192,283237,2,0,L|416:192,1,35
416,192,283408,2,0,L|464:192,1,35
320,192,283579,1,0,0:0:0:0:
208,192,283665,1,0,0:0:0:0:
467,192,283751,6,0,L|403:192,1,35
400,192,283922,2,0,L|336:192,1,35
336,192,284093,2,0,L|272:192,1,35
256,192,284264,2,0,L|208:192,1,35
208,192,284435,2,0,L|144:192,1,35
144,192,284606,2,0,L|96:192,1,35
96,192,284777,2,0,L|48:192,1,35
192,192,284948,1,0,0:0:0:0:
304,192,285034,1,0,0:0:0:0:
464,192,285119,6,0,L|432:144,1,35
352,192,285290,2,0,L|320:144,1,35
64,192,285461,2,0,L|96:144,1,35
176,192,285632,2,0,L|208:144,1,35
464,192,285803,6,0,L|432:144,1,35
352,192,285974,2,0,L|320:144,1,35
64,192,286145,2,0,L|96:144,1,35
176,192,286316,2,0,L|208:144,1,35
467,192,286487,6,0,L|403:192,1,35
400,192,286658,2,0,L|336:192,1,35
336,192,286829,2,0,L|272:192,1,35
256,192,287000,2,0,L|208:192,1,35
208,192,287171,2,0,L|144:192,1,35
144,192,287342,2,0,L|96:192,1,35
96,192,287513,2,0,L|48:192,1,35
192,192,287684,1,0,0:0:0:0:
304,192,287770,1,0,0:0:0:0:
45,192,287855,6,0,L|109:192,1,35
112,192,288026,2,0,L|176:192,1,35
176,192,288197,2,0,L|240:192,1,35
256,192,288368,2,0,L|304:192,1,35
304,192,288539,2,0,L|368:192,1,35
368,192,288710,2,0,L|416:192,1,35
416,192,288881,2,0,L|464:192,1,35
320,192,289052,1,0,0:0:0:0:
208,192,289138,1,0,0:0:0:0:
467,192,289224,6,0,L|403:192,1,35
400,192,289395,2,0,L|336:192,1,35
336,192,289566,2,0,L|272:192,1,35
256,192,289737,2,0,L|208:192,1,35
208,192,289908,2,0,L|144:192,1,35
144,192,290079,2,0,L|96:192,1,35
96,192,290250,2,0,L|48:192,1,35
192,192,290421,1,0,0:0:0:0:
304,192,290507,1,0,0:0:0:0:
464,192,290592,6,0,L|432:144,1,35
352,192,290763,2,0,L|320:144,1,35
64,192,290934,2,0,L|96:144,1,35
176,192,291105,2,0,L|208:144,1,35
464,192,291276,6,0,L|432:144,1,35
352,192,291447,2,0,L|320:144,1,35
64,192,291618,2,0,L|96:144,1,35
176,192,291789,2,0,L|208:144,1,35
128,192,297434,6,0,L|80:96,1,70
400,192,297776,2,0,L|448:128,1,70
176,192,298118,2,0,L|112:112,1,70
448,192,298460,2,0,L|496:128,1,70
80,192,298802,2,0,L|144:128,1,70
400,192,299144,2,0,L|352:128,1,70
64,192,299486,2,0,L|112:192,1,35
304,192,299657,2,0,L|240:192,1,35
64,192,299828,2,0,L|128:112,1,70
256,192,300170,6,0,L|208:128,1,70
480,192,300512,2,0,L|416:112,1,70
112,192,300854,2,0,L|160:128,1,70
416,192,301196,2,0,L|464:112,1,70
160,192,301538,2,0,L|112:128,1,70
432,192,301880,2,0,L|384:128,1,70
80,192,302223,2,0,L|144:192,1,35
304,192,302394,2,0,L|256:192,1,35
32,192,302565,2,0,B|64:144|64:144|96:144,1,70
384,192,302907,6,0,L|432:96,1,70
112,192,303249,2,0,L|64:128,1,70
336,192,303591,2,0,L|400:112,1,70
64,192,303933,2,0,L|16:128,1,70
432,192,304275,2,0,L|368:128,1,70
112,192,304617,2,0,L|160:128,1,70
448,192,304959,2,0,L|400:192,1,35
208,192,305130,2,0,L|272:192,1,35
448,192,305301,2,0,L|384:112,1,70
256,192,305643,6,0,L|304:128,1,70
32,192,305985,2,0,L|96:112,1,70
400,192,306327,2,0,L|352:128,1,70
96,192,306669,2,0,L|48:112,1,70
352,192,307011,2,0,L|400:128,1,70
80,192,307353,2,0,L|128:128,1,70
432,192,307696,2,0,L|368:192,1,35
208,192,307867,2,0,L|256:192,1,35
480,192,308038,2,0,B|448:144|448:144|416:144,1,70
384,192,308380,6,0,L|432:96,1,70
112,192,308722,2,0,L|64:128,1,70
336,192,309064,2,0,L|400:112,1,70
64,192,309406,2,0,L|16:128,1,70
432,192,309748,2,0,L|368:128,1,70
112,192,310090,2,0,L|160:128,1,70
448,192,310432,2,0,L|400:192,1,35
208,192,310603,2,0,L|272:192,1,35
448,192,310774,2,0,L|384:112,1,70
256,192,311116,6,0,L|304:128,1,70
32,192,311458,2,0,L|96:112,1,70
400,192,311800,2,0,L|352:128,1,70
96,192,312142,2,0,L|48:112,1,70
352,192,312484,2,0,L|400:128,1,70
80,192,312826,2,0,L|128:128,1,70
432,192,313169,2,0,L|368:192,1,35
208,192,313340,2,0,L|256:192,1,35
480,192,313511,2,0,B|448:144|448:144|416:144,1,70
128,192,313853,6,0,L|80:96,1,70
400,192,314195,2,0,L|448:128,1,70
176,192,314537,2,0,L|112:112,1,70
448,192,314879,2,0,L|496:128,1,70
80,192,315221,2,0,L|144:128,1,70
400,192,315563,2,0,L|352:128,1,70
64,192,315905,2,0,L|112:192,1,35
304,192,316076,2,0,L|240:192,1,35
64,192,316247,2,0,L|128:112,1,70
256,192,316589,6,0,L|208:128,1,70
480,192,316931,2,0,L|416:112,1,70
112,192,317273,2,0,L|160:128,1,70
416,192,317615,2,0,L|464:112,1,70
160,192,317957,2,0,L|112:128,1,70
432,192,318299,2,0,L|384:128,1,70
80,192,318642,2,0,L|144:192,1,35
304,192,318813,2,0,L|256:192,1,35
32,192,318984,2,0,B|64:144|64:144|96:144,1,70
467,192,319326,6,0,L|403:192,1,35
400,192,319497,2,0,L|336:192,1,35
336,192,319668,2,0,L|272:192,1,35
256,192,319839,2,0,L|208:192,1,35
208,192,320010,2,0,L|144:192,1,35
144,192,320181,2,0,L|96:192,1,35
96,192,320352,2,0,L|48:192,1,35
192,192,320523,1,0,0:0:0:0:
304,192,320609,1,0,0:0:0:0:
45,192,320694,6,0,L|109:192,1,35
112,192,320865,2,0,L|176:192,1,35
176,192,321036,2,0,L|240:192,1,35
256,192,321207,2,0,L|304:192,1,35
304,192,321378,2,0,L|368:192,1,35
368,192,321549,2,0,L|416:192,1,35
416,192,321720,2,0,L|464:192,1,35
320,192,321891,1,0,0:0:0:0:
208,192,321977,1,0,0:0:0:0:
467,192,322063,6,0,L|403:192,1,35
400,192,322234,2,0,L|336:192,1,35
336,192,322405,2,0,L|272:192,1,35
256,192,322576,2,0,L|208:192,1,35
208,192,322747,2,0,L|144:192,1,35
144,192,322918,2,0,L|96:192,1,35
96,192,323089,2,0,L|48:192,1,35
192,192,323260,1,0,0:0:0:0:
304,192,323346,1,0,0:0:0:0:
464,192,323431,6,0,L|432:144,1,35
352,192,323602,2,0,L|320:144,1,35
64,192,323773,2,0,L|96:144,1,35
176,192,323944,2,0,L|208:144,1,35
464,192,324115,6,0,L|432:144,1,35
352,192,324286,2,0,L|320:144,1,35
64,192,324457,2,0,L|96:144,1,35
176,192,324628,2,0,L|208:144,1,35
467,192,324799,6,0,L|403:192,1,35
400,192,324970,2,0,L|336:192,1,35
336,192,325141,2,0,L|272:192,1,35
256,192,325312,2,0,L|208:192,1,35
208,192,325483,2,0,L|144:192,1,35
144,192,325654,2,0,L|96:192,1,35
96,192,325825,2,0,L|48:192,1,35
192,192,325996,1,0,0:0:0:0:
304,192,326082,1,0,0:0:0:0:
45,192,326167,6,0,L|109:192,1,35
112,192,326338,2,0,L|176:192,1,35
176,192,326509,2,0,L|240:192,1,35
256,192,326680,2,0,L|304:192,1,35
304,192,326851,2,0,L|368:192,1,35
368,192,327022,2,0,L|416:192,1,35
416,192,327193,2,0,L|464:192,1,35
320,192,327364,1,0,0:0:0:0:
208,192,327450,1,0,0:0:0:0:
467,192,327536,6,0,L|403:192,1,35
400,192,327707,2,0,L|336:192,1,35
336,192,327878,2,0,L|272:192,1,35
256,192,328049,2,0,L|208:192,1,35
208,192,328220,2,0,L|144:192,1,35
144,192,328391,2,0,L|96:192,1,35
96,192,328562,2,0,L|48:192,1,35
192,192,328733,1,0,0:0:0:0:
304,192,328819,1,0,0:0:0:0:
464,192,328904,6,0,L|432:144,1,35
352,192,329075,2,0,L|320:144,1,35
64,192,329246,2,0,L|96:144,1,35
176,192,329417,2,0,L|208:144,1,35
464,192,329588,6,0,L|432:144,1,35
352,192,329759,2,0,L|320:144,1,35
64,192,329930,2,0,L|96:144,1,35
176,192,330101,2,0,L|208:144,1,35
467,192,330273,6,0,L|403:192,1,35
400,192,330444,2,0,L|336:192,1,35
336,192,330615,2,0,L|272:192,1,35
256,192,330786,2,0,L|208:192,1,35
208,192,330957,2,0,L|144:192,1,35
144,192,331128,2,0,L|96:192,1,35
96,192,331299,2,0,L|48:192,1,35
192,192,331470,1,0,0:0:0:0:
304,192,331556,1,0,0:0:0:0:
45,192,331641,6,0,L|109:192,1,35
112,192,331812,2,0,L|176:192,1,35
176,192,331983,2,0,L|240:192,1,35
256,192,332154,2,0,L|304:192,1,35
304,192,332325,2,0,L|368:192,1,35
368,192,332496,2,0,L|416:192,1,35
416,192,332667,2,0,L|464:192,1,35
320,192,332838,1,0,0:0:0:0:
208,192,332924,1,0,0:0:0:0:
467,192,333010,6,0,L|403:192,1,35
400,192,333181,2,0,L|336:192,1,35
336,192,333352,2,0,L|272:192,1,35
256,192,333523,2,0,L|208:192,1,35
208,192,333694,2,0,L|144:192,1,35
144,192,333865,2,0,L|96:192,1,35
96,192,334036,2,0,L|48:192,1,35
192,192,334207,1,0,0:0:0:0:
304,192,334293,1,0,0:0:0:0:
464,192,334378,6,0,L|432:144,1,35
352,192,334549,2,0,L|320:144,1,35
64,192,334720,2,0,L|96:144,1,35
176,192,334891,2,0,L|208:144,1,35
464,192,335062,6,0,L|432:144,1,35
352,192,335233,2,0,L|320:144,1,35
64,192,335404,2,0,L|96:144,1,35
176,192,335575,2,0,L|208:144,1,35
467,192,335746,6,0,L|403:192,1,35
400,192,335917,2,0,L|336:192,1,35
336,192,336088,2,0,L|272:192,1,35
256,192,336259,2,0,L|208:192,1,35
208,192,336430,2,0,L|144:192,1,35
144,192,336601,2,0,L|96:192,1,35
96,192,336772,2,0,L|48:192,1,35
192,192,336943,1,0,0:0:0:0:
304,192,337029,1,0,0:0:0:0:
45,192,337114,6,0,L|109:192,1,35
112,192,337285,2,0,L|176:192,1,35
176,192,337456,2,0,L|240:192,1,35
256,192,337627,2,0,L|304:192,1,35
304,192,337798,2,0,L|368:192,1,35
368,192,337969,2,0,L|416:192,1,35
416,192,338140,2,0,L|464:192,1,35
320,192,338311,1,0,0:0:0:0:
208,192,338397,1,0,0:0:0:0:
467,192,338483,6,0,L|403:192,1,35
400,192,338654,2,0,L|336:192,1,35
336,192,338825,2,0,L|272:192,1,35
256,192,338996,2,0,L|208:192,1,35
208,192,339167,2,0,L|144:192,1,35
144,192,339338,2,0,L|96:192,1,35
96,192,339509,2,0,L|48:192,1,35
192,192,339680,1,0,0:0:0:0:
304,192,339766,1,0,0:0:0:0:
464,192,339851,6,0,L|432:144,1,35
352,192,340022,2,0,L|320:144,1,35
64,192,340193,2,0,L|96:144,1,35
176,192,340364,2,0,L|208:144,1,35
464,192,340535,6,0,L|432:144,1,35
352,192,340706,2,0,L|320:144,1,35
64,192,340877,2,0,L|96:144,1,35
176,192,341048,2,0,L|208:144,1,35
