osu file format v14

[General]
AudioFilename: audio.mp3
AudioLeadIn: 0
PreviewTime: -1
Countdown: 1
SampleSet: Normal
StackLeniency: 0.7
Mode: 2
LetterboxInBreaks: 0
WidescreenStoryboard: 1

[Editor]
DistanceSpacing: 1
BeatDivisor: 2
GridSize: 16
TimelineZoom: 1

[Metadata]
Title:Lisa Frank 420 / Modern Computing
TitleUnicode:リサフランク420 / 現代のコンピュー
Artist:MACINTOSH PLUS
ArtistUnicode:MACINTOSH PLUS
Creator:Stats-Kun
Version:Vaporwave Advanced
Source:NMSNL {Vaporwave Category)
Tags:NMSNL, Vaporwave, MACINTOSH PLUS, Lisa Frank, 420, The Modern Computer
BeatmapID:1244886
BeatmapSetID:586339

[Difficulty]
HPDrainRate:5
CircleSize:3.5
OverallDifficulty:5
ApproachRate:5.5
SliderMultiplier:1.4
SliderTickRate:1

[Events]
//Background and Video events
//Break Periods
2,344775,350108
//Storyboard Layer 0 (Background)
//Storyboard Layer 1 (Fail)
//Storyboard Layer 2 (Pass)
//Storyboard Layer 3 (Foreground)
//Storyboard Sound Samples

[TimingPoints]
171,684.150513112885,4,1,0,100,1,0
216362,-50,4,1,0,100,0,1
232782,-100,4,1,0,100,0,0
341220,444.444444444444,4,1,0,100,1,0
352997,1023.89078498294,4,1,0,100,1,0

[HitObjects]
256,192,171,5,0,0:0:0:0:
160,192,1197,1,0,0:0:0:0:
352,192,1539,1,0,0:0:0:0:
320,192,2907,5,0,0:0:0:0:
128,192,3249,1,0,0:0:0:0:
224,192,3591,1,0,0:0:0:0:
32,192,3933,1,0,0:0:0:0:
224,192,4960,5,0,0:0:0:0:
384,192,5302,1,0,0:0:0:0:
352,192,7696,5,0,0:0:0:0:
144,192,8038,1,0,0:0:0:0:
96,192,10433,5,0,0:0:0:0:
256,192,10775,1,0,0:0:0:0:
416,192,11117,1,0,0:0:0:0:
32,192,11801,1,0,0:0:0:0:
192,192,12143,1,0,0:0:0:0:
352,192,12485,1,0,0:0:0:0:
256,192,13169,5,0,0:0:0:0:
352,192,13511,1,0,0:0:0:0:
448,192,13854,1,0,0:0:0:0:
256,192,14196,1,0,0:0:0:0:
160,192,14538,1,0,0:0:0:0:
64,192,14880,1,0,0:0:0:0:
144,192,16248,5,0,0:0:0:0:
384,192,16590,1,0,0:0:0:0:
256,192,17616,5,0,0:0:0:0:
112,192,17958,1,0,0:0:0:0:
368,192,18985,1,0,0:0:0:0:
64,192,19327,1,0,0:0:0:0:
144,192,19669,1,0,0:0:0:0:
224,192,20011,1,0,0:0:0:0:
304,192,20353,1,0,0:0:0:0:
384,192,20695,2,0,L|400:112,1,70
304,192,21721,5,0,0:0:0:0:
384,192,22063,2,0,L|416:112,1,70
304,192,22747,2,0,L|336:112,1,70
224,192,23432,2,0,L|256:112,1,70
416,192,24116,1,0,0:0:0:0:
304,192,24458,1,0,0:0:0:0:
64,192,24800,5,0,0:0:0:0:
256,192,25142,1,0,0:0:0:0:
160,192,25484,1,0,0:0:0:0:
352,192,25826,1,0,0:0:0:0:
448,192,26168,1,0,0:0:0:0:
336,192,26510,2,0,L|288:128,1,70
112,192,27194,1,0,0:0:0:0:
320,192,27537,1,0,0:0:0:0:
224,192,27879,5,0,0:0:0:0:
416,192,28221,1,0,0:0:0:0:
288,192,28563,2,0,L|224:112,1,70
32,192,29247,1,0,0:0:0:0:
160,192,29589,2,0,L|96:96,1,70
272,192,30273,1,0,0:0:0:0:
416,192,30615,1,0,0:0:0:0:
336,192,30957,1,0,0:0:0:0:
480,192,31299,1,0,0:0:0:0:
288,192,31641,2,0,L|224:96,1,70
160,192,32326,1,0,0:0:0:0:
384,192,32668,1,0,0:0:0:0:
80,192,33010,6,0,L|32:112,1,70
208,192,33694,1,0,0:0:0:0:
336,192,34036,1,0,0:0:0:0:
176,192,34378,2,0,L|224:128,1,70
336,192,35062,1,0,0:0:0:0:
192,192,35404,1,0,0:0:0:0:
32,192,35746,1,0,0:0:0:0:
160,192,36088,2,0,L|208:128,1,70
304,192,36773,5,0,0:0:0:0:
448,192,37115,1,0,0:0:0:0:
320,192,37457,1,0,0:0:0:0:
208,192,37799,2,0,L|144:112,1,70
80,192,38483,1,0,0:0:0:0:
240,192,38825,1,0,0:0:0:0:
400,192,39167,2,0,L|448:128,1,70
272,192,39851,1,0,0:0:0:0:
144,192,40193,1,0,0:0:0:0:
304,192,40535,2,0,L|352:128,1,70
448,192,41220,1,0,0:0:0:0:
288,192,41562,6,0,L|336:128,1,70
416,192,42246,1,0,0:0:0:0:
304,192,42588,2,0,L|256:128,1,70
176,192,43272,2,0,L|128:128,1,70
208,192,43956,5,0,0:0:0:0:
128,192,44298,2,0,L|96:112,1,70
208,192,44982,2,0,L|176:112,1,70
288,192,45667,2,0,L|256:112,1,70
96,192,46351,1,0,0:0:0:0:
208,192,46693,1,0,0:0:0:0:
448,192,47035,5,0,0:0:0:0:
256,192,47377,1,0,0:0:0:0:
352,192,47719,1,0,0:0:0:0:
160,192,48061,1,0,0:0:0:0:
64,192,48403,1,0,0:0:0:0:
176,192,48745,2,0,L|224:128,1,70
400,192,49429,1,0,0:0:0:0:
192,192,49772,1,0,0:0:0:0:
288,192,50114,5,0,0:0:0:0:
96,192,50456,1,0,0:0:0:0:
224,192,50798,2,0,L|288:112,1,70
480,192,51482,1,0,0:0:0:0:
352,192,51824,2,0,L|416:96,1,70
240,192,52508,1,0,0:0:0:0:
96,192,52850,1,0,0:0:0:0:
176,192,53192,1,0,0:0:0:0:
32,192,53534,1,0,0:0:0:0:
224,192,53876,2,0,L|288:96,1,70
352,192,54561,1,0,0:0:0:0:
128,192,54903,1,0,0:0:0:0:
432,192,55245,6,0,L|480:112,1,70
304,192,55929,1,0,0:0:0:0:
176,192,56271,1,0,0:0:0:0:
336,192,56613,2,0,L|288:128,1,70
176,192,57297,1,0,0:0:0:0:
320,192,57639,1,0,0:0:0:0:
480,192,57981,1,0,0:0:0:0:
352,192,58323,2,0,L|304:128,1,70
208,192,59008,5,0,0:0:0:0:
64,192,59350,1,0,0:0:0:0:
192,192,59692,1,0,0:0:0:0:
304,192,60034,2,0,L|368:112,1,70
432,192,60718,1,0,0:0:0:0:
272,192,61060,1,0,0:0:0:0:
112,192,61402,2,0,L|64:128,1,70
240,192,62086,1,0,0:0:0:0:
368,192,62428,1,0,0:0:0:0:
208,192,62770,2,0,L|160:128,1,70
64,192,63455,1,0,0:0:0:0:
224,192,63797,6,0,L|176:128,1,70
96,192,64481,1,0,0:0:0:0:
208,192,64823,2,0,L|256:128,1,70
304,192,65507,5,0,0:0:0:0:
384,192,65849,2,0,L|416:112,1,70
304,192,66533,2,0,L|336:112,1,70
224,192,67218,2,0,L|256:112,1,70
416,192,67902,1,0,0:0:0:0:
304,192,68244,1,0,0:0:0:0:
64,192,68586,5,0,0:0:0:0:
256,192,68928,1,0,0:0:0:0:
160,192,69270,1,0,0:0:0:0:
352,192,69612,1,0,0:0:0:0:
448,192,69954,1,0,0:0:0:0:
336,192,70296,2,0,L|288:128,1,70
112,192,70980,1,0,0:0:0:0:
320,192,71323,1,0,0:0:0:0:
224,192,71665,5,0,0:0:0:0:
416,192,72007,1,0,0:0:0:0:
288,192,72349,2,0,L|224:112,1,70
32,192,73033,1,0,0:0:0:0:
160,192,73375,2,0,L|96:96,1,70
272,192,74059,1,0,0:0:0:0:
416,192,74401,1,0,0:0:0:0:
336,192,74743,1,0,0:0:0:0:
480,192,75085,1,0,0:0:0:0:
288,192,75427,2,0,L|224:96,1,70
160,192,76112,1,0,0:0:0:0:
384,192,76454,1,0,0:0:0:0:
80,192,76796,6,0,L|32:112,1,70
208,192,77480,1,0,0:0:0:0:
336,192,77822,1,0,0:0:0:0:
176,192,78164,2,0,L|224:128,1,70
336,192,78848,1,0,0:0:0:0:
192,192,79190,1,0,0:0:0:0:
32,192,79532,1,0,0:0:0:0:
160,192,79874,2,0,L|208:128,1,70
304,192,80559,5,0,0:0:0:0:
448,192,80901,1,0,0:0:0:0:
320,192,81243,1,0,0:0:0:0:
208,192,81585,2,0,L|144:112,1,70
80,192,82269,1,0,0:0:0:0:
240,192,82611,1,0,0:0:0:0:
400,192,82953,2,0,L|448:128,1,70
272,192,83637,1,0,0:0:0:0:
144,192,83979,1,0,0:0:0:0:
304,192,84321,2,0,L|352:128,1,70
448,192,85006,1,0,0:0:0:0:
288,192,85348,6,0,L|336:128,1,70
416,192,86032,1,0,0:0:0:0:
304,192,86374,2,0,L|256:128,1,70
176,192,87058,2,0,L|128:128,1,70
208,192,87742,5,0,0:0:0:0:
128,192,88084,2,0,L|96:112,1,70
208,192,88768,2,0,L|176:112,1,70
288,192,89453,2,0,L|256:112,1,70
96,192,90137,1,0,0:0:0:0:
208,192,90479,1,0,0:0:0:0:
448,192,90821,5,0,0:0:0:0:
256,192,91163,1,0,0:0:0:0:
352,192,91505,1,0,0:0:0:0:
160,192,91847,1,0,0:0:0:0:
64,192,92189,1,0,0:0:0:0:
176,192,92531,2,0,L|224:128,1,70
400,192,93215,1,0,0:0:0:0:
192,192,93558,1,0,0:0:0:0:
288,192,93900,5,0,0:0:0:0:
96,192,94242,1,0,0:0:0:0:
224,192,94584,2,0,L|288:112,1,70
480,192,95268,1,0,0:0:0:0:
352,192,95610,2,0,L|416:96,1,70
240,192,96294,1,0,0:0:0:0:
96,192,96636,1,0,0:0:0:0:
176,192,96978,1,0,0:0:0:0:
32,192,97320,1,0,0:0:0:0:
224,192,97662,2,0,L|288:96,1,70
352,192,98347,1,0,0:0:0:0:
128,192,98689,1,0,0:0:0:0:
432,192,99031,6,0,L|480:112,1,70
304,192,99715,1,0,0:0:0:0:
176,192,100057,1,0,0:0:0:0:
336,192,100399,2,0,L|288:128,1,70
176,192,101083,1,0,0:0:0:0:
320,192,101425,1,0,0:0:0:0:
480,192,101767,1,0,0:0:0:0:
352,192,102109,2,0,L|304:128,1,70
208,192,102794,5,0,0:0:0:0:
64,192,103136,1,0,0:0:0:0:
192,192,103478,1,0,0:0:0:0:
304,192,103820,2,0,L|368:112,1,70
432,192,104504,1,0,0:0:0:0:
272,192,104846,1,0,0:0:0:0:
112,192,105188,2,0,L|64:128,1,70
240,192,105872,1,0,0:0:0:0:
368,192,106214,1,0,0:0:0:0:
208,192,106556,2,0,L|160:128,1,70
64,192,107241,1,0,0:0:0:0:
224,192,107583,6,0,L|176:128,1,70
96,192,108267,1,0,0:0:0:0:
208,192,108609,2,0,L|256:128,1,70
256,192,109293,1,0,0:0:0:0:
304,192,109635,5,0,0:0:0:0:
384,192,109977,2,0,L|416:112,1,70
304,192,110661,2,0,L|336:112,1,70
224,192,111346,2,0,L|256:112,1,70
416,192,112030,1,0,0:0:0:0:
304,192,112372,1,0,0:0:0:0:
64,192,112714,5,0,0:0:0:0:
256,192,113056,1,0,0:0:0:0:
160,192,113398,1,0,0:0:0:0:
352,192,113740,1,0,0:0:0:0:
448,192,114082,1,0,0:0:0:0:
336,192,114424,2,0,L|288:128,1,70
112,192,115108,1,0,0:0:0:0:
320,192,115451,1,0,0:0:0:0:
224,192,115793,5,0,0:0:0:0:
416,192,116135,1,0,0:0:0:0:
288,192,116477,2,0,L|224:112,1,70
32,192,117161,1,0,0:0:0:0:
160,192,117503,2,0,L|96:96,1,70
272,192,118187,1,0,0:0:0:0:
416,192,118529,1,0,0:0:0:0:
336,192,118871,1,0,0:0:0:0:
480,192,119213,1,0,0:0:0:0:
288,192,119555,2,0,L|224:96,1,70
160,192,120240,1,0,0:0:0:0:
384,192,120582,1,0,0:0:0:0:
80,192,120924,6,0,L|32:112,1,70
208,192,121608,1,0,0:0:0:0:
336,192,121950,1,0,0:0:0:0:
176,192,122292,2,0,L|224:128,1,70
336,192,122976,1,0,0:0:0:0:
192,192,123318,1,0,0:0:0:0:
32,192,123660,1,0,0:0:0:0:
160,192,124002,2,0,L|208:128,1,70
304,192,124687,5,0,0:0:0:0:
448,192,125029,1,0,0:0:0:0:
320,192,125371,1,0,0:0:0:0:
208,192,125713,2,0,L|144:112,1,70
80,192,126397,1,0,0:0:0:0:
240,192,126739,1,0,0:0:0:0:
400,192,127081,2,0,L|448:128,1,70
272,192,127765,1,0,0:0:0:0:
144,192,128107,1,0,0:0:0:0:
304,192,128449,2,0,L|352:128,1,70
448,192,129134,1,0,0:0:0:0:
288,192,129476,6,0,L|336:128,1,70
416,192,130160,1,0,0:0:0:0:
304,192,130502,2,0,L|256:128,1,70
176,192,131186,2,0,L|128:128,1,70
208,192,131870,5,0,0:0:0:0:
128,192,132212,2,0,L|96:112,1,70
208,192,132896,2,0,L|176:112,1,70
288,192,133581,2,0,L|256:112,1,70
96,192,134265,1,0,0:0:0:0:
208,192,134607,1,0,0:0:0:0:
448,192,134949,5,0,0:0:0:0:
256,192,135291,1,0,0:0:0:0:
352,192,135633,1,0,0:0:0:0:
160,192,135975,1,0,0:0:0:0:
64,192,136317,1,0,0:0:0:0:
176,192,136659,2,0,L|224:128,1,70
400,192,137343,1,0,0:0:0:0:
192,192,137686,1,0,0:0:0:0:
288,192,138028,5,0,0:0:0:0:
96,192,138370,1,0,0:0:0:0:
224,192,138712,2,0,L|288:112,1,70
480,192,139396,1,0,0:0:0:0:
352,192,139738,2,0,L|416:96,1,70
240,192,140422,1,0,0:0:0:0:
96,192,140764,1,0,0:0:0:0:
176,192,141106,1,0,0:0:0:0:
32,192,141448,1,0,0:0:0:0:
224,192,141790,2,0,L|288:96,1,70
352,192,142475,1,0,0:0:0:0:
128,192,142817,1,0,0:0:0:0:
432,192,143159,6,0,L|480:112,1,70
304,192,143843,1,0,0:0:0:0:
176,192,144185,1,0,0:0:0:0:
336,192,144527,2,0,L|288:128,1,70
176,192,145211,1,0,0:0:0:0:
320,192,145553,1,0,0:0:0:0:
480,192,145895,1,0,0:0:0:0:
352,192,146237,2,0,L|304:128,1,70
208,192,146922,5,0,0:0:0:0:
64,192,147264,1,0,0:0:0:0:
192,192,147606,1,0,0:0:0:0:
304,192,147948,2,0,L|368:112,1,70
432,192,148632,1,0,0:0:0:0:
272,192,148974,1,0,0:0:0:0:
112,192,149316,2,0,L|64:128,1,70
240,192,150000,1,0,0:0:0:0:
368,192,150342,1,0,0:0:0:0:
208,192,150684,2,0,L|160:128,1,70
64,192,151369,1,0,0:0:0:0:
224,192,151711,6,0,L|176:128,1,70
96,192,152395,1,0,0:0:0:0:
208,192,152737,2,0,L|256:128,1,70
304,192,153421,5,0,0:0:0:0:
384,192,153763,2,0,L|416:112,1,70
304,192,154447,2,0,L|336:112,1,70
224,192,155132,2,0,L|256:112,1,70
416,192,155816,1,0,0:0:0:0:
304,192,156158,1,0,0:0:0:0:
64,192,156500,5,0,0:0:0:0:
256,192,156842,1,0,0:0:0:0:
160,192,157184,1,0,0:0:0:0:
352,192,157526,1,0,0:0:0:0:
448,192,157868,1,0,0:0:0:0:
336,192,158210,2,0,L|288:128,1,70
112,192,158894,1,0,0:0:0:0:
320,192,159237,1,0,0:0:0:0:
224,192,159579,5,0,0:0:0:0:
416,192,159921,1,0,0:0:0:0:
288,192,160263,2,0,L|224:112,1,70
32,192,160947,1,0,0:0:0:0:
160,192,161289,2,0,L|96:96,1,70
272,192,161973,1,0,0:0:0:0:
416,192,162315,1,0,0:0:0:0:
336,192,162657,1,0,0:0:0:0:
480,192,162999,1,0,0:0:0:0:
288,192,163341,2,0,L|224:96,1,70
160,192,164026,1,0,0:0:0:0:
384,192,164368,1,0,0:0:0:0:
80,192,164710,6,0,L|32:112,1,70
208,192,165394,1,0,0:0:0:0:
336,192,165736,1,0,0:0:0:0:
176,192,166078,2,0,L|224:128,1,70
336,192,166762,1,0,0:0:0:0:
192,192,167104,1,0,0:0:0:0:
32,192,167446,1,0,0:0:0:0:
160,192,167788,2,0,L|208:128,1,70
304,192,168473,5,0,0:0:0:0:
448,192,168815,1,0,0:0:0:0:
320,192,169157,1,0,0:0:0:0:
208,192,169499,2,0,L|144:112,1,70
80,192,170183,1,0,0:0:0:0:
240,192,170525,1,0,0:0:0:0:
400,192,170867,2,0,L|448:128,1,70
272,192,171551,1,0,0:0:0:0:
144,192,171893,1,0,0:0:0:0:
304,192,172235,2,0,L|352:128,1,70
448,192,172920,1,0,0:0:0:0:
288,192,173262,6,0,L|336:128,1,70
416,192,173946,1,0,0:0:0:0:
304,192,174288,2,0,L|256:128,1,70
176,192,174972,2,0,L|128:128,1,70
208,192,175656,5,0,0:0:0:0:
128,192,175998,2,0,L|96:112,1,70
208,192,176682,2,0,L|176:112,1,70
288,192,177367,2,0,L|256:112,1,70
96,192,178051,1,0,0:0:0:0:
208,192,178393,1,0,0:0:0:0:
448,192,178735,5,0,0:0:0:0:
256,192,179077,1,0,0:0:0:0:
352,192,179419,1,0,0:0:0:0:
160,192,179761,1,0,0:0:0:0:
64,192,180103,1,0,0:0:0:0:
176,192,180445,2,0,L|224:128,1,70
400,192,181129,1,0,0:0:0:0:
192,192,181472,1,0,0:0:0:0:
288,192,181814,5,0,0:0:0:0:
96,192,182156,1,0,0:0:0:0:
224,192,182498,2,0,L|288:112,1,70
480,192,183182,1,0,0:0:0:0:
352,192,183524,2,0,L|416:96,1,70
240,192,184208,1,0,0:0:0:0:
96,192,184550,1,0,0:0:0:0:
176,192,184892,1,0,0:0:0:0:
32,192,185234,1,0,0:0:0:0:
224,192,185576,2,0,L|288:96,1,70
352,192,186261,1,0,0:0:0:0:
128,192,186603,1,0,0:0:0:0:
432,192,186945,6,0,L|480:112,1,70
304,192,187629,1,0,0:0:0:0:
176,192,187971,1,0,0:0:0:0:
336,192,188313,2,0,L|288:128,1,70
176,192,188997,5,0,0:0:0:0:
336,192,189338,1,0,0:0:0:0:
480,192,189680,1,0,0:0:0:0:
336,192,190022,1,0,0:0:0:0:
224,192,190364,2,0,L|176:128,1,70
32,192,191048,2,0,L|96:128,1,70
240,192,191733,1,0,0:0:0:0:
368,192,192075,1,0,0:0:0:0:
480,192,192417,1,0,0:0:0:0:
368,192,192759,1,0,0:0:0:0:
256,192,193101,2,0,L|192:112,1,70
448,192,193785,2,0,L|384:112,1,70
336,192,194469,5,0,0:0:0:0:
176,192,194810,1,0,0:0:0:0:
32,192,195152,1,0,0:0:0:0:
176,192,195494,1,0,0:0:0:0:
288,192,195836,2,0,L|336:128,1,70
480,192,196520,2,0,L|416:128,1,70
272,192,197205,1,0,0:0:0:0:
144,192,197547,1,0,0:0:0:0:
32,192,197889,1,0,0:0:0:0:
144,192,198231,1,0,0:0:0:0:
256,192,198573,2,0,L|320:112,1,70
64,192,199257,2,0,L|128:112,1,70
176,192,199942,5,0,0:0:0:0:
336,192,200283,1,0,0:0:0:0:
480,192,200625,1,0,0:0:0:0:
336,192,200967,1,0,0:0:0:0:
224,192,201309,2,0,L|176:128,1,70
32,192,201993,2,0,L|96:128,1,70
240,192,202678,1,0,0:0:0:0:
368,192,203020,1,0,0:0:0:0:
480,192,203362,1,0,0:0:0:0:
368,192,203704,1,0,0:0:0:0:
256,192,204046,2,0,L|192:112,1,70
448,192,204730,2,0,L|384:112,1,70
336,192,205416,5,0,0:0:0:0:
176,192,205757,1,0,0:0:0:0:
32,192,206099,1,0,0:0:0:0:
176,192,206441,1,0,0:0:0:0:
288,192,206783,2,0,L|336:128,1,70
480,192,207467,2,0,L|416:128,1,70
272,192,208152,1,0,0:0:0:0:
144,192,208494,1,0,0:0:0:0:
32,192,208836,1,0,0:0:0:0:
144,192,209178,1,0,0:0:0:0:
256,192,209520,2,0,L|320:112,1,70
64,192,210204,2,0,L|128:112,1,70
176,192,210889,5,0,0:0:0:0:
336,192,211230,1,0,0:0:0:0:
480,192,211572,1,0,0:0:0:0:
336,192,211914,1,0,0:0:0:0:
224,192,212256,2,0,L|176:128,1,70
32,192,212940,2,0,L|96:128,1,70
240,192,213625,1,0,0:0:0:0:
368,192,213967,1,0,0:0:0:0:
480,192,214309,1,0,0:0:0:0:
368,192,214651,1,0,0:0:0:0:
256,192,214993,2,0,L|192:112,1,70
448,192,215677,2,0,L|384:112,1,70
272,192,216362,6,0,L|304:112,1,70
400,192,216704,2,0,L|432:128,1,70
272,192,217046,1,0,0:0:0:0:
64,192,217388,2,0,L|32:128,1,70
272,192,217730,2,0,L|240:128,1,70
96,192,218072,1,0,0:0:0:0:
304,192,218414,1,0,0:0:0:0:
480,192,218757,1,0,0:0:0:0:
80,192,219099,2,0,L|32:128,1,70
256,192,219441,2,0,L|208:128,1,70
112,192,219783,1,0,0:0:0:0:
480,192,220125,2,0,L|448:128,1,70
256,192,220467,2,0,L|224:112,1,70
32,192,220809,2,0,L|64:128,1,70
256,192,221151,1,0,0:0:0:0:
240,192,221835,6,0,L|208:112,1,70
112,192,222177,2,0,L|80:128,1,70
240,192,222519,1,0,0:0:0:0:
448,192,222861,2,0,L|480:128,1,70
240,192,223203,2,0,L|272:128,1,70
416,192,223545,1,0,0:0:0:0:
208,192,223887,1,0,0:0:0:0:
32,192,224230,1,0,0:0:0:0:
432,192,224572,2,0,L|480:128,1,70
256,192,224914,2,0,L|304:128,1,70
400,192,225256,1,0,0:0:0:0:
32,192,225598,2,0,L|64:128,1,70
256,192,225940,2,0,L|288:112,1,70
480,192,226282,2,0,L|448:128,1,70
256,192,226624,1,0,0:0:0:0:
272,192,227308,6,0,L|304:112,1,70
400,192,227650,2,0,L|432:128,1,70
272,192,227992,1,0,0:0:0:0:
64,192,228334,2,0,L|32:128,1,70
272,192,228676,2,0,L|240:128,1,70
96,192,229018,1,0,0:0:0:0:
304,192,229360,1,0,0:0:0:0:
480,192,229703,1,0,0:0:0:0:
80,192,230045,2,0,L|32:128,1,70
256,192,230387,2,0,L|208:128,1,70
112,192,230729,1,0,0:0:0:0:
480,192,231071,2,0,L|448:128,1,70
256,192,231413,2,0,L|224:112,1,70
32,192,231755,6,0,L|64:128,1,70
256,192,232097,1,0,0:0:0:0:
64,192,232782,6,0,L|96:112,1,70
224,192,233466,2,0,L|256:128,1,70
400,192,234150,2,0,B|448:128|448:128|400:80,1,140
96,192,235176,2,0,B|176:144|176:144|80:80|80:80|96:64,1,210
288,192,236545,2,0,L|240:112,1,70
384,192,237229,2,0,L|432:128,1,70
192,192,237913,1,0,0:0:0:0:
336,192,238255,2,0,L|288:112,1,70
160,192,238939,2,0,L|112:128,1,70
320,192,239623,2,0,L|384:128,1,70
192,192,240307,1,0,0:0:0:0:
320,192,240991,6,0,L|352:112,1,70
144,192,241676,2,0,L|208:96,1,70
16,192,242360,2,0,L|64:112,1,70
176,192,243044,1,0,0:0:0:0:
240,192,243386,1,0,0:0:0:0:
304,192,243728,5,0,0:0:0:0:
384,192,244070,2,0,L|416:112,1,70
304,192,244754,2,0,L|336:112,1,70
224,192,245439,2,0,L|256:112,1,70
416,192,246123,1,0,0:0:0:0:
304,192,246465,1,0,0:0:0:0:
64,192,246807,5,0,0:0:0:0:
256,192,247149,1,0,0:0:0:0:
160,192,247491,1,0,0:0:0:0:
352,192,247833,1,0,0:0:0:0:
448,192,248175,1,0,0:0:0:0:
336,192,248517,2,0,L|288:128,1,70
112,192,249201,1,0,0:0:0:0:
320,192,249544,1,0,0:0:0:0:
224,192,249886,5,0,0:0:0:0:
416,192,250228,1,0,0:0:0:0:
288,192,250570,2,0,L|224:112,1,70
32,192,251254,1,0,0:0:0:0:
160,192,251596,2,0,L|96:96,1,70
272,192,252280,1,0,0:0:0:0:
416,192,252622,1,0,0:0:0:0:
336,192,252964,1,0,0:0:0:0:
480,192,253306,1,0,0:0:0:0:
288,192,253648,2,0,L|224:96,1,70
160,192,254333,1,0,0:0:0:0:
384,192,254675,1,0,0:0:0:0:
80,192,255017,6,0,L|32:112,1,70
208,192,255701,1,0,0:0:0:0:
336,192,256043,1,0,0:0:0:0:
176,192,256385,2,0,L|224:128,1,70
336,192,257069,1,0,0:0:0:0:
192,192,257411,1,0,0:0:0:0:
32,192,257753,1,0,0:0:0:0:
160,192,258095,2,0,L|208:128,1,70
304,192,258780,5,0,0:0:0:0:
448,192,259122,1,0,0:0:0:0:
320,192,259464,1,0,0:0:0:0:
208,192,259806,2,0,L|144:112,1,70
80,192,260490,1,0,0:0:0:0:
240,192,260832,1,0,0:0:0:0:
400,192,261174,2,0,L|448:128,1,70
272,192,261858,1,0,0:0:0:0:
144,192,262200,1,0,0:0:0:0:
304,192,262542,2,0,L|352:128,1,70
448,192,263227,1,0,0:0:0:0:
288,192,263569,6,0,L|336:128,1,70
416,192,264253,1,0,0:0:0:0:
304,192,264595,6,0,L|256:128,1,70
176,192,265279,2,0,L|128:128,1,70
352,192,265621,5,0,0:0:0:0:
256,192,265963,1,0,0:0:0:0:
160,192,266305,1,0,0:0:0:0:
128,192,266305,2,0,L|96:112,1,70
160,192,266647,2,0,L|192:128,1,70
208,192,267332,2,0,L|240:128,1,70
256,192,268016,2,0,L|224:128,1,70
160,192,268700,1,0,0:0:0:0:
256,192,269042,1,0,0:0:0:0:
352,192,269384,2,0,B|304:112|304:112|368:64,1,140
384,192,270410,1,0,0:0:0:0:
464,192,270752,1,0,0:0:0:0:
384,192,271094,5,0,0:0:0:0:
320,192,271436,1,0,0:0:0:0:
256,192,271778,1,0,0:0:0:0:
192,192,272121,2,0,L|160:128,1,70
160,192,272805,2,0,L|128:128,1,70
192,192,273489,2,0,L|224:128,1,70
288,192,274173,1,0,0:0:0:0:
384,192,274515,1,0,0:0:0:0:
368,192,274857,2,0,L|320:112,1,70
272,192,275541,1,0,0:0:0:0:
192,192,275883,1,0,0:0:0:0:
272,192,276225,1,0,0:0:0:0:
192,192,276568,5,0,0:0:0:0:
272,192,276910,1,0,0:0:0:0:
352,192,277252,1,0,0:0:0:0:
272,192,277594,2,0,B|224:112|224:112|288:80,1,140
320,192,278620,2,0,L|352:128,1,70
416,192,279304,1,0,0:0:0:0:
480,192,279646,1,0,0:0:0:0:
416,192,279988,1,0,0:0:0:0:
352,192,280330,2,0,B|288:112|288:112|352:112,1,140
352,192,281356,5,0,0:0:0:0:
256,192,281698,1,0,0:0:0:0:
160,192,282040,1,0,0:0:0:0:
160,192,282382,2,0,L|192:128,1,70
208,192,283067,2,0,L|240:128,1,70
256,192,283751,2,0,L|224:128,1,70
160,192,284435,1,0,0:0:0:0:
256,192,284777,1,0,0:0:0:0:
352,192,285119,2,0,B|304:112|304:112|368:64,1,140
384,192,286145,1,0,0:0:0:0:
464,192,286487,1,0,0:0:0:0:
384,192,286829,5,0,0:0:0:0:
320,192,287171,1,0,0:0:0:0:
256,192,287513,1,0,0:0:0:0:
192,192,287856,2,0,L|160:128,1,70
160,192,288540,2,0,L|128:128,1,70
192,192,289224,2,0,L|224:128,1,70
288,192,289908,1,0,0:0:0:0:
384,192,290250,1,0,0:0:0:0:
368,192,290592,2,0,L|320:112,1,70
272,192,291276,1,0,0:0:0:0:
192,192,291618,1,0,0:0:0:0:
272,192,291960,1,0,0:0:0:0:
192,192,292303,5,0,0:0:0:0:
272,192,292645,1,0,0:0:0:0:
352,192,292987,1,0,0:0:0:0:
272,192,293329,2,0,B|224:112|224:112|288:80,1,140
320,192,294355,2,0,L|352:128,1,70
416,192,295039,1,0,0:0:0:0:
480,192,295381,1,0,0:0:0:0:
416,192,295723,1,0,0:0:0:0:
352,192,296065,2,0,B|288:112|288:112|352:112,1,140
256,192,297092,2,0,L|224:128,1,70
352,192,297776,5,0,0:0:0:0:
256,192,298118,1,0,0:0:0:0:
160,192,298460,1,0,0:0:0:0:
160,192,298802,2,0,L|192:128,1,70
208,192,299487,2,0,L|240:128,1,70
256,192,300171,2,0,L|224:128,1,70
160,192,300855,1,0,0:0:0:0:
256,192,301197,1,0,0:0:0:0:
352,192,301539,2,0,B|304:112|304:112|368:64,1,140
384,192,302565,1,0,0:0:0:0:
464,192,302907,1,0,0:0:0:0:
384,192,303249,5,0,0:0:0:0:
320,192,303591,1,0,0:0:0:0:
256,192,303933,1,0,0:0:0:0:
192,192,304276,2,0,L|160:128,1,70
160,192,304960,2,0,L|128:128,1,70
192,192,305644,2,0,L|224:128,1,70
288,192,306328,1,0,0:0:0:0:
384,192,306670,1,0,0:0:0:0:
368,192,307012,2,0,L|320:112,1,70
272,192,307696,1,0,0:0:0:0:
192,192,308038,1,0,0:0:0:0:
272,192,308380,1,0,0:0:0:0:
192,192,308723,5,0,0:0:0:0:
272,192,309065,1,0,0:0:0:0:
352,192,309407,1,0,0:0:0:0:
272,192,309749,2,0,B|224:112|224:112|288:80,1,140
320,192,310775,2,0,L|352:128,1,70
416,192,311459,1,0,0:0:0:0:
480,192,311801,1,0,0:0:0:0:
416,192,312143,1,0,0:0:0:0:
352,192,312485,6,0,B|288:112|288:112|352:112,1,140
256,192,313512,2,0,L|224:128,1,70
160,192,314196,1,0,0:0:0:0:
80,192,314538,1,0,0:0:0:0:
160,192,314880,1,0,0:0:0:0:
240,192,315222,1,0,0:0:0:0:
320,192,315564,1,0,0:0:0:0:
400,192,315906,1,0,0:0:0:0:
320,192,316248,1,0,0:0:0:0:
224,192,316590,1,0,0:0:0:0:
128,192,316932,5,0,0:0:0:0:
208,192,317274,2,0,L|256:128,1,70
304,192,317959,1,0,0:0:0:0:
384,192,318301,2,0,L|416:128,1,70
448,192,318985,1,0,0:0:0:0:
352,192,319327,5,0,0:0:0:0:
256,192,319669,1,0,0:0:0:0:
160,192,320011,1,0,0:0:0:0:
160,192,320353,2,0,L|192:128,1,70
208,192,321038,2,0,L|240:128,1,70
256,192,321722,2,0,L|224:128,1,70
160,192,322406,1,0,0:0:0:0:
256,192,322748,1,0,0:0:0:0:
352,192,323090,2,0,B|304:112|304:112|368:64,1,140
384,192,324116,1,0,0:0:0:0:
464,192,324458,1,0,0:0:0:0:
384,192,324800,5,0,0:0:0:0:
320,192,325142,1,0,0:0:0:0:
256,192,325484,1,0,0:0:0:0:
192,192,325827,2,0,L|160:128,1,70
160,192,326511,2,0,L|128:128,1,70
192,192,327195,2,0,L|224:128,1,70
288,192,327879,1,0,0:0:0:0:
384,192,328221,1,0,0:0:0:0:
368,192,328563,2,0,L|320:112,1,70
272,192,329247,1,0,0:0:0:0:
192,192,329589,1,0,0:0:0:0:
272,192,329931,1,0,0:0:0:0:
192,192,330274,5,0,0:0:0:0:
272,192,330616,1,0,0:0:0:0:
352,192,330958,1,0,0:0:0:0:
272,192,331300,2,0,B|224:112|224:112|288:80,1,140
320,192,332326,2,0,L|352:128,1,70
416,192,333010,1,0,0:0:0:0:
480,192,333352,1,0,0:0:0:0:
416,192,333694,1,0,0:0:0:0:
352,192,334036,6,0,B|288:112|288:112|352:112,1,140
256,192,335063,2,0,L|224:128,1,70
160,192,335747,1,0,0:0:0:0:
80,192,336089,1,0,0:0:0:0:
160,192,336431,1,0,0:0:0:0:
240,192,336773,1,0,0:0:0:0:
320,192,337115,1,0,0:0:0:0:
400,192,337457,1,0,0:0:0:0:
320,192,337799,1,0,0:0:0:0:
224,192,338141,1,0,0:0:0:0:
128,192,338483,5,0,0:0:0:0:
208,192,338825,2,0,L|256:128,1,70
304,192,339510,1,0,0:0:0:0:
384,192,339852,2,0,L|416:128,1,70
480,192,340536,5,0,0:0:0:0:
384,192,340878,1,0,0:0:0:0:
288,192,341220,1,0,0:0:0:0:
256,192,352997,6,0,L|304:64,1,70
128,176,354021,2,0,L|176:48,1,70
240,192,355044,1,0,0:0:0:0:
416,192,355556,1,0,0:0:0:0:
320,192,356068,2,0,L|256:96,1,70
128,192,357092,2,0,L|160:96,1,70
480,192,358116,1,0,0:0:0:0:
352,192,358628,1,0,0:0:0:0:
208,192,359140,1,0,0:0:0:0:
352,192,359652,1,0,0:0:0:0:
208,192,360164,5,0,0:0:0:0:
64,192,360676,1,0,0:0:0:0:
192,192,361188,2,0,L|144:64,1,70
368,192,362212,2,0,L|320:64,1,70
192,192,363235,1,0,0:0:0:0:
304,192,363747,1,0,0:0:0:0:
160,192,364259,2,0,L|128:96,1,70
32,192,365283,2,0,L|0:96,1,70
192,192,366307,1,0,0:0:0:0:
256,192,366819,1,0,0:0:0:0:
112,192,367331,1,0,0:0:0:0:
320,192,367843,1,0,0:0:0:0:
176,192,368355,5,0,0:0:0:0:
368,192,368867,1,0,0:0:0:0:
192,192,369379,2,0,L|240:64,1,70
416,192,370403,2,0,L|352:96,1,70
224,192,371426,1,0,0:0:0:0:
288,192,371938,1,0,0:0:0:0:
128,192,372450,2,0,L|160:96,1,70
304,192,373474,2,0,L|336:96,1,70
448,192,374498,1,0,0:0:0:0:
304,192,375010,1,0,0:0:0:0:
176,192,375522,1,0,0:0:0:0:
336,192,376034,1,0,0:0:0:0:
176,192,376546,5,0,0:0:0:0:
368,192,377058,1,0,0:0:0:0:
144,192,377570,2,0,L|192:96,1,70
352,192,378594,2,0,L|304:64,1,70
208,192,379617,1,0,0:0:0:0:
368,192,380130,1,0,0:0:0:0:
240,192,380641,2,0,L|208:96,1,70
128,192,381665,2,0,L|96:96,1,70
336,192,382689,1,0,0:0:0:0:
144,192,383201,1,0,0:0:0:0:
240,192,383713,1,0,0:0:0:0:
64,192,384225,1,0,0:0:0:0:
256,208,384737,6,0,L|208:80,1,70
384,192,385761,2,0,L|336:64,1,70
272,208,386784,1,0,0:0:0:0:
96,208,387296,1,0,0:0:0:0:
192,208,387808,2,0,L|256:112,1,70
384,208,388832,2,0,L|352:112,1,70
32,208,389856,1,0,0:0:0:0:
160,208,390368,1,0,0:0:0:0:
304,208,390880,1,0,0:0:0:0:
160,208,391392,1,0,0:0:0:0:
304,208,391904,5,0,0:0:0:0:
448,208,392416,1,0,0:0:0:0:
320,208,392928,2,0,L|368:80,1,70
144,208,393952,2,0,L|192:80,1,70
320,208,394975,1,0,0:0:0:0:
208,208,395487,1,0,0:0:0:0:
352,208,395999,2,0,L|384:112,1,70
480,208,397023,2,0,L|512:112,1,70
320,208,398047,1,0,0:0:0:0:
256,208,398559,1,0,0:0:0:0:
400,208,399071,1,0,0:0:0:0:
192,208,399583,1,0,0:0:0:0:
336,208,400095,5,0,0:0:0:0:
144,208,400607,1,0,0:0:0:0:
320,208,401119,2,0,L|272:80,1,70
96,208,402143,2,0,L|160:112,1,70
288,208,403166,1,0,0:0:0:0:
224,208,403678,1,0,0:0:0:0:
384,208,404190,2,0,L|352:112,1,70
208,208,405214,2,0,L|176:112,1,70
64,208,406238,1,0,0:0:0:0:
208,208,406750,1,0,0:0:0:0:
336,208,407262,1,0,0:0:0:0:
176,208,407774,1,0,0:0:0:0:
336,208,408286,5,0,0:0:0:0:
144,208,408798,1,0,0:0:0:0:
368,208,409310,2,0,L|320:112,1,70
160,208,410334,2,0,L|208:80,1,70
304,208,411357,1,0,0:0:0:0:
144,208,411870,1,0,0:0:0:0:
272,208,412381,2,0,L|304:112,1,70
384,208,413405,2,0,L|416:112,1,70
176,208,414429,1,0,0:0:0:0:
368,208,414941,1,0,0:0:0:0:
272,208,415453,1,0,0:0:0:0:
448,208,415965,1,0,0:0:0:0:
256,192,416478,1,0,0:0:0:0:
