osu file format v14

[General]
AudioFilename: audio.mp3
AudioLeadIn: 0
PreviewTime: 117742
Countdown: 0
SampleSet: Soft
StackLeniency: 0.7
Mode: 0
LetterboxInBreaks: 0
WidescreenStoryboard: 0

[Editor]
Bookmarks: 11826,47120,70660,117736,132441,147134,161830,176527,191224,205921,220618,235371,247101,258858,270616,282363,294102,305853,317609,332318,344086,355853,379388
DistanceSpacing: 1.9
BeatDivisor: 4
GridSize: 4
TimelineZoom: 1

[Metadata]
Title:ECCO to Okan Daibingu
TitleUnicode:ECCOと悪寒ダイビング
Artist:MACINTOSH PLUS
ArtistUnicode:MACINTOSH PLUS
Creator:Mismagius
Version:Virtual Beach
Source:
Tags:dancing fantasy deja vu eccojams vaporwave floral shoppe chill divin' with ECCO vektroid
BeatmapID:1395349
BeatmapSetID:658811

[Difficulty]
HPDrainRate:6
CircleSize:3
OverallDifficulty:7
ApproachRate:7
SliderMultiplier:1.8
SliderTickRate:2

[Events]
//Background and Video events
0,0,"tumblr_mckr0h1zwe1qmf2zwo1_1280.png",0,0
//Break Periods
//Storyboard Layer 0 (Background)
//Storyboard Layer 1 (Fail)
//Storyboard Layer 2 (Pass)
//Storyboard Layer 3 (Foreground)
//Storyboard Sound Samples

[TimingPoints]
5934,735.294117647059,4,2,0,100,1,0
11816,-166.666666666667,4,2,0,60,0,0
47110,735.654732712114,4,2,0,60,1,0
117726,735.294117647059,4,2,0,80,1,0
117726,-83.3333333333333,4,2,0,80,0,0
147124,734.843845682792,4,2,0,80,1,0
147124,-83.3333333333333,4,2,0,80,0,0
235352,734.843845682792,4,2,0,80,1,0
235352,-83.3333333333333,4,2,0,80,0,0
247091,734.843845682792,4,2,0,80,1,0
247091,-83.3333333333333,4,2,0,80,0,0
270591,734.843845682792,4,2,0,80,1,0
270591,-83.3333333333333,4,2,0,80,0,0
282353,734.843845682792,4,2,0,80,1,0
282353,-83.3333333333333,4,2,0,80,0,0
294092,734.843845682792,4,2,0,80,1,0
294092,-83.3333333333333,4,2,0,80,0,0
305843,734.843845682792,4,2,0,80,1,0
305843,-83.3333333333333,4,2,0,80,0,0
317599,735.474380975729,4,2,0,80,1,0
317599,-83.3333333333333,4,2,0,80,0,0
332308,-166.666666666667,4,2,0,80,0,0
344076,-100,4,2,0,80,0,0
355843,-166.666666666667,4,2,0,80,0,0
379378,-166.666666666667,4,2,0,40,0,0

[Colours]
Combo1 : 82,248,132
Combo2 : 255,128,192
Combo3 : 83,225,255
Combo4 : 241,255,66

[HitObjects]
40,320,11816,6,0,P|124:328|188:276,1,161.999995056153,4|2,3:0|0:0,0:0:0:0:
216,80,13286,1,0,0:0:0:0:
136,160,13654,1,0,0:0:0:0:
280,208,14022,1,0,0:0:0:0:
280,208,14757,6,0,P|364:200|428:252,1,161.999995056153,4|0,3:0|3:0,0:0:0:0:
432,276,16595,1,0,0:0:0:0:
492,144,16963,2,0,L|476:76,1,53.9999983520508,2|0,0:0|0:0,0:0:0:0:
304,32,17698,6,0,B|223:0|223:63|142:32,1,161.999995056153,4|2,3:0|0:0,0:0:0:0:
20,192,19169,1,0,0:0:0:0:
64,96,19536,1,0,0:0:0:0:
84,268,19904,1,0,0:0:0:0:
84,267,20639,6,0,P|163:263|231:305,1,161.999995056153,4|4,3:0|3:0,0:0:0:0:
244,272,22845,2,0,P|244:244|236:212,1,53.9999983520508,2|0,0:0|0:0,0:0:0:0:
136,136,23581,6,0,L|304:112,1,161.999995056153,4|2,3:0|0:0,0:0:0:0:
448,92,25051,1,0,0:0:0:0:
364,40,25419,1,0,0:0:0:0:
424,200,25786,1,0,0:0:0:0:
424,200,26522,6,0,P|444:264|400:348,1,161.999995056153,4|4,3:0|3:0,0:0:0:0:
180,256,28360,1,0,0:0:0:0:
308,200,28728,2,0,L|300:268,1,53.9999983520508,2|0,0:0|0:0,0:0:0:0:
128,188,29463,6,0,L|147:24,1,161.999995056153,4|2,3:0|0:0,0:0:0:0:
320,96,30934,1,0,0:0:0:0:
224,128,31301,1,0,0:0:0:0:
276,0,31669,1,0,0:0:0:0:
404,300,32404,6,0,P|328:288|252:328,1,161.999995056153,4|4,3:0|3:0,0:0:0:0:
88,168,34610,2,0,L|96:224,1,53.9999983520508,2|0,0:0|0:0,0:0:0:0:
248,164,35345,6,0,L|271:1,1,161.999995056153,4|2,3:0|2:0,0:0:0:0:
480,192,37184,1,0,0:0:0:0:
360,132,37551,1,0,0:0:0:0:
392,356,38286,6,0,P|312:360|240:296,1,161.999995056153,4|4,3:0|3:0,0:0:0:0:
204,44,40125,1,0,0:0:0:0:
128,156,40492,2,0,L|120:100,1,53.9999983520508,2|0,0:0|0:0,0:0:0:0:
240,164,41228,6,0,P|296:176|384:120,1,161.999995056153,4|2,3:0|0:0,0:0:0:0:
484,192,42698,1,0,0:0:0:0:
476,88,43066,1,0,0:0:0:0:
488,224,43434,1,0,0:0:0:0:
488,224,44169,6,0,B|407:192|407:255|326:224,1,161.999995056153,4|4,3:0|3:0,0:0:0:0:
60,112,46375,2,0,L|72:172,1,53.9999983520508,2|0,0:0|0:0,0:0:0:0:
316,284,47110,6,0,P|344:284|372:272,1,45,2|0,0:0|0:0,0:0:0:0:
328,196,47477,2,0,P|347:176|359:147,1,45,2|0,0:0|0:0,0:0:0:0:
288,0,47845,2,0,P|260:0|232:12,1,45,2|0,0:0|0:0,0:0:0:0:
276,88,48213,2,0,P|257:108|245:137,1,45,2|0,0:0|0:0,0:0:0:0:
316,284,48581,6,0,L|308:352,1,45,2|0,0:0|0:0,0:0:0:0:
472,204,48949,2,0,L|480:136,1,45,2|0,0:0|0:0,0:0:0:0:
288,0,49316,1,0,1:0:0:0:
477,159,49684,1,0,0:0:0:0:
477,159,49868,1,0,0:0:0:0:
344,192,50052,6,0,P|318:189|292:192,1,45,2|0,0:0|0:0,0:0:0:0:
168,244,50420,2,0,P|194:247|220:244,1,45,2|0,0:0|0:0,0:0:0:0:
280,104,50788,1,0,0:0:0:0:
280,104,50972,1,0,0:0:0:0:
364,220,51156,6,0,L|348:284,1,45,2|0,0:0|0:0,0:0:0:0:
196,220,51523,1,0,0:0:0:0:
196,220,51707,1,0,0:0:0:0:
280,104,51891,2,0,P|277:77|264:40,1,45,2|0,0:0|0:0,0:0:0:0:
196,220,52259,2,0,P|174:235|148:265,1,45,2|0,0:0|0:0,0:0:0:0:
338,234,52627,2,0,P|362:244|401:252,1,45,2|0,0:0|0:0,0:0:0:0:
280,104,52995,6,0,L|156:124,1,90,2|2,0:0|0:0,0:0:0:0:
80,140,53546,1,0,0:0:0:0:
88,116,53730,2,0,P|84:88|72:64,1,45,2|0,0:0|0:0,0:0:0:0:
20,232,54098,6,0,L|44:344,1,90,2|2,0:0|0:0,0:0:0:0:
148,352,54650,1,0,0:0:0:0:
140,328,54834,2,0,P|144:300|156:276,1,45,2|0,0:0|0:0,0:0:0:0:
360,192,55202,1,0,1:0:0:0:
128,40,55570,1,0,0:0:0:0:
128,40,55753,1,0,0:0:0:0:
40,108,55937,6,0,L|48:160,1,45,2|0,0:0|0:0,0:0:0:0:
68,264,56305,1,0,0:0:0:0:
360,192,56673,2,0,L|352:244,1,45,2|0,0:0|0:0,0:0:0:0:
332,348,57041,1,0,0:0:0:0:
152,152,57409,6,0,P|144:128|144:100,1,45,2|0,0:0|0:0,0:0:0:0:
236,100,57776,2,0,P|238:74|248:49,1,45,2|0,0:0|0:0,0:0:0:0:
352,92,58144,2,0,P|363:69|383:50,1,45,2|0,0:0|0:0,0:0:0:0:
464,136,58512,2,0,P|483:119|509:109,1,45,2|0,0:0|0:0,0:0:0:0:
512,240,58880,6,0,P|492:256|466:266,1,45,2|0,0:0|0:0,0:0:0:0:
304,356,59248,2,0,P|323:339|349:329,1,45,2|0,0:0|0:0,0:0:0:0:
512,240,59616,2,0,P|487:247|459:246,1,45,2|0,0:0|0:0,0:0:0:0:
304,356,59983,2,0,P|328:348|356:349,1,45,2|0,0:0|0:0,0:0:0:0:
512,372,60351,5,2,0:0:0:0:
232,176,60719,1,2,0:0:0:0:
292,272,60903,1,0,0:0:0:0:
296,80,61087,2,0,L|196:56,1,90,0|0,1:0|0:0,0:0:0:0:
100,32,61639,1,0,0:0:0:0:
76,52,61823,6,0,P|69:82|72:104,1,45,2|0,0:0|0:0,0:0:0:0:
124,196,62190,1,0,0:0:0:0:
384,120,62558,2,0,P|389:141|389:164,1,45,2|0,0:0|0:0,0:0:0:0:
336,264,62926,1,0,0:0:0:0:
124,196,63294,6,0,L|140:144,1,45,2|0,0:0|0:0,0:0:0:0:
212,44,63662,2,0,L|228:96,1,45,2|0,0:0|0:0,0:0:0:0:
280,236,64030,2,0,P|256:232|228:220,1,45,2|0,0:0|0:0,0:0:0:0:
336,80,64397,2,0,P|357:72|379:68,1,45,2|0,0:0|0:0,0:0:0:0:
504,152,64765,6,0,L|484:256,1,90,2|2,0:0|0:0,0:0:0:0:
460,352,65317,1,0,0:0:0:0:
436,328,65501,2,0,P|410:327|384:332,1,45,2|0,0:0|0:0,0:0:0:0:
288,376,65869,1,2,0:0:0:0:
128,156,66237,6,0,L|136:108,1,45,2|0,0:0|0:0,0:0:0:0:
204,228,66604,2,0,L|196:276,1,45,0|0,0:0|0:0,0:0:0:0:
232,20,66972,1,0,1:0:0:0:
436,116,67340,1,0,0:0:0:0:
436,116,67524,1,0,0:0:0:0:
376,212,67708,6,0,P|380:236|392:268,1,45,2|0,0:0|0:0,0:0:0:0:
512,272,68076,2,0,P|508:296|496:328,1,45,2|0,0:0|0:0,0:0:0:0:
300,272,68443,2,0,P|293:250|289:228,1,45,2|0,0:0|0:0,0:0:0:0:
436,116,68811,2,0,P|442:137|446:159,1,45,2|0,0:0|0:0,0:0:0:0:
256,124,69179,6,0,L|200:116,1,45,2|0,0:0|0:0,0:0:0:0:
400,32,69547,2,0,L|456:24,1,45,2|0,0:0|0:0,0:0:0:0:
240,148,69915,2,0,L|184:140,1,45,2|0,0:0|0:0,0:0:0:0:
416,56,70283,2,0,L|472:48,1,45,2|0,0:0|0:0,0:0:0:0:
224,176,70650,6,0,L|36:144,1,180,4|0,2:0|0:0,0:0:0:0:
264,32,71754,1,2,0:0:0:0:
320,268,72122,6,0,L|336:332,1,45,0|0,0:0|0:0,0:0:0:0:
412,192,72490,2,0,L|396:128,1,45,0|0,0:0|0:0,0:0:0:0:
160,100,72857,1,0,1:0:0:0:
160,100,73225,2,0,P|192:100|208:96,1,45,0|0,0:0|0:0,0:0:0:0:
352,20,73593,6,0,P|400:20|448:52,1,90,2|2,0:0|0:0,0:0:0:0:
504,132,74145,1,0,0:0:0:0:
484,152,74329,2,0,L|496:204,1,45,2|0,0:0|0:0,0:0:0:0:
444,296,74697,1,0,0:0:0:0:
444,296,75064,6,0,P|419:291|384:292,1,45,2|0,0:0|0:0,0:0:0:0:
216,336,75432,2,0,P|241:341|276:340,1,45,2|0,0:0|0:0,0:0:0:0:
292,164,75800,2,0,P|267:159|232:160,1,45,2|0,0:0|0:0,0:0:0:0:
64,204,76168,2,0,P|89:209|124:208,1,45,2|0,0:0|0:0,0:0:0:0:
292,164,76536,6,0,L|276:44,1,90,2|2,0:0|0:0,0:0:0:0:
184,20,77087,1,0,0:0:0:0:
192,48,77271,2,0,L|184:108,1,45,0|0,0:0|0:0,0:0:0:0:
156,268,77639,1,2,0:0:0:0:
156,268,78007,6,0,P|160:240|152:212,1,45,2|0,0:0|0:0,0:0:0:0:
24,112,78375,2,0,P|20:140|28:168,1,45,0|0,0:0|0:0,0:0:0:0:
104,384,78743,1,0,1:0:0:0:
352,248,79110,1,0,0:0:0:0:
352,248,79294,1,0,0:0:0:0:
468,280,79478,6,0,L|492:380,1,90,2|0,0:0|0:0,0:0:0:0:
352,248,80030,1,0,0:0:0:0:
364,219,80214,2,0,P|364:175|356:155,1,45,2|0,0:0|0:0,0:0:0:0:
288,328,80582,2,0,P|288:372|296:392,1,45,2|0,0:0|0:0,0:0:0:0:
364,175,80950,6,0,P|323:157|301:157,1,45,2|0,0:0|0:0,0:0:0:0:
440,344,81317,2,0,P|480:361|502:361,1,45,2|0,0:0|0:0,0:0:0:0:
252,248,81685,2,0,P|216:274|205:292,1,45,2|0,0:0|0:0,0:0:0:0:
448,244,82053,2,0,P|483:217|494:199,1,45,2|0,0:0|0:0,0:0:0:0:
504,24,82421,5,2,0:0:0:0:
504,24,82789,2,0,P|492:56|480:72,1,45,2|0,0:0|0:0,0:0:0:0:
388,140,83157,1,0,0:0:0:0:
388,140,83340,1,0,0:0:0:0:
336,0,83524,1,2,0:0:0:0:
432,264,83892,6,0,L|424:324,1,45,2|0,0:0|0:0,0:0:0:0:
304,184,84260,2,0,L|298:139,1,45,0|0,0:0|0:0,0:0:0:0:
504,24,84628,1,0,1:0:0:0:
504,24,84996,2,0,P|516:56|516:84,1,45,0|0,0:0|0:0,0:0:0:0:
432,264,85364,6,0,L|328:296,1,90,2|2,0:0|0:0,0:0:0:0:
248,220,85915,1,0,0:0:0:0:
272,196,86099,2,0,P|272:172|264:144,1,45,0|0,0:0|0:0,0:0:0:0:
228,320,86467,1,2,0:0:0:0:
228,320,86835,6,0,L|168:304,1,45,2|0,0:0|0:0,0:0:0:0:
20,232,87203,2,0,L|80:216,1,45,2|0,0:0|0:0,0:0:0:0:
268,144,87571,2,0,L|208:128,1,45,2|0,0:0|0:0,0:0:0:0:
0,44,87938,2,0,L|60:28,1,45,2|0,0:0|0:0,0:0:0:0:
268,144,88306,6,0,P|328:156|396:124,1,135,2|0,0:0|0:0,0:0:0:0:
452,0,89042,1,0,0:0:0:0:
452,0,89226,1,0,0:0:0:0:
496,192,89410,1,2,0:0:0:0:
496,192,89777,6,0,L|444:180,1,45,0|0,0:0|0:0,0:0:0:0:
364,320,90145,2,0,L|416:308,1,45,0|0,0:0|0:0,0:0:0:0:
496,96,90513,1,0,1:0:0:0:
496,96,90881,2,0,P|500:48|496:32,1,45,0|0,0:0|0:0,0:0:0:0:
336,8,91249,5,2,0:0:0:0:
336,8,91433,1,0,0:0:0:0:
376,124,91617,2,0,L|384:172,1,45,0|0,0:0|0:0,0:0:0:0:
204,240,91984,1,2,0:0:0:0:
204,240,92168,1,0,0:0:0:0:
244,124,92352,2,0,L|252:76,1,45,0|0,0:0|0:0,0:0:0:0:
348,272,92720,6,0,P|348:300|340:320,1,45,2|0,0:0|0:0,0:0:0:0:
236,96,93088,2,0,P|236:68|244:48,1,45,2|0,0:0|0:0,0:0:0:0:
204,240,93456,2,0,P|176:240|156:232,1,45,2|0,0:0|0:0,0:0:0:0:
380,128,93824,2,0,P|408:128|428:136,1,45,2|0,0:0|0:0,0:0:0:0:
204,240,94191,6,0,B|116:274|116:206|29:240,1,180,2|0,0:0|0:0,0:0:0:0:
74,320,95111,1,0,0:0:0:0:
162,160,95295,2,0,P|168:104|120:32,1,135,2|0,0:0|0:0,0:0:0:0:
28,108,96031,6,0,P|48:117|70:120,1,45,2|0,0:0|0:0,0:0:0:0:
256,32,96398,1,0,1:0:0:0:
424,208,96766,1,0,0:0:0:0:
316,176,96950,1,0,0:0:0:0:
348,284,97134,6,0,P|352:312|348:336,1,45,2|0,0:0|0:0,0:0:0:0:
244,372,97502,1,0,0:0:0:0:
244,372,97686,1,0,0:0:0:0:
164,292,97870,2,0,L|148:172,1,90,2|0,0:0|0:0,0:0:0:0:
380,76,98605,6,0,P|428:80|448:76,1,45,2|0,0:0|0:0,0:0:0:0:
252,44,98973,2,0,P|204:40|184:44,1,45,2|0,0:0|0:0,0:0:0:0:
381,49,99341,2,0,P|426:34|443:23,1,45,2|0,0:0|0:0,0:0:0:0:
250,70,99709,2,0,P|205:85|188:96,1,45,2|0,0:0|0:0,0:0:0:0:
152,304,100077,6,0,L|276:284,1,90,2|0,0:0|0:0,0:0:0:0:
380,264,100628,1,0,0:0:0:0:
368,296,100812,2,0,P|365:328|368:348,1,45,0|0,0:0|0:0,0:0:0:0:
464,232,101180,2,0,P|432:188|392:172,1,90,2|0,0:0|0:0,0:0:0:0:
152,304,101916,5,0,0:0:0:0:
52,252,102100,1,0,0:0:0:0:
224,204,102284,2,0,L|204:88,1,90,0|0,1:0|0:0,0:0:0:0:
276,24,102835,1,0,0:0:0:0:
304,44,103019,6,0,P|301:73|294:102,1,45,2|0,0:0|0:0,0:0:0:0:
388,180,103387,2,0,P|390:150|398:122,1,45,0|0,0:0|0:0,0:0:0:0:
304,44,103755,2,0,L|228:56,1,45,2|0,0:0|0:0,0:0:0:0:
388,180,104123,2,0,L|464:168,1,45,0|0,0:0|0:0,0:0:0:0:
264,140,104491,6,0,L|188:128,1,45,2|0,0:0|0:0,0:0:0:0:
428,84,104858,2,0,L|504:96,1,45,2|0,0:0|0:0,0:0:0:0:
232,228,105226,2,0,P|220:256|220:304,1,45,2|0,0:0|0:0,0:0:0:0:
176,52,105594,2,0,P|188:28|188:-24,1,45,2|0,0:0|0:0,0:0:0:0:
24,156,105962,6,0,B|8:198|8:198|56:336,1,180,2|0,0:0|0:0,0:0:0:0:
152,380,106881,1,0,0:0:0:0:
224,292,107065,2,0,L|376:324,1,135,2|0,0:0|0:0,0:0:0:0:
308,216,107801,6,0,L|384:232,1,45,0|0,0:0|0:0,0:0:0:0:
512,256,108169,1,0,1:0:0:0:
384,24,108537,1,0,0:0:0:0:
384,24,108721,1,0,0:0:0:0:
332,124,108904,6,0,P|280:124|240:96,1,90,2|0,0:0|0:0,0:0:0:0:
44,8,109640,2,0,L|48:56,1,45,0|0,0:0|0:0,0:0:0:0:
58,164,110008,1,0,0:0:0:0:
276,272,110376,6,0,L|280:224,1,45,2|0,0:0|0:0,0:0:0:0:
184,328,110744,2,0,L|188:376,1,45,2|0,0:0|0:0,0:0:0:0:
316,244,111111,2,0,L|320:196,1,45,2|0,0:0|0:0,0:0:0:0:
136,168,111479,2,0,L|132:120,1,45,2|0,0:0|0:0,0:0:0:0:
296,32,111847,6,0,P|352:24|440:72,1,135,2|0,0:0|0:0,0:0:0:0:
488,168,112583,2,0,L|496:120,1,45,0|0,0:0|0:0,0:0:0:0:
376,160,112951,6,0,P|315:188|249:181,1,135,2|0,0:0|0:0,0:0:0:0:
156,116,113686,1,0,0:0:0:0:
168,84,113870,1,0,0:0:0:0:
212,272,114054,1,0,1:0:0:0:
212,272,114422,2,0,L|200:332,1,45,0|0,0:0|0:0,0:0:0:0:
108,256,114790,5,2,0:0:0:0:
136,148,114974,1,0,0:0:0:0:
108,256,115158,1,0,0:0:0:0:
268,80,115525,5,2,0:0:0:0:
296,188,115709,1,0,0:0:0:0:
268,80,115893,1,0,0:0:0:0:
460,260,116261,6,0,P|494:255|512:248,1,45,2|0,0:0|0:0,0:0:0:0:
296,188,116629,2,0,P|261:192|244:200,1,45,2|0,0:0|0:0,0:0:0:0:
464,164,116997,2,0,P|484:136|492:118,1,45,2|0,0:0|0:0,0:0:0:0:
292,284,117365,2,0,P|271:311|263:329,1,45,2|0,0:0|0:0,0:0:0:0:
400,92,117726,6,0,P|356:52|256:56,1,161.999995056153,4|0,0:0|0:0,0:0:0:0:
192,172,118461,2,0,L|160:112,1,53.9999983520508,0|0,1:0|0:0,0:0:0:0:
108,4,118828,1,2,3:0:0:0:
72,232,119196,1,0,0:0:0:0:
144,304,119380,1,0,0:0:0:0:
192,172,119564,2,0,P|200:144|196:112,1,53.9999983520508,2|0,3:0|0:0,0:0:0:0:
108,4,119931,2,0,L|224:16,1,107.999996704102,2|2,1:2|3:0,0:0:0:0:
352,32,120483,1,0,0:0:0:0:
268,140,120667,6,0,L|152:152,1,107.999996704102,2|2,0:0|3:0,0:0:0:0:
352,32,121402,2,0,P|395:68|401:172,1,161.999995056153,2|0,1:2|0:0,0:0:0:0:
356,240,122137,2,0,P|302:259|209:212,1,161.999995056153,2|0,0:0|0:0,0:0:0:0:
169,141,122873,2,0,P|179:85|266:27,1,161.999995056153,2|0,1:2|0:0,0:0:0:0:
348,92,123608,6,0,P|412:96|464:68,1,107.999996704102,2|2,0:0|3:0,0:0:0:0:
504,288,124343,1,0,1:0:0:0:
492,248,124527,1,0,0:0:0:0:
432,344,124711,2,0,P|380:348|328:320,1,107.999996704102,2|0,0:0|0:0,0:0:0:0:
292,224,125262,1,0,0:0:0:0:
328,204,125446,2,0,L|340:144,1,53.9999983520508,2|0,3:0|0:0,0:0:0:0:
364,44,125814,2,0,B|284:12|284:74|204:44,1,161.999995056153,2|0,1:2|0:0,0:0:0:0:
104,8,126549,6,0,L|132:124,1,107.999996704102,2|2,0:0|3:0,0:0:0:0:
160,220,127101,1,0,0:0:0:0:
128,212,127284,2,0,P|91:213|60:224,1,53.9999983520508,0|0,1:0|0:0,0:0:0:0:
88,344,127652,2,0,P|124:342|156:332,1,53.9999983520508,2|0,3:0|0:0,0:0:0:0:
224,264,128020,2,0,L|196:144,1,107.999996704102,0|2,0:0|3:0,0:0:0:0:
384,24,128755,1,0,1:0:0:0:
500,84,128939,1,0,0:0:0:0:
420,156,129123,2,0,L|362:126,1,53.9999983520508,2|0,3:0|0:0,0:0:0:0:
508,208,129490,6,0,P|508:272|480:320,1,107.999996704102,0|2,0:0|3:0,0:0:0:0:
396,368,130042,1,0,0:0:0:0:
388,260,130226,1,0,1:0:0:0:
388,260,130593,2,0,P|352:276|328:280,1,53.9999983520508,2|0,3:0|0:0,0:0:0:0:
216,216,130961,2,0,P|152:216|104:244,1,107.999996704102,0|2,0:0|3:0,0:0:0:0:
64,332,131512,1,0,0:0:0:0:
24,184,131696,1,0,1:0:0:0:
256,68,132064,1,0,1:0:0:0:
216,216,132248,1,0,1:0:0:0:
264,44,132431,6,0,B|369:1|369:84|476:44,1,215.999993408203,4|0,0:0|1:0,0:0:0:0:
424,244,133534,1,2,3:0:0:0:
236,160,133902,2,0,L|248:224,1,53.9999983520508,0|0,0:0|0:0,0:0:0:0:
271,319,134270,1,2,3:0:0:0:
271,319,134453,1,0,0:0:0:0:
172,288,134637,2,0,P|116:280|56:308,1,107.999996704102,2|2,1:2|3:0,0:0:0:0:
112,152,135373,6,0,L|133:36,1,107.999996704102,2|2,0:0|3:0,0:0:0:0:
296,168,136108,2,0,P|384:180|460:136,1,161.999995056153,2|0,1:2|0:0,0:0:0:0:
492,56,136843,2,0,P|480:144|524:220,1,161.999995056153,2|0,0:0|0:0,0:0:0:0:
472,304,137578,1,2,1:2:0:0:
260,248,137946,2,0,L|240:196,1,53.9999983520508,2|0,3:0|0:0,0:0:0:0:
200,104,138314,6,0,P|160:144|100:148,1,107.999996704102,2|2,0:0|3:0,0:0:0:0:
20,16,139049,1,0,1:0:0:0:
4,220,139417,1,2,0:0:0:0:
200,104,139784,2,0,L|264:116,1,53.9999983520508,0|0,0:0|0:0,0:0:0:0:
352,140,140152,1,2,3:0:0:0:
352,140,140336,1,0,0:0:0:0:
224,208,140520,1,2,1:2:0:0:
328,40,140887,2,0,L|392:28,1,53.9999983520508,2|0,3:0|0:0,0:0:0:0:
480,4,141255,6,0,P|500:64|472:156,1,161.999995056153,2|0,0:0|0:0,0:0:0:0:
396,224,141990,1,0,1:0:0:0:
208,140,142358,1,2,3:0:0:0:
280,344,142726,1,0,0:0:0:0:
352,120,143093,2,0,P|358:94|356:64,1,53.9999983520508,2|0,3:0|0:0,0:0:0:0:
272,8,143461,2,0,L|160:32,1,107.999996704102,0|2,1:0|3:0,0:0:0:0:
68,60,144012,1,0,0:0:0:0:
196,116,144196,5,0,0:0:0:0:
68,328,144564,2,0,L|60:272,1,53.9999983520508,2|0,3:0|0:0,0:0:0:0:
44,172,144931,1,0,1:0:0:0:
252,228,145299,2,0,L|244:284,1,53.9999983520508,2|0,3:0|0:0,0:0:0:0:
228,384,145667,1,0,0:0:0:0:
44,172,146034,5,2,3:0:0:0:
100,80,146218,1,0,0:0:0:0:
140,236,146402,1,0,1:0:0:0:
140,236,146770,1,0,1:0:0:0:
320,168,146953,1,0,1:0:0:0:
288,357,147124,6,0,P|348:376|464:264,1,215.999993408203,4|0,0:0|1:0,0:0:0:0:
480,188,148042,1,0,0:0:0:0:
352,264,148226,2,0,L|292:240,1,53.9999983520508,2|0,3:0|0:0,0:0:0:0:
168,196,148593,2,0,P|100:192|16:252,1,161.999995056153,0|0,0:0|0:0,0:0:0:0:
24,376,149328,1,2,1:2:0:0:
302,244,149695,2,0,P|310:192|306:172,1,53.9999983520508,2|0,3:0|0:0,0:0:0:0:
276,92,150063,6,0,P|328:88|376:112,1,107.999996704102,2|2,0:0|3:0,0:0:0:0:
80,192,150798,2,0,L|56:24,1,161.999995056153,2|0,1:2|0:0,0:0:0:0:
192,116,151533,2,0,L|168:284,1,161.999995056153,2|0,0:0|0:0,0:0:0:0:
152,376,152267,1,2,1:2:0:0:
80,192,152635,2,0,L|92:105,1,53.9999983520508,2|0,3:0|0:0,0:0:0:0:
152,44,153002,6,0,P|212:36|256:64,1,107.999996704102,2|2,0:0|3:0,0:0:0:0:
336,248,153737,2,0,L|400:236,1,53.9999983520508,0|0,1:0|0:0,0:0:0:0:
492,220,154105,1,2,0:0:0:0:
288,136,154472,2,0,L|224:148,1,53.9999983520508,0|0,0:0|0:0,0:0:0:0:
132,164,154839,1,2,3:0:0:0:
132,164,155023,1,0,0:0:0:0:
224,284,155207,2,0,P|296:276|376:332,1,161.999995056153,2|0,1:2|0:0,0:0:0:0:
456,380,155942,6,0,B|499:275|416:275|456:168,1,215.999993408203,2|0,0:0|1:0,0:0:0:0:
316,20,157044,2,0,L|328:80,1,53.9999983520508,2|0,3:0|0:0,0:0:0:0:
348,172,157411,1,0,0:0:0:0:
248,144,157595,1,0,0:0:0:0:
372,176,157779,1,2,3:0:0:0:
244,336,158146,2,0,L|120:304,1,107.999996704102,0|2,1:0|3:0,0:0:0:0:
40,284,158697,1,0,0:0:0:0:
200,208,158881,6,0,P|216:140|180:56,1,161.999995056153,0|0,0:0|0:0,0:0:0:0:
22,134,159616,2,0,P|6:202|42:286,1,161.999995056153,0|0,1:0|0:0,0:0:0:0:
200,208,160351,2,0,P|268:192|352:228,1,161.999995056153,0|0,0:0|0:0,0:0:0:0:
432,380,161086,1,0,1:0:0:0:
432,380,161453,1,0,1:0:0:0:
284,348,161637,1,0,1:0:0:0:
500,264,161820,6,0,L|464:76,1,161.999995056153,4|0,0:0|0:0,0:0:0:0:
360,28,162555,2,0,L|342:122,1,53.9999983520508,0|0,1:0|0:0,0:0:0:0:
324,180,162923,1,2,3:0:0:0:
80,96,163290,2,0,P|104:84|136:80,1,53.9999983520508,0|0,0:0|0:0,0:0:0:0:
52,228,163657,2,0,P|28:240|-4:244,1,53.9999983520508,2|0,3:0|0:0,0:0:0:0:
184,188,164025,2,0,L|148:376,1,161.999995056153,2|0,1:2|0:0,0:0:0:0:
56,376,164760,5,2,0:0:0:0:
256,316,165127,1,2,3:0:0:0:
352,356,165311,1,0,0:0:0:0:
300,228,165495,2,0,P|288:168|340:76,1,161.999995056153,2|0,1:2|0:0,0:0:0:0:
420,32,166229,2,0,L|252:20,1,161.999995056153,2|0,0:0|0:0,0:0:0:0:
156,12,166964,1,2,1:2:0:0:
76,264,167332,1,2,3:0:0:0:
108,168,167515,1,0,0:0:0:0:
152,348,167699,6,0,P|220:356|296:304,1,161.999995056153,2|0,0:0|0:0,0:0:0:0:
364,228,168434,2,0,P|340:210|308:204,1,53.9999983520508,0|0,1:0|0:0,0:0:0:0:
197,233,168801,1,2,0:0:0:0:
72,36,169169,2,0,L|52:108,1,53.9999983520508,0|0,0:0|0:0,0:0:0:0:
172,144,169536,2,0,L|152:72,1,53.9999983520508,2|0,3:0|0:0,0:0:0:0:
68,200,169904,2,0,P|60:260|100:360,1,161.999995056153,2|0,1:2|0:0,0:0:0:0:
212,272,170639,6,0,L|324:308,1,107.999996704102,2|2,0:0|3:0,0:0:0:0:
412,336,171190,1,0,0:0:0:0:
356,212,171373,1,0,1:0:0:0:
356,212,171741,2,0,P|352:164|360:144,1,53.9999983520508,2|0,3:0|0:0,0:0:0:0:
452,128,172108,2,0,P|456:176|448:196,1,53.9999983520508,0|0,0:0|0:0,0:0:0:0:
356,212,172476,1,2,3:0:0:0:
112,88,172843,1,0,1:0:0:0:
168,284,173210,2,0,L|160:340,1,53.9999983520508,2|0,3:0|0:0,0:0:0:0:
232,200,173578,6,0,L|213:72,1,107.999996704102,0|2,0:0|3:0,0:0:0:0:
148,16,174129,1,0,0:0:0:0:
132,148,174313,2,0,L|150:275,1,107.999996704102,0|2,1:0|3:0,0:0:0:0:
216,332,174864,1,0,0:0:0:0:
344,284,175048,2,0,P|404:284|460:324,1,107.999996704102,0|2,0:0|3:0,0:0:0:0:
512,384,175599,1,0,0:0:0:0:
512,192,175782,1,0,1:0:0:0:
512,192,176150,1,0,1:0:0:0:
344,284,176334,1,0,1:0:0:0:
388,88,176517,6,0,P|320:28|188:48,1,215.999993408203,4|0,0:0|1:0,0:0:0:0:
152,136,177436,1,0,0:0:0:0:
104,8,177620,1,2,3:0:0:0:
104,8,177987,2,0,L|88:64,1,53.9999983520508,0|0,0:0|0:0,0:0:0:0:
236,172,178354,2,0,L|252:116,1,53.9999983520508,2|0,3:0|0:0,0:0:0:0:
132,232,178722,2,0,P|124:292|156:356,1,107.999996704102,2|2,1:2|3:0,0:0:0:0:
228,276,179273,1,0,0:0:0:0:
40,184,179457,6,0,P|32:124|64:60,1,107.999996704102,2|2,0:0|3:0,0:0:0:0:
308,20,180191,2,0,L|348:176,1,161.999995056153,2|0,1:2|0:0,0:0:0:0:
424,100,180926,2,0,L|384:256,1,161.999995056153,2|0,0:0|0:0,0:0:0:0:
307,180,181661,2,0,L|347:336,1,161.999995056153,2|0,1:2|0:0,0:0:0:0:
448,372,182396,5,2,0:0:0:0:
236,300,182763,1,2,3:0:0:0:
480,140,183131,2,0,P|496:180|496:200,1,53.9999983520508,0|0,1:0|0:0,0:0:0:0:
432,276,183498,2,0,P|376:252|312:256,1,107.999996704102,2|0,0:0|0:0,0:0:0:0:
248,320,184049,1,0,0:0:0:0:
212,184,184233,2,0,L|200:236,1,53.9999983520508,2|0,3:0|0:0,0:0:0:0:
320,136,184601,2,0,L|293:20,1,107.999996704102,2|2,1:2|3:0,0:0:0:0:
204,88,185152,1,0,0:0:0:0:
412,116,185335,6,0,B|472:116|496:56|496:56|528:104|512:156,1,215.999993408203,2|0,0:0|1:0,0:0:0:0:
264,228,186438,2,0,L|276:160,1,53.9999983520508,2|0,3:0|0:0,0:0:0:0:
336,296,186805,2,0,L|324:364,1,53.9999983520508,0|0,0:0|0:0,0:0:0:0:
224,376,187172,1,2,3:0:0:0:
488,304,187540,1,0,1:0:0:0:
264,228,187907,2,0,P|232:232|204:244,1,53.9999983520508,2|0,3:0|0:0,0:0:0:0:
132,312,188275,6,0,P|104:244|144:156,1,161.999995056153,0|0,0:0|0:0,0:0:0:0:
232,116,189010,2,0,P|172:64|84:68,1,161.999995056153,0|0,1:0|0:0,0:0:0:0:
16,140,189744,1,0,0:0:0:0:
272,260,190112,2,0,L|328:244,1,53.9999983520508,2|0,3:0|0:0,0:0:0:0:
104,308,190479,1,0,1:0:0:0:
104,308,190847,1,0,1:0:0:0:
204,104,191030,1,0,1:0:0:0:
292,356,191214,6,0,P|344:368|396:356,1,107.999996704102,4|2,0:0|3:0,0:0:0:0:
456,96,191949,1,0,1:0:0:0:
488,200,192133,1,0,0:0:0:0:
444,72,192316,2,0,P|392:60|340:72,1,107.999996704102,2|0,3:0|0:0,0:0:0:0:
248,132,192868,1,0,0:0:0:0:
296,268,193051,2,0,P|312:236|312:208,1,53.9999983520508,2|0,3:0|0:0,0:0:0:0:
176,60,193419,2,0,P|148:136|180:208,1,161.999995056153,2|0,1:2|0:0,0:0:0:0:
296,268,194154,6,0,L|272:376,1,107.999996704102,2|2,0:0|3:0,0:0:0:0:
460,268,194888,2,0,B|480:192|480:192|448:108,1,161.999995056153,2|0,1:2|0:0,0:0:0:0:
368,44,195623,2,0,B|292:64|292:64|208:32,1,161.999995056153,2|0,0:0|0:0,0:0:0:0:
112,0,196358,2,0,L|132:106,1,107.999996704102,2|2,1:2|3:0,0:0:0:0:
172,356,197093,6,0,P|108:356|28:280,1,161.999995056153,2|0,0:0|0:0,0:0:0:0:
60,152,197828,2,0,L|46:99,1,53.9999983520508,0|0,1:0|0:0,0:0:0:0:
136,240,198195,2,0,P|175:240|228:196,1,107.999996704102,2|0,0:0|0:0,0:0:0:0:
268,100,198746,1,0,0:0:0:0:
296,272,198930,2,0,L|308:340,1,53.9999983520508,2|0,3:0|0:0,0:0:0:0:
226,198,199297,2,0,B|146:165|146:228|65:198,1,161.999995056153,2|0,1:2|0:0,0:0:0:0:
10,108,200032,6,0,P|66:188|34:312,1,215.999993408203,2|0,0:0|1:0,0:0:0:0:
288,232,201135,2,0,L|308:292,1,53.9999983520508,2|0,3:0|0:0,0:0:0:0:
188,184,201502,2,0,L|208:124,1,53.9999983520508,0|0,0:0|0:0,0:0:0:0:
256,8,201869,1,2,3:0:0:0:
396,248,202237,2,0,P|456:248|500:220,1,107.999996704102,0|2,1:0|3:0,0:0:0:0:
424,144,202788,1,0,0:0:0:0:
368,344,202972,6,0,P|280:344|216:303,1,161.999995056153
168,212,203706,2,0,P|168:124|208:60,1,161.999995056153,0|0,1:0|0:0,0:0:0:0:
304,16,204441,1,0,0:0:0:0:
304,16,204809,1,2,3:0:0:0:
206,63,204992,1,0,0:0:0:0:
376,128,205176,1,0,1:0:0:0:
376,128,205544,1,0,1:0:0:0:
272,276,205727,1,0,1:0:0:0:
206,63,205911,6,0,P|128:56|88:72,1,107.999996704102,4|2,0:0|3:0,0:0:0:0:
0,308,206646,2,0,L|60:284,1,53.9999983520508,0|0,1:0|0:0,0:0:0:0:
148,244,207013,1,2,3:0:0:0:
148,244,207381,1,0,0:0:0:0:
188,344,207564,1,0,0:0:0:0:
264,212,207748,2,0,L|240:140,1,53.9999983520508,2|0,3:0|0:0,0:0:0:0:
316,40,208116,2,0,P|376:24|476:56,1,161.999995056153,2|0,1:2|0:0,0:0:0:0:
417,223,208850,6,0,P|357:239|257:207,1,161.999995056153,2|0,0:0|0:0,0:0:0:0:
208,120,209585,2,0,L|252:304,1,161.999995056153,2|0,1:2|0:0,0:0:0:0:
280,380,210320,2,0,L|324:196,1,161.999995056153,2|0,0:0|0:0,0:0:0:0:
352,120,211055,2,0,L|396:304,1,161.999995056153,2|0,1:2|0:0,0:0:0:0:
416,384,211790,5,2,0:0:0:0:
476,176,212157,1,2,3:0:0:0:
192,256,212525,2,0,P|176:292|176:320,1,53.9999983520508,0|0,1:0|0:0,0:0:0:0:
256,380,212892,1,2,0:0:0:0:
4,232,213259,1,0,0:0:0:0:
79,155,213443,1,0,0:0:0:0:
80,320,213627,1,2,3:0:0:0:
4,232,213811,1,0,0:0:0:0:
172,204,213994,2,0,P|252:200|348:248,1,161.999995056153,2|0,1:2|0:0,0:0:0:0:
388,320,214729,5,2,0:0:0:0:
484,124,215097,1,2,3:0:0:0:
366,364,215464,1,0,1:0:0:0:
292,160,215831,2,0,L|312:92,1,53.9999983520508,2|0,3:0|0:0,0:0:0:0:
228,32,216199,2,0,L|208:100,1,53.9999983520508,0|0,0:0|0:0,0:0:0:0:
176,184,216566,1,2,3:0:0:0:
484,124,216934,1,0,1:0:0:0:
366,364,217301,2,0,P|348:324|344:296,1,53.9999983520508,2|0,3:0|0:0,0:0:0:0:
364,208,217669,6,0,P|308:232|200:200,1,161.999995056153,0|0,0:0|0:0,0:0:0:0:
212,102,218403,2,0,P|268:78|376:110,1,161.999995056153,0|0,1:0|0:0,0:0:0:0:
456,156,219138,1,0,0:0:0:0:
180,328,219506,1,2,3:0:0:0:
76,284,219689,1,0,0:0:0:0:
213,209,219873,1,0,1:0:0:0:
213,209,220240,1,0,1:0:0:0:
280,380,220424,1,0,1:0:0:0:
336,144,220608,6,0,L|308:12,1,107.999996704102,4|2,0:0|3:0,0:0:0:0:
52,104,221343,2,0,L|112:120,1,53.9999983520508,0|0,1:0|0:0,0:0:0:0:
212,140,221710,1,2,3:0:0:0:
420,196,222078,2,0,L|360:212,1,53.9999983520508,0|0,0:0|0:0,0:0:0:0:
260,232,222445,1,2,3:0:0:0:
336,308,222629,1,0,0:0:0:0:
244,216,222812,2,0,P|224:172|232:104,1,107.999996704102,2|2,1:2|3:0,0:0:0:0:
312,44,223364,1,0,0:0:0:0:
180,12,223547,6,0,L|68:28,1,107.999996704102,2|2,0:0|3:0,0:0:0:0:
80,296,224282,2,0,P|152:296|224:348,1,161.999995056153,2|0,1:2|0:0,0:0:0:0:
299,270,225017,2,0,P|263:207|272:119,1,161.999995056153,2|0,0:0|0:0,0:0:0:0:
166,93,225752,2,0,P|130:155|48:191,1,161.999995056153,2|0,1:2|0:0,0:0:0:0:
0,96,226487,5,2,0:0:0:0:
96,288,226854,1,2,3:0:0:0:
288,192,227221,2,0,P|292:144|288:124,1,53.9999983520508,0|0,1:0|0:0,0:0:0:0:
232,48,227589,1,2,0:0:0:0:
412,168,227956,2,0,L|476:152,1,53.9999983520508,0|0,0:0|0:0,0:0:0:0:
512,284,228324,2,0,L|448:268,1,53.9999983520508,2|0,3:0|0:0,0:0:0:0:
328,240,228691,2,0,P|272:232|180:288,1,161.999995056153,2|0,1:2|0:0,0:0:0:0:
136,380,229426,5,2,0:0:0:0:
344,328,229793,1,2,3:0:0:0:
88,248,230161,1,0,1:0:0:0:
180,52,230528,2,0,L|204:120,1,53.9999983520508,2|0,3:0|0:0,0:0:0:0:
240,204,230896,1,0,0:0:0:0:
344,176,231079,1,0,0:0:0:0:
228,208,231263,1,2,3:0:0:0:
488,280,231631,1,0,1:0:0:0:
288,356,231998,2,0,L|224:340,1,53.9999983520508,2|0,3:0|0:0,0:0:0:0:
132,316,232365,6,0,P|104:252|116:200,1,107.999996704102,0|2,0:0|3:0,0:0:0:0:
172,128,232917,1,0,0:0:0:0:
172,128,233100,2,0,L|48:100,1,107.999996704102,0|2,1:0|3:0,0:0:0:0:
140,24,233651,1,0,0:0:0:0:
140,24,233835,2,0,L|264:52,1,107.999996704102,0|2,0:0|3:0,0:0:0:0:
352,72,234386,1,0,0:0:0:0:
200,132,234570,1,0,1:0:0:0:
200,132,234937,1,0,1:0:0:0:
264,284,235121,1,0,1:0:0:0:
352,72,235352,6,0,P|409:67|495:119,1,161.999995056153,4|0,0:0|0:0,0:0:0:0:
512,240,236086,1,0,1:0:0:0:
304,300,236454,1,2,3:0:0:0:
248,92,236821,2,0,L|260:32,1,53.9999983520508,0|0,0:0|0:0,0:0:0:0:
336,144,237189,2,0,L|324:204,1,53.9999983520508,2|0,3:0|0:0,0:0:0:0:
304,300,237556,2,0,P|256:312|184:292,1,107.999996704102,2|2,1:2|3:0,0:0:0:0:
112,224,238107,1,0,0:0:0:0:
40,368,238291,6,0,P|88:380|160:360,1,107.999996704102,2|2,0:0|3:0,0:0:0:0:
252,184,239026,2,0,P|264:112|192:40,1,161.999995056153,2|0,1:2|0:0,0:0:0:0:
108,80,239761,2,0,P|96:152|168:224,1,161.999995056153,2|0,0:0|0:0,0:0:0:0:
252,184,240495,2,0,B|332:164|332:164|408:184,1,161.999995056153,2|0,1:2|0:0,0:0:0:0:
512,216,241230,5,2,0:0:0:0:
396,36,241598,1,2,3:0:0:0:
352,288,241965,2,0,L|372:352,1,53.9999983520508,0|0,1:0|0:0,0:0:0:0:
468,380,242333,1,2,0:0:0:0:
260,328,242700,2,0,L|240:264,1,53.9999983520508,0|0,0:0|0:0,0:0:0:0:
308,148,243067,2,0,L|328:212,1,53.9999983520508,2|0,3:0|0:0,0:0:0:0:
260,328,243435,2,0,P|192:332|116:272,1,161.999995056153,2|0,1:2|0:0,0:0:0:0:
219,220,244170,6,0,B|262:115|179:115|219:8,2,215.999993408203,2|0|0,0:0|1:0|0:0,0:0:0:0:
188,324,245823,1,0,0:0:0:0:
112,248,246007,1,2,3:0:0:0:
320,300,246374,2,0,P|380:300|432:272,1,107.999996704102,0|2,1:0|3:0,0:0:0:0:
488,208,246925,1,0,0:0:0:0:
464,112,247091,6,0,L|300:140,1,161.999995056153,4|0,0:0|0:0,0:0:0:0:
200,160,247825,1,0,1:0:0:0:
358,12,248193,1,2,3:0:0:0:
429,256,248560,2,0,P|439:302|435:322,1,53.9999983520508,0|0,0:0|0:0,0:0:0:0:
344,362,248928,2,0,P|334:316|338:296,1,53.9999983520508,2|0,3:0|0:0,0:0:0:0:
341,201,249295,2,0,L|518:221,1,161.999995056153,2|0,1:2|0:0,0:0:0:0:
452,123,250030,6,0,L|275:103,1,161.999995056153,2|0,0:0|0:0,0:0:0:0:
200,46,250765,2,0,B|147:140|147:140|156:196,1,161.999995056153,2|0,1:2|0:0,0:0:0:0:
184,296,251500,2,0,B|291:294|291:294|335:259,1,161.999995056153,2|0,0:0|0:0,0:0:0:0:
408,184,252234,2,0,B|353:91|353:91|300:70,1,161.999995056153,2|0,1:2|0:0,0:0:0:0:
199,37,252969,6,0,P|139:30|83:55,1,107.999996704102,2|2,0:0|3:0,0:0:0:0:
46,256,253704,1,0,1:0:0:0:
17,151,253888,1,0,0:0:0:0:
55,281,254072,1,2,0:0:0:0:
209,129,254439,2,0,L|193:66,1,53.9999983520508,0|0,0:0|0:0,0:0:0:0:
302,92,254806,2,0,L|318:155,1,53.9999983520508,2|0,3:0|0:0,0:0:0:0:
310,253,255174,2,0,P|378:240|413:186,1,107.999996704102,2|2,1:2|3:0,0:0:0:0:
417,106,255725,1,0,0:0:0:0:
492,259,255909,6,0,L|472:369,1,107.999996704102,2|2,0:0|3:0,0:0:0:0:
294,244,256643,2,0,L|314:134,1,107.999996704102,0|2,1:0|3:0,0:0:0:0:
417,106,257195,1,0,0:0:0:0:
492,259,257378,2,0,L|477:339,2,53.9999983520508,0|0|2,0:0|0:0|3:0,0:0:0:0:
313,137,258113,2,0,L|294:244,1,107.999996704102,0|2,1:0|3:0,0:0:0:0:
270,349,258664,1,0,0:0:0:0:
178,221,258848,6,0,P|113:213|31:257,1,161.999995056153,4|0,0:0|0:0,0:0:0:0:
3,362,259583,1,0,1:0:0:0:
3,146,259950,1,2,3:0:0:0:
144,309,260318,2,0,P|209:320|224:315,1,53.9999983520508,0|0,0:0|0:0,0:0:0:0:
302,309,260685,2,0,P|355:270|362:256,1,53.9999983520508,2|0,3:0|0:0,0:0:0:0:
400,186,261053,2,0,L|446:293,1,107.999996704102,2|2,1:2|3:0,0:0:0:0:
486,383,261604,1,0,0:0:0:0:
509,216,261787,6,0,L|463:109,1,107.999996704102,2|2,0:0|3:0,0:0:0:0:
264,37,262522,2,0,B|183:5|183:68|104:37,1,161.999995056153,2|0,1:2|0:0,0:0:0:0:
159,132,263257,2,0,B|239:163|239:100|318:132,1,161.999995056153,2|0,0:0|0:0,0:0:0:0:
264,227,263992,2,0,B|183:258|183:195|104:227,1,161.999995056153,2|0,1:2|0:0,0:0:0:0:
30,302,264727,5,2,0:0:0:0:
159,132,265094,1,2,3:0:0:0:
196,345,265462,1,0,1:0:0:0:
297,308,265645,1,0,0:0:0:0:
171,355,265829,1,2,0:0:0:0:
101,150,266196,1,0,0:0:0:0:
0,187,266380,1,0,0:0:0:0:
126,140,266564,2,0,L|201:154,1,53.9999983520508,2|0,3:0|0:0,0:0:0:0:
312,175,266931,2,0,P|386:175|452:111,1,161.999995056153,2|0,1:2|0:0,0:0:0:0:
483,16,267666,6,0,B|463:123|463:123|509:227,2,215.999993408203,2|0|0,0:0|1:0|0:0,0:0:0:0:
380,52,269320,1,0,0:0:0:0:
277,84,269503,2,0,L|202:68,1,53.9999983520508,2|0,3:0|0:0,0:0:0:0:
88,45,269871,2,0,P|67:106|77:159,1,107.999996704102,0|2,1:0|3:0,0:0:0:0:
113,248,270422,1,0,0:0:0:0:
256,176,270591,6,0,P|328:176|416:236,1,161.999995056153,4|0,0:0|0:0,0:0:0:0:
440,324,271325,1,0,1:0:0:0:
456,108,271693,1,2,3:0:0:0:
296,256,272060,2,0,P|248:264|228:260,2,53.9999983520508,0|0|2,0:0|0:0|3:0,0:0:0:0:
308,40,272795,2,0,P|256:32|204:52,1,107.999996704102,2|2,1:2|3:0,0:0:0:0:
136,132,273346,1,0,0:0:0:0:
268,172,273530,6,0,B|276:224|276:224|252:292,1,107.999996704102,2|2,0:0|3:0,0:0:0:0:
64,376,274265,2,0,L|36:204,1,161.999995056153,2|0,1:2|0:0,0:0:0:0:
132,272,275000,2,0,L|104:100,1,161.999995056153,2|0,0:0|0:0,0:0:0:0:
200,168,275734,2,0,L|172:-4,1,161.999995056153,2|0,1:2|0:0,0:0:0:0:
272,52,276469,6,0,P|316:80|376:76,1,107.999996704102,2|2,0:0|3:0,0:0:0:0:
468,272,277204,2,0,L|484:212,1,53.9999983520508,0|0,1:0|0:0,0:0:0:0:
508,116,277572,1,2,0:0:0:0:
312,204,277939,2,0,L|328:264,1,53.9999983520508,0|0,0:0|0:0,0:0:0:0:
352,360,278306,1,2,3:0:0:0:
396,80,278674,2,0,P|348:56|288:60,1,107.999996704102,2|2,1:2|3:0,0:0:0:0:
220,136,279225,1,0,0:0:0:0:
148,56,279409,6,0,P|79:59|0:172,2,215.999993408203,2|0|0,0:0|1:0|0:0,0:0:0:0:
220,136,281062,1,0,0:0:0:0:
108,216,281246,2,0,L|124:276,1,53.9999983520508,2|0,3:0|0:0,0:0:0:0:
276,316,281613,2,0,L|448:276,1,161.999995056153,0|0,1:0|0:0,0:0:0:0:
492,152,282353,6,0,P|444:136|340:172,1,161.999995056153,4|0,0:0|0:0,0:0:0:0:
300,268,283087,1,0,1:0:0:0:
196,80,283455,1,2,3:0:0:0:
124,284,283822,1,0,0:0:0:0:
20,252,284006,1,0,0:0:0:0:
136,292,284190,1,2,3:0:0:0:
32,260,284373,1,0,0:0:0:0:
192,208,284557,2,0,L|356:244,1,161.999995056153,2|0,1:2|0:0,0:0:0:0:
348,136,285292,6,0,L|233:110,1,107.999996704102,2|2,0:0|3:0,0:0:0:0:
32,68,286027,2,0,P|8:120|40:216,1,161.999995056153,2|0,1:2|0:0,0:0:0:0:
114,138,286762,2,0,P|166:114|262:146,1,161.999995056153,2|0,0:0|0:0,0:0:0:0:
184,221,287496,2,0,P|208:273|176:369,1,161.999995056153,2|0,1:2|0:0,0:0:0:0:
102,290,288231,6,0,L|62:182,1,107.999996704102,2|2,0:0|3:0,0:0:0:0:
248,76,288966,1,0,1:0:0:0:
148,40,289150,1,0,0:0:0:0:
268,84,289334,2,0,L|352:64,1,53.9999983520508,2|0,0:0|0:0,0:0:0:0:
424,44,289701,2,0,P|472:88|476:188,1,161.999995056153,0|0,0:0|0:0,0:0:0:0:
404,256,290436,2,0,B|323:287|323:224|244:256,1,161.999995056153,2|0,1:2|0:0,0:0:0:0:
176,336,291171,5,2,0:0:0:0:
404,256,291538,1,2,3:0:0:0:
92,184,291905,1,0,1:0:0:0:
292,100,292273,2,0,L|304:160,1,53.9999983520508,2|0,3:0|0:0,0:0:0:0:
324,260,292640,1,0,0:0:0:0:
216,240,292824,1,0,0:0:0:0:
344,264,293008,1,2,3:0:0:0:
492,108,293375,2,0,L|480:48,1,53.9999983520508,0|0,1:0|0:0,0:0:0:0:
376,24,293743,2,0,L|364:84,1,53.9999983520508,2|0,3:0|0:0,0:0:0:0:
332,220,294092,6,0,P|272:248|176:232,1,161.999995056153,4|0,0:0|0:0,0:0:0:0:
96,164,294826,1,0,1:0:0:0:
188,360,295194,1,2,3:0:0:0:
248,96,295561,1,0,0:0:0:0:
352,72,295745,1,0,0:0:0:0:
252,80,295929,1,2,3:0:0:0:
356,56,296112,1,0,0:0:0:0:
184,8,296296,2,0,L|76:36,1,107.999996704102,2|2,1:2|3:0,0:0:0:0:
24,128,296847,1,0,0:0:0:0:
24,128,297031,6,0,L|132:156,1,107.999996704102,2|2,0:0|3:0,0:0:0:0:
332,84,297766,2,0,B|448:108|448:108|400:120,1,161.999995056153,2|0,1:2|0:0,0:0:0:0:
272,152,298501,2,0,B|156:176|156:176|204:188,1,161.999995056153,2|0,0:0|0:0,0:0:0:0:
332,220,299235,2,0,B|448:244|448:244|400:256,1,161.999995056153,2|0,1:2|0:0,0:0:0:0:
272,288,299970,6,0,P|245:242|264:164,1,107.999996704102,2|2,0:0|3:0,0:0:0:0:
512,120,300705,1,0,1:0:0:0:
316,24,301073,1,2,0:0:0:0:
396,224,301440,2,0,L|384:288,1,53.9999983520508,0|0,0:0|0:0,0:0:0:0:
360,384,301807,1,2,3:0:0:0:
184,256,302175,2,0,P|114:248|33:316,1,161.999995056153,2|0,1:2|0:0,0:0:0:0:
136,356,302910,5,2,0:0:0:0:
240,336,303093,1,0,0:0:0:0:
344,316,303277,1,2,3:0:0:0:
92,224,303644,1,0,1:0:0:0:
304,180,304012,2,0,L|376:196,1,53.9999983520508,2|0,3:0|0:0,0:0:0:0:
460,216,304379,5,0,0:0:0:0:
440,112,304563,1,0,0:0:0:0:
420,8,304747,1,2,3:0:0:0:
332,268,305114,1,0,1:0:0:0:
184,108,305482,2,0,L|112:124,1,53.9999983520508,2|0,3:0|0:0,0:0:0:0:
80,28,305843,6,0,L|195:2,1,107.999996704102,4|2,0:0|3:0,0:0:0:0:
424,132,306577,1,0,1:0:0:0:
232,29,306945,1,2,3:0:0:0:
152,228,307312,1,0,0:0:0:0:
236,296,307496,1,0,0:0:0:0:
252,188,307680,1,2,3:0:0:0:
112,352,308047,2,0,B|56:368|56:368|8:352,1,107.999996704102,2|2,1:2|3:0,0:0:0:0:
0,244,308598,1,0,0:0:0:0:
96,196,308782,6,0,B|152:180|152:180|200:196,1,107.999996704102,2|2,0:0|3:0,0:0:0:0:
344,356,309517,2,0,P|412:360|384:288,1,161.999995056153,2|0,1:2|0:0,0:0:0:0:
360,188,310252,2,0,P|329:127|281:187,1,161.999995056153,2|0,0:0|0:0,0:0:0:0:
206,258,310986,2,0,P|168:314|244:326,1,161.999995056153,2|0,1:2|0:0,0:0:0:0:
328,276,311721,6,0,P|388:268|480:348,1,161.999995056153,2|0,0:0|0:0,0:0:0:0:
374,378,312456,1,0,1:0:0:0:
304,172,312824,1,2,0:0:0:0:
148,320,313191,2,0,L|84:308,1,53.9999983520508,0|0,0:0|0:0,0:0:0:0:
44,212,313558,1,2,3:0:0:0:
43,212,313926,2,0,L|149:192,1,107.999996704102,2|2,1:2|3:0,0:0:0:0:
256,168,314477,1,0,0:0:0:0:
152,80,314661,6,0,L|46:99,1,107.999996704102,2|2,0:0|3:0,0:0:0:0:
164,280,315395,2,0,L|269:260,1,107.999996704102,0|2,1:0|3:0,0:0:0:0:
376,240,315947,1,0,0:0:0:0:
336,340,316130,2,0,L|261:353,1,53.9999983520508,0|0,0:0|0:0,0:0:0:0:
176,368,316498,1,2,3:0:0:0:
212,156,316865,1,0,1:0:0:0:
336,340,317233,2,0,L|410:326,1,53.9999983520508,2|0,3:0|0:0,0:0:0:0:
472,260,317599,6,0,P|488:196|432:96,1,161.999995056153,4|0,0:0|0:0,0:0:0:0:
360,56,318334,1,0,1:0:0:0:
256,244,318702,1,2,3:0:0:0:
152,56,319069,2,0,L|132:116,1,53.9999983520508,0|0,0:0|0:0,0:0:0:0:
96,208,319437,1,2,3:0:0:0:
24,128,319621,1,0,0:0:0:0:
152,56,319805,2,0,P|200:50|256:82,1,107.999996704102,2|2,1:2|3:0,0:0:0:0:
316,164,320357,1,0,0:0:0:0:
224,216,320540,6,0,P|175:221|119:189,1,107.999996704102,2|2,0:0|3:0,0:0:0:0:
312,84,321276,2,0,L|484:104,1,161.999995056153,2|0,1:2|0:0,0:0:0:0:
488,208,322011,2,0,L|316:188,1,161.999995056153,2|0,0:0|0:0,0:0:0:0:
280,288,322747,2,0,L|452:308,1,161.999995056153,2|0,1:2|0:0,0:0:0:0:
488,208,323482,6,0,P|500:144|480:96,1,107.999996704102,2|2,0:0|3:0,0:0:0:0:
236,4,324218,1,0,1:0:0:0:
384,160,324586,1,2,0:0:0:0:
224,308,324953,2,0,L|160:292,1,53.9999983520508,0|0,0:0|0:0,0:0:0:0:
64,268,325321,1,2,3:0:0:0:
244,152,325689,2,0,P|312:148|384:208,1,161.999995056153,2|0,1:2|0:0,0:0:0:0:
420,304,326424,6,0,P|471:262|448:124,1,215.999993408203,2|0,0:0|1:0,0:0:0:0:
364,64,327344,1,0,0:0:0:0:
464,20,327527,2,0,L|516:32,1,53.9999983520508,2|0,3:0|0:0,0:0:0:0:
344,72,327895,2,0,L|292:60,1,53.9999983520508,0|0,0:0|0:0,0:0:0:0:
184,36,328263,1,2,3:0:0:0:
292,284,328631,1,0,1:0:0:0:
96,192,328998,2,0,L|148:180,1,53.9999983520508,2|0,3:0|0:0,0:0:0:0:
256,156,329366,5,0,0:0:0:0:
212,368,329734,1,2,3:0:0:0:
44,112,330102,1,0,1:0:0:0:
0,324,330469,2,0,L|72:308,1,53.9999983520508,2|0,3:0|0:0,0:0:0:0:
160,292,330837,5,0,0:0:0:0:
312,336,331021,1,0,0:0:0:0:
214,211,331205,1,2,3:0:0:0:
219,369,331389,1,0,0:0:0:0:
307,237,331573,1,0,1:0:0:0:
307,237,331940,1,0,1:0:0:0:
160,292,332124,1,0,1:0:0:0:
332,228,332308,6,0,P|392:216|480:280,1,161.999995056153,4|2,0:0|0:0,0:0:0:0:
312,368,333779,1,0,0:0:0:0:
204,348,334147,1,0,0:0:0:0:
316,88,334514,1,0,1:0:0:0:
316,88,335250,6,0,P|253:135|174:127,1,161.999995056153,4|0,3:0|0:0,0:0:0:0:
148,144,337456,2,0,L|128:220,1,53.9999983520508,2|0,0:0|0:0,0:0:0:0:
112,304,338192,6,0,B|193:336|193:273|274:304,1,161.999995056153,4|2,3:0|0:0,0:0:0:0:
424,340,339663,1,0,0:0:0:0:
508,276,340030,1,0,0:0:0:0:
240,184,340398,1,0,1:0:0:0:
240,184,341134,6,0,P|256:132|200:44,1,161.999995056153,4|0,3:0|0:0,0:0:0:0:
176,32,343340,2,0,L|152:92,1,53.9999983520508,2|0,0:0|0:0,0:0:0:0:
72,244,344076,6,0,P|60:280|60:300,1,45,2|0,0:0|0:0,0:0:0:0:
148,296,344443,2,0,P|164:329|179:344,1,45,2|0,0:0|0:0,0:0:0:0:
238,279,344811,2,0,P|274:291|294:291,1,45,2|0,0:0|0:0,0:0:0:0:
289,203,345179,2,0,P|322:186|337:171,1,45,2|0,0:0|0:0,0:0:0:0:
252,88,345547,6,0,L|200:80,1,45,2|0,0:0|0:0,0:0:0:0:
376,36,345914,2,0,L|420:42,1,45,2|0,0:0|0:0,0:0:0:0:
492,264,346282,1,0,1:0:0:0:
480,280,346650,2,0,L|435:273,1,45,2|0,0:0|0:0,0:0:0:0:
308,252,347017,6,0,P|296:280|292:308,1,45,2|0,0:0|0:0,0:0:0:0:
244,160,347385,2,0,P|238:138|229:117,1,45,2|0,0:0|0:0,0:0:0:0:
200,316,347753,2,0,P|211:344|228:366,1,45,2|0,0:0|0:0,0:0:0:0:
89,296,348121,2,0,P|69:284|48:276,1,45,2|0,0:0|0:0,0:0:0:0:
308,252,348488,6,0,L|376:236,1,45,2|0,0:0|0:0,0:0:0:0:
192,188,348856,2,0,L|124:172,1,45,2|0,0:0|0:0,0:0:0:0:
328,128,349224,2,0,L|396:112,1,45,2|0,0:0|0:0,0:0:0:0:
172,64,349592,2,0,L|104:48,1,45,2|0,0:0|0:0,0:0:0:0:
383,1,349959,6,0,P|440:0|480:24,1,90,2|2,0:0|0:0,0:0:0:0:
508,120,350511,1,0,0:0:0:0:
492,148,350695,2,0,L|504:196,1,45,2|0,0:0|0:0,0:0:0:0:
416,320,351063,2,0,L|404:272,1,45,2|0,0:0|0:0,0:0:0:0:
318,148,351430,6,0,L|306:196,1,45,2|0,0:0|0:0,0:0:0:0:
252,360,351798,1,2,0:0:0:0:
148,328,351982,1,0,0:0:0:0:
384,264,352166,2,0,P|432:260|484:284,1,90,0|2,1:0|0:0,0:0:0:0:
416,372,352717,1,0,0:0:0:0:
360,232,352901,6,0,L|348:180,1,45,2|0,0:0|0:0,0:0:0:0:
424,48,353269,2,0,L|436:100,1,45,2|0,0:0|0:0,0:0:0:0:
332,256,353637,2,0,L|300:212,1,45,2|0,0:0|0:0,0:0:0:0:
308,40,354004,2,0,L|339:83,1,45,2|0,0:0|0:0,0:0:0:0:
315,289,354372,2,0,L|269:261,1,45,2|0,0:0|0:0,0:0:0:0:
200,100,354740,2,0,L|245:127,1,45,2|0,0:0|0:0,0:0:0:0:
312,326,355108,2,0,L|259:318,1,45,2|0,0:0|0:0,0:0:0:0:
120,204,355475,2,0,L|172:211,1,45,2|0,0:0|0:0,0:0:0:0:
400,240,355843,6,0,L|368:72,1,161.999995056153,4|2,3:0|0:0,0:0:0:0:
168,20,357314,1,0,0:0:0:0:
132,120,357682,1,0,0:0:0:0:
176,0,358050,1,0,0:0:0:0:
252,204,358785,6,0,L|220:372,1,161.999995056153,4|0,3:0|0:0,0:0:0:0:
12,308,360624,1,0,0:0:0:0:
32,296,360991,2,0,P|48:264|48:240,1,53.9999983520508,2|0,0:0|0:0,0:0:0:0:
8,144,361727,6,0,P|59:133|148:194,1,161.999995056153,4|2,3:0|0:0,0:0:0:0:
208,336,363198,1,0,0:0:0:0:
312,300,363566,1,0,0:0:0:0:
184,344,363933,1,0,0:0:0:0:
276,148,364669,6,0,B|357:116|357:179|438:148,1,161.999995056153,4|0,3:0|0:0,0:0:0:0:
452,128,366875,2,0,L|432:72,1,53.9999983520508,2|0,0:0|0:0,0:0:0:0:
308,16,367611,6,0,P|236:8|156:52,1,161.999995056153,4|2,3:0|0:0,0:0:0:0:
136,192,369082,1,0,0:0:0:0:
32,168,369449,1,0,0:0:0:0:
158,196,369817,1,0,0:0:0:0:
158,196,370553,6,0,P|230:188|310:232,1,161.999995056153,4|0,3:0|0:0,0:0:0:0:
328,252,372759,2,0,L|384:232,1,53.9999983520508,2|0,0:0|0:0,0:0:0:0:
476,188,373495,6,0,P|484:136|424:44,1,161.999995056153,4|2,3:0|0:0,0:0:0:0:
272,20,374966,1,0,0:0:0:0:
172,60,375333,1,0,0:0:0:0:
296,8,375701,1,0,0:0:0:0:
296,8,376436,6,0,L|268:180,1,161.999995056153,4|0,3:0|0:0,0:0:0:0:
256,188,378643,2,0,L|244:116,1,53.9999983520508,2|0,0:0|0:0,0:0:0:0:
256,192,379378,12,0,385262,3:0:0:0:
