osu file format v14

[General]
AudioFilename: audio.mp3
AudioLeadIn: 0
PreviewTime: 16176
Countdown: 0
SampleSet: Soft
StackLeniency: 0.4
Mode: 0
LetterboxInBreaks: 0
WidescreenStoryboard: 1

[Editor]
Bookmarks: 18461,36747,55033,73318,109890,128176,164747,183033,210461,219604
DistanceSpacing: 0.9
BeatDivisor: 2
GridSize: 4
TimelineZoom: 1.1

[Metadata]
Title:Midnight City
TitleUnicode:Midnight City
Artist:M83
ArtistUnicode:M83
Creator:_orange
Version:squirrelp's Expert
Source:
Tags:hurry up we're dreaming anthony gonzalez synthpop electronic huwd mute naive english renumi hewwo ralsei mimari reform kujinn squirrelpascals saturnalize
BeatmapID:2067057
BeatmapSetID:871651

[Difficulty]
HPDrainRate:5
CircleSize:5.5
OverallDifficulty:8
ApproachRate:9.3
SliderMultiplier:1.45
SliderTickRate:1

[Events]
//Background and Video events
0,0,"bg.jpg",0,0
//Break Periods
2,128376,136747
//Storyboard Layer 0 (Background)
//Storyboard Layer 1 (Fail)
//Storyboard Layer 2 (Pass)
//Storyboard Layer 3 (Foreground)
//Storyboard Layer 4 (Overlay)
//Storyboard Sound Samples

[TimingPoints]
9319,571.428571428571,4,2,1,50,1,0
9319,-333.333333333333,4,2,1,50,0,0
11033,-100,4,2,1,50,0,0
11604,-333.333333333333,4,2,1,50,0,0
13318,-100,4,2,1,50,0,0
14318,-333.333333333333,4,2,1,50,0,0
16176,-37.037037037037,4,2,1,80,0,0
16747,-43.4782608695652,4,2,1,80,0,0
18461,-40,4,2,1,80,0,0
36747,-666.666666666667,4,2,1,50,0,0
39033,-666.666666666667,4,2,1,50,0,0
42461,-500,4,2,1,50,0,0
45890,-666.666666666667,4,2,1,50,0,0
51604,-500,4,2,1,50,0,0
52747,-37.037037037037,4,2,1,80,0,0
53318,-43.4782608695652,4,2,1,80,0,0
55033,-40,4,2,1,80,0,0
73318,-333.333333333333,4,2,1,60,0,0
75604,-666.666666666667,4,2,1,60,0,0
80176,-500,4,2,1,60,0,0
84747,-666.666666666667,4,2,1,60,0,0
88461,-500,4,2,1,60,0,0
91604,-666.666666666667,4,2,1,60,0,0
95033,-500,4,2,1,60,0,0
107604,-37.037037037037,4,2,1,80,0,0
108176,-43.4782608695652,4,2,1,80,0,0
109890,-40,4,2,1,80,0,0
128176,-100,4,2,1,50,0,0
137318,-666.666666666667,4,2,1,50,0,0
143318,-500,4,2,1,50,0,0
144176,-666.666666666667,4,2,1,50,0,0
148747,-400,4,2,1,50,0,0
152176,-500,4,2,1,50,0,0
153318,-400,4,2,1,50,0,0
156747,-333.333333333333,4,2,1,50,0,0
162461,-37.037037037037,4,2,1,80,0,0
163033,-43.4782608695652,4,2,1,80,0,0
164747,-40,4,2,1,80,0,0
167604,-35.7142857142857,4,2,1,80,0,0
169318,-40,4,2,1,80,0,0
171033,-35.7142857142857,4,2,1,80,0,0
172318,-40,4,2,1,80,0,0
176747,-35.7142857142857,4,2,1,80,0,0
178461,-40,4,2,1,80,0,0
180747,-35.7142857142857,4,2,1,80,0,0
181461,-40,4,2,1,80,0,0
183033,-37.037037037037,4,2,1,80,0,1
197318,-34.4827586206897,4,2,1,80,0,1
197747,-37.037037037037,4,2,1,80,0,1
199033,-34.4827586206897,4,2,1,80,0,1
203461,-66.6666666666667,4,2,1,80,0,1
203533,-66.6666666666667,4,2,1,40,0,1
203604,-34.4827586206897,4,2,1,80,0,1
204533,-34.4827586206897,4,2,1,40,0,1
204604,-34.4827586206897,4,2,1,80,0,1
206461,-40,4,2,1,80,0,1
207033,-37.037037037037,4,2,1,80,0,1
207604,-34.4827586206897,4,2,1,80,0,1
208176,-37.037037037037,4,2,1,80,0,1
208890,-40,4,2,1,80,0,1
211033,-34.4827586206897,4,2,1,80,0,1
211604,-40,4,2,1,80,0,1
213033,-34.4827586206897,4,2,1,80,0,1
215033,-40,4,2,1,80,0,1
215676,-40,4,2,1,40,0,1
215747,-37.037037037037,4,2,1,80,0,1
217318,-31.25,4,2,1,80,0,1
218461,-40,4,2,1,80,0,1
219604,-40,4,2,1,80,0,0
221890,-100,4,2,1,70,0,0
224176,-100,4,2,1,60,0,0
226461,-100,4,2,1,50,0,0
228747,-100,4,2,1,40,0,0

[Colours]
Combo1 : 232,146,17
Combo2 : 128,128,128
Combo3 : 192,192,192
Combo4 : 240,54,0

[HitObjects]
371,342,9319,6,0,L|368:368,1,21.7499993362427,2|0,0:0|0:0,0:0:0:0:
440,311,9747,2,0,L|449:333,1,21.7499993362427,2|0,0:0|0:0,0:0:0:0:
376,244,10176,2,0,L|376:272,1,21.7499993362427,2|0,0:0|0:0,0:0:0:0:
441,215,10604,2,0,L|455:234,1,21.7499993362427,2|0,0:0|0:0,0:0:0:0:
371,156,11033,6,0,P|333:159|300:170,1,72.5,2|2,0:0|0:0,0:0:0:0:
118,242,11604,38,0,L|106:260,1,21.7499993362427,2|0,0:0|0:0,0:0:0:0:
41,204,12033,2,0,L|41:225,1,21.7499993362427,2|0,0:0|0:0,0:0:0:0:
89,140,12461,2,0,L|88:160,1,10.8749996681213,2|0,0:0|0:0,0:0:0:0:
29,76,12747,2,0,L|34:107,1,21.7499993362427,2|0,0:0|0:0,0:0:0:0:
151,79,13318,6,0,L|158:6,1,72.5,2|0,0:0|0:0,0:0:0:0:
164,11,13890,1,2,0:0:0:0:
368,66,14318,38,0,L|389:73,1,21.7499993362427,2|0,0:0|0:0,0:0:0:0:
466,51,14747,2,0,L|471:75,1,21.7499993362427,2|0,0:0|0:0,0:0:0:0:
442,136,15176,2,0,L|439:178,1,32.624999004364,2|2,0:0|0:0,0:0:0:0:
435,234,16176,22,0,B|433:264|455:265|452:291|452:291|450:335,2,97.8750003733635,4|8|8,3:2|0:3|0:3,0:0:0:0:
499,373,16604,1,0,3:0:0:0:
356,354,16747,2,0,P|316:359|257:388,1,83.375001590252,10|0,0:3|3:0,0:0:0:0:
369,335,17033,1,0,3:0:0:0:
195,258,17176,1,10,0:3:0:0:
225,331,17318,1,0,3:0:0:0:
225,331,17604,5,0,3:0:0:0:
234,328,17747,1,0,3:0:0:0:
292,281,17890,1,10,0:3:0:0:
294,189,18032,1,8,0:3:0:0:
297,98,18175,1,8,0:3:0:0:
300,7,18318,1,8,0:3:0:0:
468,76,18461,38,0,P|371:122|172:123,1,271.875,0|0,3:2|0:0,0:0:0:0:
140,182,19033,2,0,P|160:221|162:286,2,90.625,2|0|0,1:2|0:0|0:0,0:0:0:0:
63,19,19461,2,0,P|33:105|38:213,1,181.25,2|0,0:2|0:0,0:0:0:0:
178,251,19890,2,0,P|225:261|264:306,1,90.625,0|0,0:0|0:0,0:0:0:0:
4,384,20176,2,0,P|78:350|177:338,1,181.25,2|0,1:2|0:0,0:0:0:0:
441,384,20747,6,0,B|431:251|431:251|458:200,1,181.25,0|0,3:2|0:0,0:0:0:0:
512,169,21176,1,0,0:0:0:0:
372,217,21318,2,0,L|359:89,1,90.625,2|2,1:2|0:1,0:0:0:0:
439,0,21604,1,8,0:1:0:0:
431,72,21747,1,2,0:2:0:0:
363,127,21890,38,0,P|318:108|268:111,1,90.625,0|0,3:2|0:0,0:0:0:0:
128,220,22176,2,0,P|178:187|221:190,1,90.625,2|2,0:1|0:1,0:0:0:0:
113,92,22461,2,0,L|105:-3,2,90.625,2|4|0,1:2|0:1|0:0,0:0:0:0:
147,336,23033,6,0,P|253:345|357:393,1,181.25,0|0,3:0|0:0,0:0:0:0:
404,330,23461,1,0,0:0:0:0:
300,163,23604,2,0,P|276:260|287:362,1,181.25,2|0,1:2|0:0,0:0:0:0:
485,290,24033,2,0,P|489:199|466:112,1,181.25,2|0,0:2|0:0,0:0:0:0:
374,202,24461,2,0,P|331:195|300:163,1,90.625,0|0,0:0|3:0,0:0:0:0:
292,27,24747,38,0,L|89:43,1,181.25,2|0,1:2|3:0,0:0:0:0:
381,16,25318,1,0,3:0:0:0:
251,68,25604,5,2,0:1:0:0:
174,60,25746,1,2,0:1:0:0:
99,55,25889,1,2,1:2:0:0:
24,49,26032,1,4,0:1:0:0:
38,237,26318,38,0,P|99:254|123:361,1,181.25,2|0,0:2|0:0,0:0:0:0:
36,355,26747,2,0,P|35:322|74:260,1,90.625,2|2,0:1|0:1,0:0:0:0:
224,311,27033,5,2,1:2:0:0:
235,156,27176,1,8,0:3:0:0:
224,311,27318,1,8,0:3:0:0:
235,156,27461,1,8,0:3:0:0:
293,370,27604,38,0,B|492:361|492:361|449:359|424:320,1,271.875,0|0,3:0|0:0,0:0:0:0:
474,200,28176,2,0,P|491:245|482:313,2,90.625,2|0|0,1:2|0:0|0:0,0:0:0:0:
318,124,28604,2,0,P|209:147|136:222,1,181.25,2|0,0:0|0:0,0:0:0:0:
275,290,29033,2,0,P|305:252|317:185,1,90.625,0|0,0:0|0:0,0:0:0:0:
406,1,29318,2,0,L|393:245,1,181.25,2|0,1:2|0:0,0:0:0:0:
30,51,29890,6,0,P|70:132|67:273,1,181.25,0|0,3:2|0:0,0:0:0:0:
11,282,30318,1,0,0:0:0:0:
102,368,30461,37,2,1:2:0:0:
98,290,30603,1,2,0:1:0:0:
99,214,30746,1,8,0:1:0:0:
97,139,30889,1,2,0:2:0:0:
185,202,31033,6,0,P|226:164|296:160,1,90.625,0|0,3:0|0:0,0:0:0:0:
320,312,31318,1,2,0:1:0:0:
309,312,31461,1,2,0:1:0:0:
361,384,31604,2,0,P|391:361|414:208,1,181.25,2|0,1:2|0:0,0:0:0:0:
192,21,32176,38,0,L|184:228,1,181.25,0|0,3:0|0:0,0:0:0:0:
96,140,32604,1,0,0:0:0:0:
225,81,32747,2,0,P|329:59|401:5,1,181.25,2|0,1:2|0:0,0:0:0:0:
512,75,33176,1,2,0:0:0:0:
479,162,33318,6,0,P|453:186|452:273,1,90.625,0|0,3:0|0:0,0:0:0:0:
310,258,33604,2,0,P|336:282|337:369,1,90.625,0|0,0:0|3:0,0:0:0:0:
512,371,33890,2,0,L|301:360,1,181.25,2|0,1:2|3:0,0:0:0:0:
78,320,34461,38,0,P|39:327|-10:376,1,90.625,0|0,3:2|0:0,0:0:0:0:
94,328,34747,1,2,0:1:0:0:
88,251,34889,1,2,0:1:0:0:
86,175,35032,1,2,1:2:0:0:
82,100,35175,1,4,0:1:0:0:
209,13,35461,6,0,P|318:38|406:113,1,181.25,2|0,0:2|0:0,0:0:0:0:
493,73,35890,2,0,P|492:114|463:162,1,90.625,2|2,0:1|0:1,0:0:0:0:
334,231,36176,1,10,1:2:0:0:
118,199,36318,1,8,0:3:0:0:
256,181,36461,1,8,0:3:0:0:
58,251,36604,1,8,0:3:0:0:
48,347,36747,5,0,3:0:0:0:
161,332,37176,1,0,0:0:0:0:
165,351,37318,1,0,1:0:0:0:
233,377,37604,1,0,0:0:0:0:
320,331,37890,5,2,3:2:0:0:
327,269,38176,1,2,0:2:0:0:
320,331,38461,1,2,1:2:0:0:
327,269,38747,1,2,0:2:0:0:
410,275,39033,2,0,L|404:206,1,65.2499980087281,2|0,3:2|1:0,0:0:0:0:
442,151,41318,37,0,3:0:0:0:
322,156,41747,1,0,0:0:0:0:
320,181,41890,1,0,1:0:0:0:
241,201,42176,1,0,0:0:0:0:
178,101,42461,5,2,3:2:0:0:
248,111,42747,2,0,L|257:104,1,7.25,2|0,0:0|3:0,0:0:0:0:
178,101,43033,1,2,1:2:0:0:
248,111,43318,1,2,0:0:0:0:
178,101,43604,2,0,P|153:107|137:114,1,43.5,2|2,3:2|0:2,0:0:0:0:
61,102,44747,2,0,L|62:127,1,21.75,2|0,3:2|0:0,0:0:0:0:
68,202,45318,5,2,1:2:0:0:
137,114,45461,1,8,0:3:0:0:
113,282,45604,1,10,0:3:0:0:
182,194,45747,1,8,0:3:0:0:
208,324,45890,5,0,3:2:0:0:
319,315,46318,5,0,0:0:0:0:
322,336,46461,1,0,1:2:0:0:
390,372,46747,1,2,0:2:0:0:
459,323,47033,5,2,3:2:0:0:
463,258,47604,2,0,P|464:253|467:248,1,10.8749996681213,2|2,1:2|0:2,0:0:0:0:
495,189,48176,2,0,P|491:162|474:127,1,65.2499980087281,2|0,3:2|1:0,0:0:0:0:
474,37,50461,37,0,3:0:0:0:
360,63,50890,1,0,0:0:0:0:
341,46,51033,1,0,1:0:0:0:
266,71,51318,1,0,0:0:0:0:
171,21,51604,5,2,3:2:0:0:
165,86,51890,2,0,L|158:88,1,7.25,2|0,0:2|3:0,0:0:0:0:
171,21,52176,1,2,1:2:0:0:
165,86,52462,1,2,0:2:0:0:
44,34,52747,22,0,B|42:63|64:63|65:89|65:89|63:133,2,97.8750003733635,6|8|8,3:2|0:3|0:3,0:0:0:0:
9,181,53176,1,2,3:2:0:0:
61,275,53318,2,0,P|103:250|159:244,1,83.375001590252,8|0,0:3|3:0,0:0:0:0:
277,218,53604,1,2,3:2:0:0:
212,283,53747,1,8,0:3:0:0:
377,267,53890,1,2,3:2:0:0:
368,280,54176,37,0,3:3:0:0:
359,281,54318,1,0,3:3:0:0:
245,358,54461,1,14,0:3:0:0:
320,362,54604,1,8,0:3:0:0:
397,365,54747,1,8,0:3:0:0:
474,371,54889,1,8,0:3:0:0:
511,269,55033,6,0,B|513:237|513:237|467:173|383:178,1,181.25,0|0,3:0|0:0,0:0:0:0:
383,177,55461,1,0,0:0:0:0:
298,227,55604,2,0,P|292:275|306:329,2,90.625,2|0|0,1:2|0:0|0:0,0:0:0:0:
347,5,56033,2,0,P|377:71|380:200,1,181.25,2|0,0:2|0:0,0:0:0:0:
259,161,56461,2,0,P|220:162|177:188,1,90.625,0|0,0:0|0:0,0:0:0:0:
80,6,56747,2,0,B|88:153|88:153|40:95,1,181.25,2|0,1:2|0:0,0:0:0:0:
96,241,57176,1,0,0:0:0:0:
18,320,57318,38,0,P|118:332|197:405,1,181.25,0|0,3:2|0:0,0:0:0:0:
175,384,57747,1,0,0:0:0:0:
267,348,57890,5,2,1:2:0:0:
275,272,58032,1,2,0:1:0:0:
268,197,58175,1,8,0:1:0:0:
246,125,58318,1,2,0:2:0:0:
158,101,58461,38,0,P|139:75|150:-3,1,90.625,0|0,3:0|0:0,0:0:0:0:
344,161,58747,2,0,P|341:205|364:243,1,90.625,2|2,0:1|0:1,0:0:0:0:
449,0,59033,2,0,P|494:115|483:235,1,181.25,10|0,1:2|0:0,0:0:0:0:
500,176,59461,1,0,0:0:0:0:
492,348,59604,6,0,L|311:360,1,181.25,0|0,3:0|0:0,0:0:0:0:
305,365,60033,1,0,0:0:0:0:
228,291,60176,2,0,P|253:239|258:102,1,181.25,2|0,1:2|0:0,0:0:0:0:
89,363,60604,2,0,P|59:293|61:146,1,181.25,2|0,0:2|0:0,0:0:0:0:
158,108,61033,1,0,0:0:0:0:
78,101,61176,1,0,3:0:0:0:
31,21,61318,38,0,L|242:9,1,181.25,2|0,1:2|3:0,0:0:0:0:
217,23,61747,1,0,0:0:0:0:
217,31,61890,1,0,3:0:0:0:
460,97,62176,5,2,0:1:0:0:
426,164,62318,1,2,0:1:0:0:
410,238,62461,1,2,1:2:0:0:
412,313,62604,1,4,0:1:0:0:
422,315,62747,1,0,0:0:0:0:
335,366,62890,38,0,P|306:322|168:283,1,181.25,2|0,0:2|0:0,0:0:0:0:
308,187,63318,2,0,P|308:237|270:287,1,90.625,2|2,0:1|0:1,0:0:0:0:
98,237,63604,5,10,1:2:0:0:
113,77,63747,1,8,0:3:0:0:
98,237,63890,1,8,0:3:0:0:
113,77,64033,1,8,0:3:0:0:
30,211,64176,38,0,P|0:116|2:24,1,181.25,0|0,3:0|0:0,0:0:0:0:
5,38,64604,1,0,0:0:0:0:
113,77,64747,2,0,P|150:48|205:40,2,90.625,2|0|0,1:2|0:0|0:0,0:0:0:0:
187,155,65176,2,0,P|230:208|380:218,1,181.25,2|0,0:0|0:0,0:0:0:0:
389,302,65604,2,0,P|410:278|399:176,1,90.625,0|0,0:0|0:0,0:0:0:0:
479,13,65890,2,0,P|507:116|507:198,1,181.25,2|0,1:2|0:0,0:0:0:0:
501,194,66318,1,0,0:0:0:0:
364,126,66461,6,0,P|273:129|187:154,1,181.25,0|0,3:2|0:0,0:0:0:0:
177,155,66890,1,0,0:0:0:0:
77,58,67033,37,2,1:2:0:0:
73,133,67176,1,2,0:1:0:0:
70,210,67319,1,8,0:1:0:0:
64,287,67461,1,2,0:2:0:0:
118,364,67604,6,0,P|169:355|214:325,1,90.625,0|0,3:1|0:0,0:0:0:0:
347,372,67890,1,2,0:1:0:0:
336,371,68033,1,2,0:1:0:0:
411,227,68176,2,0,P|427:294|417:347,2,90.625,10|4|0,1:2|0:1|0:0,0:0:0:0:
400,226,68604,1,0,0:0:0:0:
273,150,68747,38,0,P|276:97|394:37,1,181.25,0|0,3:0|0:0,0:0:0:0:
385,35,69176,1,0,0:1:0:0:
189,99,69318,2,0,P|107:49|1:39,1,181.25,2|0,1:2|0:0,0:0:0:0:
33,162,69747,2,0,P|35:270|2:345,1,181.25,2|0,0:2|0:0,0:0:0:0:
164,301,70176,2,0,P|142:339|142:384,1,90.625,0|0,0:0|3:0,0:0:0:0:
439,265,70461,6,0,L|443:59,1,181.25,2|0,1:2|3:0,0:0:0:0:
478,286,70890,1,0,0:0:0:0:
464,288,71033,1,0,3:0:0:0:
402,24,71318,37,2,0:1:0:0:
404,91,71461,1,2,0:1:0:0:
407,161,71604,1,2,1:2:0:0:
412,231,71746,1,4,0:1:0:0:
398,232,71890,1,0,0:0:0:0:
326,318,72033,6,0,P|236:332|158:392,1,181.25,2|0,0:0|0:0,0:0:0:0:
17,267,72461,2,0,P|43:335|34:372,1,90.625,2|2,0:1|0:1,0:0:0:0:
148,278,72747,1,10,1:2:0:0:
173,87,72890,1,8,0:3:0:0:
187,211,73033,1,8,0:3:0:0:
92,18,73176,1,8,0:3:0:0:
0,57,73318,6,0,P|5:77|6:94,1,32.624999004364,0|0,3:0|0:0,0:0:0:0:
4,98,73890,1,0,1:0:0:0:
6,105,74176,1,0,0:0:0:0:
87,141,74461,5,2,3:2:0:0:
150,129,74747,1,2,0:2:0:0:
87,141,75033,1,2,1:2:0:0:
150,129,75319,1,2,0:2:0:0:
211,182,75604,2,0,P|200:210|198:244,1,65.2499980087281,2|0,3:2|1:0,0:0:0:0:
264,288,77890,2,0,P|275:283|295:280,1,32.624999004364,0|0,3:0|0:0,0:0:0:0:
381,229,79033,37,2,3:2:0:0:
388,164,79318,1,2,0:2:0:0:
381,229,79604,1,2,1:2:0:0:
388,164,79889,1,2,0:2:0:0:
454,275,80176,2,0,P|446:299|447:320,1,43.5,2|2,3:2|0:2,0:0:0:0:
392,376,81318,2,0,P|377:370|366:368,1,21.75,2|0,3:2|0:0,0:0:0:0:
305,370,81890,21,2,1:2:0:0:
197,291,82033,1,8,0:3:0:0:
220,365,82176,1,10,0:3:0:0:
114,289,82319,1,8,0:3:0:0:
27,360,82461,5,0,3:0:0:0:
36,249,82890,5,0,0:0:0:0:
23,249,83033,1,0,1:0:0:0:
67,173,83318,1,0,0:0:0:0:
20,87,83604,5,2,3:2:0:0:
13,22,83890,1,2,0:2:0:0:
20,87,84176,1,2,1:2:0:0:
13,22,84462,1,2,0:2:0:0:
106,56,84747,2,0,P|123:66|170:75,1,65.2499980087281,2|0,3:2|1:0,0:0:0:0:
238,105,87033,38,0,P|241:89|250:74,1,32.624999004364,0|0,3:0|0:0,0:0:0:0:
339,26,88176,1,2,3:2:0:0:
408,35,88461,2,0,P|412:31|419:28,1,7.25,2|0,0:2|3:0,0:0:0:0:
339,26,88747,1,2,1:2:0:0:
408,35,89033,1,2,0:2:0:0:
447,112,89318,2,0,B|447:139|457:128|456:157,1,43.5,2|2,3:2|0:2,0:0:0:0:
412,243,90461,2,0,P|422:238|432:237,1,21.75,2|0,3:2|0:0,0:0:0:0:
480,284,91033,21,2,1:2:0:0:
337,299,91176,1,8,0:3:0:0:
484,297,91318,1,8,0:3:0:0:
391,384,91461,1,8,0:3:0:0:
285,366,91604,5,0,3:0:0:0:
226,270,91890,5,2,0:2:0:0:
216,271,92033,1,0,0:0:0:0:
273,196,92318,1,2,0:2:0:0:
282,198,92461,1,0,0:0:0:0:
146,143,92747,5,2,3:2:0:0:
74,149,93033,1,2,0:2:0:0:
146,143,93318,2,0,P|154:140|166:138,1,10.8749996681213,2|0,3:2|0:0,0:0:0:0:
56,254,93890,2,0,P|49:275|48:285,1,32.624999004364,2|0,3:2|0:0,0:0:0:0:
55,362,95033,2,0,B|78:363|77:347|98:348,1,43.5,2|2,3:2|0:2,0:0:0:0:
158,365,96176,37,0,3:0:0:0:
260,292,96461,1,2,0:2:0:0:
261,301,96604,1,0,0:0:0:0:
193,203,96890,1,2,0:2:0:0:
191,212,97033,1,0,0:0:0:0:
302,123,97318,5,2,3:2:0:0:
372,132,97604,2,0,P|377:129|383:128,1,7.25,2|0,0:2|3:0,0:0:0:0:
302,123,97890,1,2,1:2:0:0:
372,132,98176,1,2,0:2:0:0:
451,61,98461,38,0,P|453:52|453:36,2,21.75,2|2|2,3:2|0:2|0:2,0:0:0:0:
487,123,99604,2,0,L|489:147,1,21.75,2|0,3:2|0:0,0:0:0:0:
480,209,100176,21,2,1:2:0:0:
506,350,100318,1,8,0:3:0:0:
478,245,100461,1,8,0:3:0:0:
434,382,100604,1,8,0:3:0:0:
365,371,101318,37,8,0:3:0:0:
296,360,102461,1,10,0:3:0:0:
227,349,103605,1,2,1:2:0:0:
232,285,103890,1,2,0:2:0:0:
275,240,104176,1,2,0:2:0:0:
335,229,104462,1,2,0:2:0:0:
396,242,104747,2,0,B|406:228|405:214|405:214|408:224|421:232|428:228,1,58,0|8,1:0|0:3,0:0:0:0:
249,20,106461,37,2,0:2:0:0:
179,24,106747,1,2,0:2:0:0:
109,29,107033,1,2,1:2:0:0:
39,34,107318,1,2,0:2:0:0:
29,242,107604,38,0,B|31:217|52:222|54:197|54:197|58:134,2,97.8750003733635,6|8|8,3:2|0:3|0:3,0:0:0:0:
39,371,108033,1,2,3:2:0:0:
87,289,108176,2,0,P|119:274|205:270,1,83.375001590252,8|0,0:3|3:0,0:0:0:0:
279,384,108461,1,2,3:2:0:0:
267,384,108604,1,8,0:3:0:0:
340,333,108747,38,0,P|371:244|470:219,1,166.750003180504,2|0,3:2|3:0,0:0:0:0:
445,219,109176,1,0,3:2:0:0:
512,70,109318,1,14,0:3:0:0:
425,77,109460,1,8,0:3:0:0:
347,106,109603,1,8,0:3:0:0:
274,153,109746,1,8,0:3:0:0:
163,17,109890,6,0,P|188:90|186:218,1,181.25,0|0,3:0|0:0,0:0:0:0:
182,197,110318,1,0,0:0:0:0:
80,192,110461,2,0,P|48:166|-21:159,2,90.625,2|0|0,1:2|0:0|0:0,0:0:0:0:
107,355,110890,2,0,P|138:324|286:286,1,181.25,2|0,0:2|0:0,0:0:0:0:
397,348,111318,2,0,P|350:368|284:369,1,90.625,0|0,0:0|0:0,0:0:0:0:
303,111,111604,2,0,P|266:213|272:311,1,181.25,2|0,1:2|0:0,0:0:0:0:
277,289,112033,1,0,0:0:0:0:
496,273,112176,38,0,L|502:68,1,181.25,0|0,3:2|0:0,0:0:0:0:
491,129,112604,1,0,0:0:0:0:
373,12,112747,1,2,1:2:0:0:
281,12,112889,1,2,0:1:0:0:
196,46,113032,1,8,0:1:0:0:
136,113,113175,1,2,0:2:0:0:
216,65,113318,6,0,P|225:99|211:171,1,90.625,0|0,3:0|0:0,0:0:0:0:
25,59,113604,1,2,0:1:0:0:
11,61,113747,1,2,0:1:0:0:
5,168,113890,2,0,L|1:275,2,90.625,10|4|0,1:2|0:1|0:0,0:0:0:0:
107,269,114318,1,0,0:0:0:0:
101,360,114461,38,0,P|198:320|276:315,1,181.25,0|0,3:0|0:0,0:0:0:0:
282,321,114890,1,0,0:0:0:0:
410,203,115033,2,0,P|392:329|358:389,1,181.25,2|0,1:2|0:0,0:0:0:0:
180,194,115461,2,0,P|281:128|384:130,1,181.25,2|0,0:2|0:0,0:0:0:0:
503,165,115890,2,0,L|497:266,1,90.625,0|0,0:0|3:0,0:0:0:0:
395,16,116176,6,0,L|157:26,1,181.25,2|0,1:2|3:0,0:0:0:0:
202,28,116604,1,0,0:0:0:0:
200,37,116747,1,0,3:0:0:0:
37,110,117033,37,2,0:1:0:0:
115,116,117175,1,2,0:1:0:0:
194,123,117318,1,2,1:2:0:0:
273,130,117461,1,4,0:1:0:0:
274,141,117604,1,0,0:0:0:0:
211,221,117747,6,0,P|171:272|173:407,1,181.25,2|0,0:2|0:0,0:0:0:0:
58,350,118176,2,0,P|84:323|157:313,1,90.625,2|2,0:1|0:1,0:0:0:0:
307,365,118461,37,10,1:2:0:0:
473,261,118604,1,8,0:3:0:0:
307,365,118747,1,8,0:3:0:0:
473,261,118890,1,8,0:3:0:0:
342,307,119033,6,0,L|328:84,1,181.25,0|0,3:0|0:0,0:0:0:0:
324,126,119461,1,0,0:0:0:0:
462,38,119604,2,0,P|457:91|414:132,2,90.625,2|0|0,1:2|0:0|0:0,0:0:0:0:
319,0,120033,2,0,P|222:21|159:88,1,181.25,2|0,0:0|0:0,0:0:0:0:
179,186,120461,2,0,P|200:227|199:286,1,90.625,0|0,0:0|0:0,0:0:0:0:
39,11,120747,2,0,L|35:209,1,181.25,2|0,1:2|0:0,0:0:0:0:
26,199,121176,1,0,0:0:0:0:
45,369,121318,38,0,P|124:314|249:305,1,181.25,0|0,3:2|0:0,0:0:0:0:
204,286,121747,1,0,0:0:0:0:
361,196,121890,1,2,1:2:0:0:
374,275,122032,1,2,0:1:0:0:
337,347,122175,1,8,0:1:0:0:
260,370,122318,1,2,0:2:0:0:
367,372,122461,6,0,P|417:355|488:357,1,90.625,0|0,3:1|0:0,0:0:0:0:
512,189,122747,1,2,0:1:0:0:
500,188,122890,1,2,0:1:0:0:
485,69,123033,2,0,P|408:23|292:16,1,181.25,10|0,1:2|0:0,0:0:0:0:
316,26,123461,1,0,0:0:0:0:
135,41,123604,38,0,L|146:244,1,181.25,0|0,3:0|0:0,0:0:0:0:
135,224,124033,1,0,0:1:0:0:
267,348,124176,2,0,P|300:254|372:195,1,181.25,2|0,1:2|0:0,0:0:0:0:
380,17,124604,2,0,P|468:71|469:159,1,181.25,2|0,0:2|0:0,0:0:0:0:
291,212,125033,6,0,P|263:184|202:164,1,90.625,0|0,0:0|3:0,0:0:0:0:
488,342,125318,2,0,L|302:352,1,181.25,2|0,1:2|3:0,0:0:0:0:
285,360,125747,1,0,0:0:0:0:
286,372,125890,1,0,3:0:0:0:
36,352,126176,37,2,0:1:0:0:
34,265,126318,1,2,0:1:0:0:
63,184,126461,1,2,1:2:0:0:
131,129,126604,1,4,0:1:0:0:
132,141,126747,1,0,0:0:0:0:
183,244,126890,6,0,P|235:200|235:71,1,181.25,2|0,0:0|0:0,0:0:0:0:
38,15,127318,2,0,P|34:54|79:116,1,90.625,2|2,0:1|0:1,0:0:0:0:
246,92,127604,1,10,1:2:0:0:
453,36,127747,1,8,0:3:0:0:
295,43,127890,1,8,0:3:0:0:
502,113,128033,1,8,0:3:0:0:
512,198,128176,21,0,0:0:0:0:
480,189,137318,37,0,3:0:0:0:
474,252,137890,1,0,3:0:0:0:
468,318,138461,5,2,3:2:0:0:
398,307,138747,1,2,0:2:0:0:
468,318,139033,1,2,3:2:0:0:
398,307,139319,1,2,0:2:0:0:
315,377,139604,2,0,P|319:340|310:291,1,86.9999973449708,2|0,3:2|3:0,0:0:0:0:
310,291,142461,1,0,3:0:0:0:
138,226,143033,37,2,3:2:0:0:
130,290,143318,2,0,P|125:291|120:293,1,7.25,2|0,0:2|3:0,0:0:0:0:
138,226,143604,1,2,3:2:0:0:
130,290,143890,1,2,0:2:0:0:
61,186,144176,6,0,P|45:177|30:173,1,32.624999004364,2|2,3:2|0:2,0:0:0:0:
62,39,145318,2,0,B|59:65|70:56|68:85,1,43.4999986724854,2|0,3:2|3:0,0:0:0:0:
69,82,147033,1,0,3:0:0:0:
210,86,147604,37,2,3:2:0:0:
278,55,147890,1,2,0:2:0:0:
210,86,148176,1,2,3:2:0:0:
278,55,148462,1,2,0:2:0:0:
377,78,148747,6,0,P|370:90|365:117,1,36.25,2|2,3:2|3:2,0:0:0:0:
372,170,149604,1,2,0:2:0:0:
420,208,149890,1,2,3:2:0:0:
480,200,150176,1,2,0:2:0:0:
510,147,150461,2,0,P|509:137|499:108,1,36.25,2|0,3:2|3:0,0:0:0:0:
500,263,151604,37,0,3:0:0:0:
377,363,152176,5,2,3:2:0:0:
311,339,152461,2,0,P|313:331|312:325,1,7.25,2|0,0:2|3:0,0:0:0:0:
377,363,152747,1,2,3:2:0:0:
311,339,153032,1,2,0:2:0:0:
200,371,153318,38,0,P|183:351|153:342,1,54.375,2|2,3:2|0:2,0:0:0:0:
70,346,154461,2,0,B|73:367|47:371|56:323|66:301,1,72.5,2|0,3:2|0:0,0:0:0:0:
47,177,156747,5,2,0:2:0:0:
57,110,157033,1,2,0:2:0:0:
47,177,157318,1,2,0:2:0:0:
57,110,157604,1,2,0:2:0:0:
138,190,157890,2,0,B|174:214|189:174|253:177|289:212|288:249,1,173.999994689942,2|0,0:2|0:0,0:0:0:0:
436,28,161318,37,2,0:2:0:0:
332,38,161604,1,2,0:2:0:0:
436,28,161890,1,2,0:2:0:0:
332,38,162176,1,2,0:2:0:0:
467,95,162461,38,0,B|463:123|487:118|486:146|486:146|481:209,2,97.8750003733635,6|8|8,3:2|0:3|0:3,0:0:0:0:
418,257,162890,1,0,3:0:0:0:
511,354,163033,2,0,P|477:334|417:328,1,83.375001590252,8|0,0:3|3:3,0:0:0:0:
327,367,163318,1,2,3:2:0:0:
156,282,163461,1,10,0:3:0:0:
188,353,163604,2,0,P|219:248|278:195,1,166.750003180504,2|0,3:2|3:3,0:0:0:0:
260,225,164033,1,0,3:3:0:0:
233,82,164176,37,14,0:3:0:0:
60,120,164318,1,8,0:3:0:0:
173,22,164461,1,10,0:3:0:0:
0,60,164603,1,8,0:3:0:0:
129,198,164747,6,0,P|147:225|143:321,1,90.625,2|0,3:2|0:0,0:0:0:0:
291,89,165033,1,0,0:0:0:0:
292,77,165176,1,0,0:0:0:0:
388,20,165318,37,0,1:0:0:0:
485,78,165461,1,0,0:0:0:0:
386,115,165604,1,0,0:0:0:0:
293,65,165747,1,0,0:0:0:0:
459,164,165890,6,0,P|480:193|494:274,1,90.625,2|0,3:2|0:0,0:0:0:0:
210,312,166176,2,0,P|183:337|155:414,1,90.625,2|0,0:2|0:0,0:0:0:0:
404,349,166461,2,0,P|429:310|428:258,1,90.625,2|0,1:2|0:0,0:0:0:0:
86,321,166747,2,0,P|53:317|-20:351,1,90.625,2|0,0:2|0:0,0:0:0:0:
221,227,167033,38,0,B|227:35,1,181.25,2|0,3:2|0:0,0:0:0:0:
207,107,167461,1,0,0:0:0:0:
354,60,167604,6,0,B|367:12|397:-2|397:-2|400:15|419:41,1,101.499996902466,0|2,1:2|0:1,0:0:0:0:
494,236,167890,2,0,B|516:280|503:310|503:310|487:310|475:285,1,101.499996902466,8|4,0:1|0:1,0:0:0:0:
308,353,168176,38,0,B|244:213|346:162|305:289,1,202.999993804932,0|2,3:2|0:1,0:0:0:0:
306,366,168604,1,2,0:1:0:0:
131,372,168747,6,0,L|20:355,3,101.499996902466,8|4|0|0,1:2|0:1|0:0|0:0,0:0:0:0:
73,285,169318,38,0,P|74:255|37:188,1,90.625,0|0,3:0|0:0,0:0:0:0:
42,18,169604,1,0,0:0:0:0:
37,97,169747,1,0,0:0:0:0:
85,255,169890,6,0,P|100:215|163:175,1,90.625,0|0,1:0|0:0,0:0:0:0:
305,79,170176,1,0,0:0:0:0:
292,78,170318,1,0,0:0:0:0:
375,7,170461,38,0,L|378:135,1,90.625,2|0,3:2|0:0,0:0:0:0:
242,234,170747,1,2,0:2:0:0:
216,236,170890,1,0,3:0:0:0:
480,225,171033,6,0,L|473:365,1,101.499996902466,2|0,1:2|0:0,0:0:0:0:
144,369,171318,1,2,0:2:0:0:
98,362,171461,1,0,0:0:0:0:
125,12,171604,2,0,P|153:102|71:92,1,202.999993804932,2|2,3:2|0:1,0:0:0:0:
5,80,172033,1,2,0:1:0:0:
0,228,172176,37,8,1:1:0:0:
58,304,172318,2,0,P|153:321|237:392,1,181.25,4|0,0:1|0:0,0:0:0:0:
417,372,172747,2,0,L|544:354,3,90.625,0|0|2|2,3:2|0:0|0:1|0:1,0:0:0:0:
359,326,173318,5,8,1:2:0:0:
340,125,173461,1,8,0:3:0:0:
420,296,173604,1,8,0:3:0:0:
401,90,173747,1,8,0:3:0:0:
481,130,173890,38,0,P|495:95|492:28,1,90.625,0|0,3:0|0:0,0:0:0:0:
258,105,174176,1,0,0:0:0:0:
247,107,174318,1,0,0:0:0:0:
144,92,174461,5,0,1:0:0:0:
205,1,174604,1,0,0:0:0:0:
238,109,174747,1,0,0:0:0:0:
177,200,174890,1,0,0:0:0:0:
185,325,175033,38,0,P|149:337|98:390,1,90.625,2|0,3:2|0:0,0:0:0:0:
7,229,175318,2,0,P|9:266|47:329,1,90.625,2|0,0:2|0:0,0:0:0:0:
472,384,175604,2,0,P|442:352|384:322,1,90.625,2|0,1:2|0:0,0:0:0:0:
512,221,175890,2,0,P|478:211|444:247,1,90.625,2|0,0:2|0:0,0:0:0:0:
182,376,176176,6,0,L|170:163,1,181.25,2|0,3:2|0:0,0:0:0:0:
160,262,176604,1,0,0:0:0:0:
18,117,176747,38,0,B|41:80|82:75|82:75|80:88|93:109,1,101.499996902466,0|2,1:2|0:1,0:0:0:0:
316,1,177033,2,0,B|339:38|380:43|380:43|391:34|387:16,1,101.499996902466,8|4,0:1|0:1,0:0:0:0:
486,158,177318,6,0,P|436:164|364:195,1,101.499996902466,0|0,3:0|0:0,0:0:0:0:
510,105,177604,1,2,0:1:0:0:
491,165,177747,1,2,0:1:0:0:
270,221,177890,38,0,L|152:200,3,101.499996902466,8|4|0|0,1:2|0:1|0:0|0:0,0:0:0:0:
451,269,178461,6,0,L|458:390,1,90.625,0|0,3:0|0:0,0:0:0:0:
362,367,178747,1,0,0:0:0:0:
375,370,178890,1,0,0:0:0:0:
55,184,179033,38,0,L|48:327,1,90.625,0|0,1:0|0:0,0:0:0:0:
135,374,179318,1,0,0:0:0:0:
93,384,179461,1,0,0:0:0:0:
70,196,179604,6,0,P|48:161|41:98,1,90.625,2|0,3:2|0:0,0:0:0:0:
115,0,179890,2,0,P|127:52|97:79,1,90.625,2|0,0:2|3:0,0:0:0:0:
366,29,180176,2,0,P|393:3|445:22,1,90.625,2|0,1:2|0:0,0:0:0:0:
483,135,180461,2,0,P|495:81|526:36,1,90.625,2|0,3:2|0:0,0:0:0:0:
337,198,180747,38,0,B|302:196|307:222|279:222|279:222|110:218,1,202.999993804932,6|2,3:2|0:1,0:0:0:0:
121,18,181176,1,2,0:1:0:0:
28,172,181318,1,8,1:1:0:0:
39,256,181461,2,0,P|53:288|59:351,2,90.625,4|0|0,0:1|0:0|0:0,0:0:0:0:
174,350,181890,5,0,3:0:0:0:
186,356,182033,1,0,0:0:0:0:
200,353,182176,1,2,0:1:0:0:
188,347,182319,1,2,0:1:0:0:
263,384,182461,37,8,1:2:0:0:
275,250,182603,1,8,0:3:0:0:
314,125,182746,1,8,0:3:0:0:
377,8,182889,1,8,0:3:0:0:
503,89,183033,6,0,B|508:110|494:123|494:123|384:136|394:45|250:58,1,293.625001120091,2|0,3:2|0:0,0:0:0:0:
32,50,183604,2,0,B|31:36|51:19|51:19|71:59|68:139|27:181,1,195.750000746727,0|0,1:0|0:0,0:0:0:0:
43,317,184033,1,2,0:2:0:0:
135,311,184176,38,0,P|170:341|200:393,1,97.8750003733635,0|0,3:0|0:0,0:0:0:0:
273,256,184461,2,0,P|302:233|310:169,1,97.8750003733635,0|0,0:0|0:0,0:0:0:0:
502,366,184747,2,0,L|490:137,1,195.750000746727,0|2,1:0|0:2,0:0:0:0:
492,170,185318,6,0,B|491:186|478:192|478:192|433:125|448:49|479:9,1,195.750000746727,2|0,3:2|0:0,0:0:0:0:
250,90,185747,1,2,0:2:0:0:
343,0,185890,1,2,1:2:0:0:
218,64,186033,2,0,P|244:120|243:170,1,97.8750003733635,2|8,0:1|0:1,0:0:0:0:
81,272,186318,1,2,0:2:0:0:
15,194,186461,38,0,P|68:196|140:215,1,97.8750003733635,0|0,3:0|0:0,0:0:0:0:
17,137,186747,1,2,0:1:0:0:
3,183,186890,1,2,0:1:0:0:
92,377,187033,5,10,1:2:0:0:
215,306,187176,1,0,0:0:0:0:
344,282,187318,2,0,P|397:277|469:292,1,97.8750003733635,2|0,0:0|0:0,0:0:0:0:
189,316,187604,38,0,P|203:230|193:104,1,195.750000746727,2|0,3:2|0:0,0:0:0:0:
259,0,188033,1,2,0:0:0:0:
273,173,188176,1,2,1:2:0:0:
418,100,188318,2,0,P|466:107|526:132,1,97.8750003733635,0|2,0:0|0:2,0:0:0:0:
430,44,188604,6,0,P|461:168|444:304,1,195.750000746727,2|0,0:2|0:0,0:0:0:0:
494,327,189033,2,0,P|436:349|431:390,1,97.8750003733635,0|0,0:0|3:0,0:0:0:0:
182,375,189318,1,0,1:2:0:0:
195,244,189461,1,2,0:2:0:0:
123,328,189604,2,0,P|175:356|205:390,1,97.8750003733635,2|2,3:2|0:2,0:0:0:0:
20,240,189890,38,0,P|39:176|35:29,1,195.750000746727,0|2,3:0|0:1,0:0:0:0:
182,0,190318,1,2,0:1:0:0:
355,77,190461,1,8,1:0:0:0:
406,26,190604,2,0,P|447:36|468:89,1,97.8750003733635,2|2,0:2|0:0,0:0:0:0:
463,212,190890,5,2,0:2:0:0:
478,177,191033,2,0,L|473:335,1,97.8750003733635,2|0,3:2|0:0,0:0:0:0:
355,358,191318,1,2,0:1:0:0:
352,374,191461,1,2,0:1:0:0:
269,351,191604,37,8,1:2:0:0:
260,247,191746,1,10,0:3:0:0:
253,143,191889,1,10,0:3:0:0:
246,40,192032,1,8,0:3:0:0:
123,156,192176,5,2,3:2:0:0:
109,0,192318,2,0,B|111:52|169:27|198:109|123:171|79:107,1,195.750000746727,2|0,0:2|0:0,0:0:0:0:
393,42,192747,38,0,B|526:48|526:48|497:123,1,195.750000746727,2|2,1:2|0:2,0:0:0:0:
354,262,193176,1,0,0:0:0:0:
264,213,193318,6,0,P|279:247|268:331,1,97.8750003733635,2|0,3:2|0:0,0:0:0:0:
245,233,193604,1,2,0:2:0:0:
260,197,193747,1,2,0:2:0:0:
122,77,193890,1,2,1:2:0:0:
28,161,194033,38,0,L|37:276,2,97.8750003733635,2|2|2,0:2|0:2|0:2,0:0:0:0:
19,362,194461,2,0,B|187:354|146:401|312:384,1,293.625001120091,2|2,3:2|0:2,0:0:0:0:
464,246,195033,5,0,1:0:0:0:
388,289,195176,1,2,0:1:0:0:
493,343,195318,1,8,0:1:0:0:
507,192,195461,2,0,P|493:164|491:86,1,97.8750003733635,2|0,0:2|3:0,0:0:0:0:
323,9,195747,37,2,0:2:0:0:
397,0,195890,2,0,P|384:74|345:126,1,97.8750003733635,2|2,0:2|0:1,0:0:0:0:
225,193,196176,2,0,B|154:236|94:165|2:187|2:187|34:196|100:191,1,293.625001120091,10|0,1:2|0:0,0:0:0:0:
80,50,196747,6,0,B|75:47|80:33|80:33|116:56|101:114,1,97.8750003733635,2|0,3:2|0:0,0:0:0:0:
87,320,197033,2,0,P|59:298|-7:281,1,97.8750003733635,2|0,0:2|0:0,0:0:0:0:
307,368,197318,38,0,B|303:381|305:392|305:392|413:382|488:334,1,210.250006416321,2|2,1:2|0:2,0:0:0:0:
476,145,197747,2,0,P|492:192|494:260,1,97.8750003733635,2|2,0:2|3:2,0:0:0:0:
449,179,198033,1,2,0:2:0:0:
471,124,198176,1,2,0:2:0:0:
485,131,198318,1,2,3:2:0:0:
327,71,198461,6,0,L|203:90,2,97.8750003733635,2|0|2,1:2|0:0|3:2,0:0:0:0:
437,0,198890,1,2,0:2:0:0:
308,82,199033,38,0,B|250:83|289:22|196:22,1,105.125003208161,6|2,3:2|0:2,0:0:0:0:
27,76,199318,1,2,0:2:0:0:
126,129,199461,1,2,0:2:0:0:
55,0,199604,5,0,1:0:0:0:
23,162,199747,2,0,P|12:210|19:293,1,105.125003208161,2|0,0:2|0:0,0:0:0:0:
58,316,200033,2,0,P|101:292|185:283,1,105.125003208161,2|0,0:0|3:0,0:0:0:0:
205,326,200318,38,0,P|297:385|420:374,1,210.250006416321,0|6,0:0|0:1,0:0:0:0:
502,90,200747,1,8,1:2:0:0:
506,131,200890,1,10,0:3:0:0:
507,90,201033,1,8,0:3:0:0:
501,129,201176,1,10,0:3:0:0:
315,72,201318,6,0,B|286:39|286:-36|423:-42|413:75|340:220|288:203,1,315.375009624482,2|0,3:2|0:0,0:0:0:0:
350,369,201890,2,0,P|415:356|500:362,1,105.125003208161,0|0,1:0|0:0,0:0:0:0:
133,383,202176,1,2,0:2:0:0:
26,319,202318,2,0,P|42:290|44:197,1,105.125003208161,2|0,0:2|3:0,0:0:0:0:
198,99,202604,37,2,0:2:0:0:
268,104,202747,2,0,L|261:-27,1,105.125003208161,2|0,0:2|0:0,0:0:0:0:
49,199,203033,2,0,B|50:213|49:219|49:219|84:228|82:152|207:198|166:278,1,210.250006416321,0|0,1:0|0:0,0:0:0:0:
366,372,203461,6,0,L|370:332,1,27.1875010371209,2|0,0:2|0:0,0:0:0:0:
388,378,203604,2,0,P|448:375|502:355,1,105.125003208161,2|2,3:2|0:2,0:0:0:0:
242,257,203890,1,2,0:2:0:0:
166,276,204033,1,0,0:0:0:0:
135,103,204176,2,0,P|149:65|144:0,1,105.125003208161,2|2,1:2|0:1,0:0:0:0:
402,33,204461,38,0,P|426:31|459:18,1,52.5625016040803,2|0,0:2|0:0,0:0:0:0:
401,57,204604,2,0,P|498:72|538:58,1,105.125003208161,2|0,0:2|3:0,0:0:0:0:
373,192,204890,2,0,P|381:249|417:302,1,105.125003208161,2|2,0:2|0:1,0:0:0:0:
434,256,205176,1,2,0:2:0:0:
234,378,205318,6,0,B|215:381|215:381|95:330|95:330|10:359,1,210.250006416321,10|4,1:2|0:1,0:0:0:0:
37,361,205890,37,2,3:2:0:0:
8,233,206033,1,2,0:2:0:0:
76,104,206176,1,2,0:2:0:0:
73,169,206318,1,0,0:0:0:0:
34,8,206461,6,0,P|45:68|68:105,1,90.625,2|0,1:2|0:0,0:0:0:0:
417,17,206890,1,2,0:2:0:0:
414,62,207033,2,0,P|474:97|501:140,1,97.8750003733635,2|0,3:2|0:0,0:0:0:0:
386,292,207318,1,2,0:2:0:0:
195,270,207461,1,2,3:2:0:0:
385,374,207604,38,0,P|413:284|512:235,1,210.250006416321,2|2,1:2|0:2,0:0:0:0:
403,365,208033,1,0,0:0:0:0:
257,258,208176,2,0,P|241:210|195:166,1,97.8750003733635,2|0,3:2|0:0,0:0:0:0:
106,285,208461,1,2,0:2:0:0:
114,383,208604,1,2,0:1:0:0:
180,372,208747,1,2,1:2:0:0:
195,338,208890,6,0,P|235:346|283:376,2,90.625,4|2|0,0:1|0:2|0:0,0:0:0:0:
0,304,209318,2,0,B|0:292|10:290|10:290|19:379,1,90.625,2|0,3:2|0:0,0:0:0:0:
99,160,209604,2,0,B|95:150|87:148|87:148|81:237,1,90.625,2|2,0:1|0:1,0:0:0:0:
18,3,209890,37,10,1:2:0:0:
13,37,210033,1,8,0:3:0:0:
3,29,210176,1,8,0:3:0:0:
147,0,210318,1,10,0:3:0:0:
361,32,210461,6,0,B|377:40|381:61|381:61|392:131,1,90.625,2|0,3:2|0:0,0:0:0:0:
464,104,210747,2,0,P|493:107|502:55,1,90.625,2|0,0:2|0:0,0:0:0:0:
216,221,211033,2,0,B|214:234|209:242|209:242|326:248|410:330,1,210.250006416321,2|2,1:2|0:2,0:0:0:0:
382,324,211604,38,0,P|333:345|315:380,1,90.625,2|0,3:2|0:0,0:0:0:0:
213,384,211890,1,2,0:2:0:0:
382,306,212033,1,2,0:2:0:0:
116,278,212176,6,0,B|108:264|108:264|101:164,1,90.625,0|0,1:0|0:0,0:0:0:0:
115,289,212461,1,2,0:2:0:0:
72,294,212604,1,2,0:2:0:0:
136,118,212747,37,2,3:2:0:0:
0,73,212890,1,2,0:2:0:0:
143,93,213033,2,0,P|93:36|42:18,1,105.125003208161,2|0,0:2|0:0,0:0:0:0:
301,33,213318,5,2,1:2:0:0:
303,0,213461,1,2,0:1:0:0:
291,41,213604,2,0,B|341:42|372:49|407:73,1,105.125003208161,2|0,0:2|0:0,0:0:0:0:
482,147,213890,37,2,3:2:0:0:
468,282,214033,1,2,0:2:0:0:
362,221,214176,1,2,0:2:0:0:
456,193,214318,1,2,0:2:0:0:
453,369,214461,5,10,1:2:0:0:
453,384,214604,1,0,0:0:0:0:
460,374,214747,1,2,0:2:0:0:
453,384,214890,1,0,0:0:0:0:
295,373,215033,38,0,B|292:360|285:357|285:357|276:367|271:382|271:382|141:381|174:333|88:303|24:342,1,271.875,2|2,3:2|0:2,0:0:0:0:
83,372,215604,2,0,L|88:311,1,45.3125,2|0,1:2|0:0,0:0:0:0:
35,244,215747,2,0,B|25:165|25:165|11:188,1,97.8750003733635,0|0,0:0|0:0,0:0:0:0:
132,105,216033,6,0,P|152:94|198:144,1,97.8750003733635,2|0,0:2|3:0,0:0:0:0:
87,1,216318,2,0,P|35:8|-13:51,1,97.8750003733635,2|0,0:2|0:0,0:0:0:0:
196,143,216604,1,2,3:0:0:0:
299,30,216747,2,0,B|424:24|391:104|521:86|521:86|489:69|426:85,1,293.625001120091,2|2,1:2|0:2,0:0:0:0:
364,162,217318,38,0,B|365:197|390:189|392:217|392:217|403:386,1,232,4|2,3:2|0:1,0:0:0:0:
512,251,217747,1,2,0:1:0:0:
502,329,217890,1,8,1:1:0:0:
288,323,218033,6,0,B|276:337|273:365|287:388|287:388|226:328|140:330,1,232,4|2,0:1|0:2,0:0:0:0:
41,309,218461,2,0,P|45:348|13:384,3,90.625,2|0|2|2,3:2|0:0|0:1|0:1,0:0:0:0:
185,16,219033,37,10,1:2:0:0:
267,174,219176,1,8,0:3:0:0:
220,345,219318,1,10,0:3:0:0:
135,185,219461,1,8,0:3:0:0:
500,202,219604,5,2,3:2:0:0:
256,192,219747,12,2,228176,1:2:0:0:
281,237,228318,5,0,1:0:0:0:
285,256,228461,1,0,1:0:0:0:
286,276,228604,1,0,1:0:0:0:
271,309,228747,37,2,3:2:0:0:
