osu file format v14

[General]
AudioFilename: audio.mp3
AudioLeadIn: 0
PreviewTime: 16176
Countdown: 0
SampleSet: Soft
StackLeniency: 0.2
Mode: 0
LetterboxInBreaks: 0
WidescreenStoryboard: 1

[Editor]
Bookmarks: 35461,183033,201318,219604
DistanceSpacing: 1.6
BeatDivisor: 8
GridSize: 8
TimelineZoom: 1.8

[Metadata]
Title:Midnight City
TitleUnicode:Midnight City
Artist:M83
ArtistUnicode:M83
Creator:_orange
Version:Saturnalize's Insane
Source:
Tags:hurry up we're dreaming anthony gonzalez synthpop electronic huwd mute naive english renumi hewwo ralsei mimari reform kujinn squirrelpascals saturnalize
BeatmapID:2089611
BeatmapSetID:871651

[Difficulty]
HPDrainRate:5
CircleSize:3
OverallDifficulty:7
ApproachRate:9
SliderMultiplier:2
SliderTickRate:1

[Events]
//Background and Video events
0,0,"bg.jpg",0,0
//Break Periods
2,128233,136718
//Storyboard Layer 0 (Background)
//Storyboard Layer 1 (Fail)
//Storyboard Layer 2 (Pass)
//Storyboard Layer 3 (Foreground)
//Storyboard Layer 4 (Overlay)
//Storyboard Sound Samples

[TimingPoints]
9319,571.428571428571,4,2,1,50,1,0
9319,-200,4,2,1,50,0,0
13461,-200,4,2,1,20,0,0
13747,-200,4,2,1,50,0,0
16176,-83.3333333333333,4,2,1,80,0,0
18461,-83.3333333333333,4,2,1,80,0,1
18604,-83.3333333333333,4,2,1,80,0,0
36747,-133.333333333333,4,2,1,50,0,0
45318,-83.3333333333333,4,2,1,50,0,0
45890,-133.333333333333,4,2,1,50,0,0
52747,-83.3333333333333,4,2,1,80,0,0
55033,-71.4285714285714,4,2,1,80,0,1
55176,-71.4285714285714,4,2,1,80,0,0
73318,-133.333333333333,4,2,1,60,0,0
81890,-83.3333333333333,4,2,1,60,0,0
82461,-133.333333333333,4,2,1,60,0,0
91033,-83.3333333333333,4,2,1,60,0,0
91604,-133.333333333333,4,2,1,60,0,0
100176,-83.3333333333333,4,2,1,60,0,0
100747,-200,4,2,1,60,0,0
105318,-200,4,2,1,60,0,0
105604,-200,4,2,1,60,0,0
107604,-83.3333333333333,4,2,1,80,0,0
109890,-71.4285714285714,4,2,1,80,0,1
110033,-71.4285714285714,4,2,1,80,0,0
128176,-133.333333333333,4,2,1,50,0,0
155604,-333.333333333333,4,2,1,50,0,0
162461,-83.3333333333333,4,2,1,80,0,0
164747,-62.5,4,2,1,80,0,1
219604,-62.5,4,2,1,70,0,1
221890,-62.5,4,2,1,60,0,1
224176,-62.5,4,2,1,50,0,1
226461,-62.5,4,2,1,40,0,1
228747,-62.5,4,2,1,30,0,0
231033,-62.5,4,2,1,25,0,0
233318,-62.5,4,2,1,20,0,0
235604,-62.5,4,2,1,15,0,0
240176,-62.5,4,2,1,5,0,0

[Colours]
Combo1 : 232,146,17
Combo2 : 128,128,128
Combo3 : 192,192,192
Combo4 : 240,54,0

[HitObjects]
44,157,9319,5,0,0:0:0:0:
44,157,9747,1,0,0:0:0:0:
44,157,10176,1,0,0:0:0:0:
44,157,10604,1,0,0:0:0:0:
44,157,11033,1,0,0:0:0:0:
135,198,11319,1,0,0:0:0:0:
214,137,11604,5,0,0:0:0:0:
214,137,12033,1,0,0:0:0:0:
214,137,12461,1,0,0:0:0:0:
305,178,12747,1,0,0:0:0:0:
384,117,13318,2,0,L|383:65,1,50
464,254,13890,37,0,0:0:0:0:
464,254,14318,1,0,0:0:0:0:
464,254,14747,1,0,0:0:0:0:
464,254,15176,1,0,0:0:0:0:
464,254,15604,1,0,0:0:0:0:
369,220,15890,1,0,0:0:0:0:
280,266,16176,21,4,3:2:0:0:
180,246,16318,2,0,L|195:336,1,59.9999981689454,8|8,0:3|0:3,0:0:0:0:
282,256,16604,5,0,3:0:0:0:
182,236,16747,1,8,0:3:0:0:
81,215,16890,2,0,L|96:305,1,59.9999981689454,0|0,3:0|3:0,0:0:0:0:
185,226,17176,37,8,0:3:0:0:
82,205,17318,1,0,3:0:0:0:
280,266,17604,6,0,L|295:356,1,59.9999981689454,0|0,3:0|3:0,0:0:0:0:
372,345,17890,37,8,0:3:0:0:
388,262,18033,1,8,0:3:0:0:
404,179,18176,1,8,0:3:0:0:
420,97,18318,1,8,0:3:0:0:
337,114,18461,6,0,L|208:143,1,119.999996337891,0|0,3:2|0:0,0:0:0:0:
53,309,19033,2,0,P|105:320|172:294,1,119.999996337891,2|0,1:2|0:0,0:0:0:0:
243,365,19461,2,0,P|259:339|265:300,1,59.9999981689454,2|0,0:2|3:0,0:0:0:0:
265,311,19890,1,0,0:0:0:0:
76,228,20176,2,0,P|113:277|189:298,1,119.999996337891,2|0,1:2|0:0,0:0:0:0:
296,140,20747,38,0,P|235:147|178:202,1,119.999996337891,0|0,3:2|0:0,0:0:0:0:
283,364,21318,2,0,L|277:292,2,59.9999981689454,2|2|8,1:2|0:1|0:1,0:0:0:0:
375,367,21747,1,2,0:2:0:0:
375,282,21890,1,0,3:2:0:0:
375,282,22176,5,2,0:1:0:0:
364,377,22319,1,2,0:1:0:0:
459,383,22461,1,2,1:2:0:0:
470,288,22604,1,4,0:1:0:0:
136,163,23033,38,0,L|274:146,1,119.999996337891,0|0,3:0|0:0,0:0:0:0:
438,313,23604,2,0,P|377:282|309:288,1,119.999996337891,2|0,1:2|0:0,0:0:0:0:
234,311,24033,2,0,P|230:281|234:251,1,59.9999981689454,2|0,0:2|3:0,0:0:0:0:
234,251,24461,1,0,0:0:0:0:
254,331,24604,1,0,3:0:0:0:
174,350,24747,1,2,1:2:0:0:
136,161,25033,1,0,3:0:0:0:
325,134,25318,1,0,3:0:0:0:
332,353,25604,5,2,0:1:0:0:
390,292,25747,1,2,0:1:0:0:
472,309,25890,1,2,1:2:0:0:
448,228,26033,1,4,0:1:0:0:
332,353,26318,1,2,0:2:0:0:
254,331,26461,1,0,3:0:0:0:
31,291,26747,2,0,L|98:277,1,59.9999981689454,2|2,0:1|0:1,0:0:0:0:
159,211,27033,37,2,1:2:0:0:
139,116,27176,1,8,0:3:0:0:
150,222,27318,1,8,0:3:0:0:
257,228,27461,1,8,0:3:0:0:
304,131,27604,6,0,L|441:135,1,119.999996337891,0|0,3:0|0:0,0:0:0:0:
400,336,28176,2,0,P|340:334|291:302,1,119.999996337891,2|0,1:2|0:0,0:0:0:0:
213,268,28604,2,0,P|232:244|256:228,1,59.9999981689454,2|0,0:0|3:0,0:0:0:0:
257,228,29033,1,0,0:0:0:0:
98,264,29318,2,0,P|155:281|213:268,1,119.999996337891,2|0,1:2|0:0,0:0:0:0:
65,143,29890,38,0,P|21:183|4:240,1,119.999996337891,0|0,3:2|0:0,0:0:0:0:
191,181,30461,2,0,L|195:103,2,59.9999981689454,2|2|8,1:2|0:1|0:1,0:0:0:0:
292,204,30890,1,2,0:2:0:0:
287,120,31033,1,0,3:0:0:0:
287,120,31318,5,2,0:1:0:0:
279,215,31461,1,2,0:1:0:0:
374,221,31604,1,2,1:2:0:0:
382,126,31747,1,4,0:1:0:0:
184,66,32176,38,0,L|197:186,1,119.999996337891,0|0,3:0|0:0,0:0:0:0:
20,376,32747,2,0,P|16:317|50:268,1,119.999996337891,2|0,1:2|0:0,0:0:0:0:
91,196,33176,2,0,P|52:185|22:188,1,59.9999981689454,2|0,0:0|3:0,0:0:0:0:
33,186,33604,1,0,0:0:0:0:
115,220,33747,1,0,3:0:0:0:
197,186,33890,1,2,1:2:0:0:
25,100,34176,1,0,3:0:0:0:
185,274,34461,5,0,3:2:0:0:
309,55,34747,1,2,0:1:0:0:
390,69,34890,1,2,0:1:0:0:
445,6,35033,1,2,1:2:0:0:
472,84,35176,1,4,0:1:0:0:
309,55,35461,1,2,0:2:0:0:
336,133,35604,1,0,3:0:0:0:
375,273,35890,2,0,L|386:199,1,59.9999981689454,2|2,0:1|0:1,0:0:0:0:
463,334,36176,37,10,1:2:0:0:
381,285,36318,1,8,0:3:0:0:
351,377,36461,1,8,0:3:0:0:
390,278,36604,1,8,0:3:0:0:
268,274,36747,1,0,3:0:0:0:
268,274,37318,21,0,1:0:0:0:
268,274,37890,1,2,3:2:0:0:
188,247,38175,1,2,0:2:0:0:
188,164,38461,1,2,1:2:0:0:
268,138,38747,1,2,0:2:0:0:
315,205,39033,2,0,B|427:199|427:199|464:305|464:305|389:309|389:309|247:359|247:359|110:288,1,600.000022888185,2|0,3:2|3:0,0:0:0:0:
113,290,41890,5,0,1:0:0:0:
113,290,42461,1,2,3:2:0:0:
89,210,42747,1,2,0:0:0:0:
81,204,42890,1,0,3:0:0:0:
158,161,43033,1,2,1:2:0:0:
137,81,43318,1,2,0:0:0:0:
217,99,43604,2,0,B|313:89|313:89|350:130,1,150.000005722046,2|0,3:2|1:0,0:0:0:0:
353,216,44461,1,2,0:2:0:0:
340,251,44604,1,2,0:2:0:0:
366,219,44747,2,0,B|462:229,1,75.0000028610231,2|0,3:2|0:0,0:0:0:0:
235,371,45318,6,0,B|198:305,1,59.9999981689454,2|8,1:2|0:3,0:0:0:0:
69,263,45604,2,0,B|143:264,1,59.9999981689454,10|8,0:3|0:3,0:0:0:0:
245,173,45890,1,0,3:2:0:0:
245,173,46461,21,0,1:2:0:0:
206,246,46747,1,0,0:3:0:0:
288,242,47033,1,2,3:2:0:0:
288,242,47604,1,2,1:2:0:0:
164,172,47890,1,2,0:2:0:0:
174,311,48176,2,0,B|279:354|279:354|382:308|382:308|364:236|364:236|505:184|505:184|490:34,1,600.000022888185,2|0,3:2|3:0,0:0:0:0:
490,35,51033,5,0,1:0:0:0:
490,35,51604,1,2,3:2:0:0:
416,72,51890,1,2,0:2:0:0:
417,85,52033,1,0,3:0:0:0:
352,20,52176,1,2,1:2:0:0:
279,58,52461,1,2,0:2:0:0:
213,5,52747,5,6,3:2:0:0:
133,32,52890,2,0,L|146:90,1,59.9999981689454,8|8,0:3|0:3,0:0:0:0:
202,4,53176,5,2,3:2:0:0:
122,31,53318,1,8,0:3:0:0:
42,58,53461,2,0,L|55:116,1,59.9999981689454,0|2,3:0|3:2,0:0:0:0:
112,29,53747,37,8,0:3:0:0:
32,56,53889,1,2,3:2:0:0:
213,5,54176,6,0,L|226:63,1,59.9999981689454,0|0,3:3|3:3,0:0:0:0:
270,148,54461,37,14,0:3:0:0:
306,59,54604,1,8,0:3:0:0:
360,152,54747,1,8,0:3:0:0:
438,78,54890,1,8,0:3:0:0:
440,204,55033,6,0,L|416:346,1,139.999995727539,0|0,3:0|0:0,0:0:0:0:
325,365,55461,1,0,0:0:0:0:
263,298,55604,2,0,P|205:281|117:323,1,139.999995727539,2|0,1:2|0:0,0:0:0:0:
119,216,56033,2,0,P|80:231|53:271,1,69.9999978637696,2|0,0:2|3:0,0:0:0:0:
61,251,56461,1,0,0:0:0:0:
34,70,56747,2,0,P|103:75|164:109,1,139.999995727539,2|0,1:2|0:0,0:0:0:0:
288,221,57318,38,0,P|347:185|386:127,1,139.999995727539,0|0,3:2|0:0,0:0:0:0:
498,252,57890,2,0,P|447:243|418:245,1,69.9999978637696,2|2,1:2|0:1,0:0:0:0:
368,302,58176,1,8,0:1:0:0:
287,324,58318,1,2,0:2:0:0:
207,296,58461,1,0,3:0:0:0:
421,238,58747,1,2,0:1:0:0:
377,312,58891,1,2,0:1:0:0:
287,341,59033,1,10,1:2:0:0:
195,305,59176,1,4,0:1:0:0:
281,113,59604,6,0,L|271:252,1,139.999995727539,0|0,3:0|0:0,0:0:0:0:
195,305,60033,1,0,0:0:0:0:
104,267,60176,2,0,P|122:201|184:176,1,139.999995727539,2|0,1:2|0:0,0:0:0:0:
139,96,60604,2,0,P|172:84|207:86,1,69.9999978637696,2|0,0:2|3:0,0:0:0:0:
206,85,61033,1,0,0:0:0:0:
124,65,61176,1,0,3:0:0:0:
49,102,61318,1,2,1:2:0:0:
217,95,61604,1,0,3:0:0:0:
385,88,61890,37,0,3:0:0:0:
320,243,62176,1,2,0:1:0:0:
403,241,62318,1,2,0:1:0:0:
443,314,62461,1,2,1:2:0:0:
360,316,62603,1,4,0:1:0:0:
235,287,62890,1,2,0:2:0:0:
233,204,63032,1,0,3:0:0:0:
124,332,63318,1,2,0:1:0:0:
41,334,63460,1,2,0:1:0:0:
4,257,63604,5,10,1:2:0:0:
19,145,63747,1,8,0:3:0:0:
100,241,63890,1,8,0:3:0:0:
119,116,64033,1,8,0:3:0:0:
189,220,64176,38,0,L|337:225,1,139.999995727539,0|0,3:0|0:0,0:0:0:0:
419,229,64604,1,0,0:0:0:0:
376,150,64747,2,0,P|329:118|243:118,1,139.999995727539,2|0,1:2|0:0,0:0:0:0:
234,25,65176,2,0,P|204:33|171:71,1,69.9999978637696,2|0,0:0|3:0,0:0:0:0:
176,59,65604,1,0,0:0:0:0:
34,174,65890,2,0,P|103:169|161:206,1,139.999995727539,2|0,1:2|0:0,0:0:0:0:
339,167,66461,6,0,P|308:228|247:260,1,139.999995727539,0|0,3:2|0:0,0:0:0:0:
85,345,67033,2,0,L|70:252,1,69.9999978637696,2|2,1:2|0:1,0:0:0:0:
114,202,67318,1,8,0:1:0:0:
191,169,67461,1,2,0:2:0:0:
274,176,67604,1,0,3:1:0:0:
62,272,67890,1,2,0:1:0:0:
103,192,68033,1,2,0:1:0:0:
190,155,68176,1,10,1:2:0:0:
283,162,68319,1,4,0:1:0:0:
210,374,68747,38,0,L|227:235,1,139.999995727539,0|0,3:0|0:0,0:0:0:0:
283,162,69176,1,0,0:1:0:0:
361,204,69318,2,0,P|409:156|401:89,1,139.999995727539,2|0,1:2|0:0,0:0:0:0:
485,53,69747,2,0,P|462:20|429:4,1,69.9999978637696,2|0,0:2|3:0,0:0:0:0:
436,6,70176,1,0,0:0:0:0:
498,62,70319,1,0,3:0:0:0:
506,145,70461,1,2,1:2:0:0:
415,3,70747,1,0,3:0:0:0:
255,56,71033,5,0,3:0:0:0:
97,112,71318,1,2,0:1:0:0:
114,29,71461,1,2,0:1:0:0:
33,52,71604,1,2,1:2:0:0:
16,135,71747,1,4,0:1:0:0:
174,192,72033,1,2,0:0:0:0:
258,192,72176,1,0,3:0:0:0:
97,272,72461,1,2,0:1:0:0:
114,355,72604,1,2,0:1:0:0:
33,332,72747,37,10,1:2:0:0:
106,247,72890,1,8,0:3:0:0:
132,355,73033,1,8,0:3:0:0:
194,261,73176,1,8,0:3:0:0:
265,357,73318,1,0,3:0:0:0:
265,357,73890,21,0,1:0:0:0:
265,357,74461,1,2,3:2:0:0:
318,293,74747,1,2,0:2:0:0:
394,261,75033,1,2,1:2:0:0:
475,274,75318,1,2,0:2:0:0:
445,196,75604,2,0,B|462:85|462:85|351:105|351:105|292:58|292:58|223:193|223:193|76:179,1,600.000022888185,2|0,3:2|3:0,0:0:0:0:
75,178,78461,5,0,1:0:0:0:
75,178,79033,1,2,3:2:0:0:
127,241,79318,1,2,0:2:0:0:
122,253,79461,1,0,3:0:0:0:
208,227,79604,1,2,1:2:0:0:
260,290,79890,1,2,0:2:0:0:
341,276,80176,2,0,B|452:252|452:252|462:215,1,150.000005722046,2|0,3:2|1:0,0:0:0:0:
354,131,81033,1,2,0:0:0:0:
352,94,81176,1,2,0:2:0:0:
330,127,81318,2,0,B|231:105,1,75.0000028610231,2|0,3:2|0:0,0:0:0:0:
68,260,81890,6,0,L|81:323,1,59.9999981689454,2|8,1:2|0:3,0:0:0:0:
191,309,82176,2,0,L|178:372,1,59.9999981689454,10|8,0:3|0:3,0:0:0:0:
303,355,82461,1,0,3:0:0:0:
303,355,83033,21,0,1:0:0:0:
303,355,83604,1,2,3:2:0:0:
340,273,83890,1,2,0:2:0:0:
288,199,84176,1,2,1:2:0:0:
201,223,84461,1,2,0:2:0:0:
119,183,84747,2,0,B|121:69|121:69|229:42|229:42|273:103|273:103|418:57|418:57|370:196,1,600.000022888185,2|0,3:2|3:0,0:0:0:0:
369,196,87604,5,0,1:2:0:0:
369,196,88176,1,2,3:2:0:0:
293,245,88461,1,2,0:2:0:0:
294,253,88604,1,0,3:0:0:0:
217,196,88747,1,2,1:2:0:0:
138,239,89033,1,2,0:2:0:0:
77,172,89318,2,0,L|61:60,2,112.500004291535,2|2|2,3:2|0:2|0:2,0:0:0:0:
18,240,90461,2,0,L|6:323,1,75.0000028610231,2|0,3:2|0:0,0:0:0:0:
263,108,91033,6,0,L|252:33,1,59.9999981689454,2|8,1:2|0:3,0:0:0:0:
371,60,91318,2,0,L|379:0,1,59.9999981689454,8|8,0:3|0:3,0:0:0:0:
481,107,91604,1,0,3:0:0:0:
481,107,91890,22,0,P|472:159|472:227,2,112.500004291535,2|2|0,0:2|0:2|3:0,0:0:0:0:
390,110,93033,1,2,0:2:0:0:
322,169,93318,1,2,1:2:0:0:
231,166,93604,1,2,0:2:0:0:
166,102,93890,2,0,B|55:90|55:90|68:203,1,225.000008583069,2|0,3:2|0:0,0:0:0:0:
80,291,95033,2,0,B|230:268|230:268|237:342|237:342|306:314,1,300.000011444092,2|0,3:2|3:0,0:0:0:0:
305,314,96461,6,0,P|352:344|420:347,2,112.500004291535,2|2|2,0:2|0:2|3:2,0:0:0:0:
313,224,97604,1,2,0:2:0:0:
322,221,97747,1,0,3:0:0:0:
249,159,97890,1,2,1:2:0:0:
273,72,98176,1,2,0:2:0:0:
204,14,98461,2,0,L|89:10,2,112.500004291535,2|2|2,3:2|0:2|0:2,0:0:0:0:
273,72,99604,2,0,L|376:68,1,75.0000028610231,2|0,3:2|0:2,0:0:0:0:
422,305,100176,6,0,L|400:227,1,59.9999981689454,2|8,1:2|0:3,0:0:0:0:
297,266,100461,2,0,L|313:208,1,59.9999981689454,8|8,0:3|0:3,0:0:0:0:
313,208,101318,21,8,0:3:0:0:
313,208,101890,1,2,0:2:0:0:
231,169,102176,1,2,0:2:0:0:
141,179,102461,1,10,0:3:0:0:
75,240,102747,1,2,0:2:0:0:
160,269,103033,2,0,B|148:368|148:368|181:330|181:330|231:328|231:328|258:371|258:371|286:330|286:330|314:370,1,350,2|0,0:2|0:0,0:0:0:0:
314,370,105890,5,8,0:3:0:0:
314,370,106461,2,0,P|359:348|389:342,2,75,2|2|2,0:2|0:2|0:2,0:0:0:0:
234,316,107604,5,6,3:2:0:0:
134,336,107747,2,0,L|149:246,1,59.9999981689454,8|8,0:3|0:3,0:0:0:0:
236,326,108032,5,2,3:2:0:0:
136,346,108175,1,8,0:3:0:0:
35,367,108318,2,0,L|50:277,1,59.9999981689454,0|2,3:0|3:2,0:0:0:0:
139,356,108604,37,8,0:3:0:0:
36,377,108747,1,2,3:2:0:0:
234,316,109033,6,0,L|249:226,1,59.9999981689454,0|0,3:0|3:2,0:0:0:0:
322,227,109318,37,14,0:3:0:0:
285,138,109461,1,8,0:3:0:0:
220,224,109604,1,8,0:3:0:0:
176,125,109747,1,8,0:3:0:0:
72,180,109890,6,0,L|96:38,1,139.999995727539,0|0,3:0|0:0,0:0:0:0:
187,19,110318,1,0,0:0:0:0:
249,86,110461,2,0,P|307:103|395:61,1,139.999995727539,2|0,1:2|0:0,0:0:0:0:
393,168,110890,2,0,P|432:153|459:113,1,69.9999978637696,2|0,0:2|3:0,0:0:0:0:
451,133,111318,1,0,0:0:0:0:
478,314,111604,2,0,P|409:309|348:275,1,139.999995727539,2|0,1:2|0:0,0:0:0:0:
224,163,112175,38,0,P|165:199|126:257,1,139.999995727539,0|0,3:2|0:0,0:0:0:0:
14,132,112747,2,0,P|65:141|94:139,1,69.9999978637696,2|2,1:2|0:1,0:0:0:0:
144,82,113033,1,8,0:1:0:0:
225,60,113175,1,2,0:2:0:0:
305,88,113318,1,0,3:0:0:0:
91,146,113604,1,2,0:1:0:0:
135,72,113748,1,2,0:1:0:0:
225,43,113890,1,10,1:2:0:0:
317,79,114033,1,4,0:1:0:0:
231,271,114461,6,0,L|241:132,1,139.999995727539,0|0,3:0|0:0,0:0:0:0:
317,79,114890,1,0,0:0:0:0:
408,117,115033,2,0,P|390:183|328:208,1,139.999995727539,2|0,1:2|0:0,0:0:0:0:
373,288,115461,2,0,P|340:300|305:298,1,69.9999978637696,2|0,0:2|3:0,0:0:0:0:
306,299,115890,1,0,0:0:0:0:
388,319,116033,1,0,3:0:0:0:
463,282,116175,1,2,1:2:0:0:
295,289,116461,1,0,3:0:0:0:
127,296,116747,37,0,3:0:0:0:
192,141,117033,1,2,0:1:0:0:
109,143,117175,1,2,0:1:0:0:
69,70,117318,1,2,1:2:0:0:
152,68,117460,1,4,0:1:0:0:
277,97,117747,1,2,0:2:0:0:
279,180,117889,1,0,3:0:0:0:
388,52,118175,5,2,0:1:0:0:
471,50,118317,1,2,0:1:0:0:
508,127,118461,37,10,1:2:0:0:
493,239,118604,1,8,0:3:0:0:
412,143,118747,1,8,0:3:0:0:
393,268,118890,1,8,0:3:0:0:
323,164,119033,6,0,L|175:159,1,139.999995727539,0|0,3:0|0:0,0:0:0:0:
93,155,119461,1,0,0:0:0:0:
136,234,119604,2,0,P|183:266|269:266,1,139.999995727539,2|0,1:2|0:0,0:0:0:0:
278,359,120033,2,0,P|308:351|341:313,1,69.9999978637696,2|0,0:0|3:0,0:0:0:0:
336,325,120461,1,0,0:0:0:0:
478,210,120747,2,0,P|409:215|351:178,1,139.999995727539,2|0,1:2|0:0,0:0:0:0:
173,217,121318,38,0,P|204:156|265:124,1,139.999995727539,0|0,3:2|0:0,0:0:0:0:
427,39,121890,2,0,L|442:132,1,69.9999978637696,2|2,1:2|0:1,0:0:0:0:
398,182,122175,1,8,0:1:0:0:
321,215,122318,1,2,0:2:0:0:
238,208,122461,1,0,3:1:0:0:
450,112,122747,1,2,0:1:0:0:
409,192,122890,1,2,0:1:0:0:
322,229,123033,1,10,1:2:0:0:
229,222,123176,1,4,0:1:0:0:
302,10,123604,6,0,L|285:149,1,139.999995727539,0|0,3:0|0:0,0:0:0:0:
229,222,124033,1,0,0:1:0:0:
151,180,124175,2,0,P|103:228|111:295,1,139.999995727539,2|0,1:2|0:0,0:0:0:0:
27,331,124604,2,0,P|50:364|83:380,1,69.9999978637696,2|0,0:2|3:0,0:0:0:0:
76,378,125033,1,0,0:0:0:0:
14,322,125176,1,0,3:0:0:0:
6,239,125318,1,2,1:2:0:0:
97,381,125604,1,0,3:0:0:0:
257,328,125890,37,0,3:0:0:0:
415,272,126175,1,2,0:1:0:0:
398,355,126318,1,2,0:1:0:0:
479,332,126461,1,2,1:2:0:0:
496,249,126604,1,4,0:1:0:0:
338,192,126890,1,2,0:0:0:0:
254,192,127033,1,0,3:0:0:0:
415,112,127318,5,2,0:1:0:0:
398,29,127461,1,2,0:1:0:0:
479,52,127604,37,10,1:2:0:0:
406,137,127747,1,8,0:3:0:0:
380,29,127890,1,8,0:3:0:0:
318,123,128033,1,8,0:3:0:0:
103,268,137318,21,0,3:0:0:0:
103,268,137890,1,0,3:0:0:0:
103,268,138461,1,0,3:0:0:0:
176,230,138747,1,0,0:0:0:0:
258,232,139033,1,0,3:0:0:0:
331,269,139318,1,0,0:0:0:0:
385,331,139604,2,0,L|364:147,3,150.000005722046,0|0|0|0,3:0|3:0|3:0|3:0,0:0:0:0:
356,100,141604,1,0,0:0:0:0:
432,131,141890,1,0,3:0:0:0:
432,131,142461,5,0,3:0:0:0:
432,131,143033,1,0,3:0:0:0:
367,181,143318,1,0,0:0:0:0:
370,193,143461,1,0,3:0:0:0:
285,170,143604,1,0,3:0:0:0:
206,143,143890,1,0,0:0:0:0:
131,178,144176,2,0,L|150:326,1,150.000005722046,0|0,3:0|3:0,0:0:0:0:
307,311,145033,1,0,0:0:0:0:
349,309,145176,1,0,0:0:0:0:
310,286,145318,2,0,L|329:137,1,150.000005722046,0|0,3:0|3:0,0:0:0:0:
258,93,146176,1,0,0:0:0:0:
180,120,146461,1,0,3:0:0:0:
180,120,147033,37,0,3:0:0:0:
180,120,147604,1,0,3:0:0:0:
225,189,147890,1,0,0:0:0:0:
245,269,148176,1,0,3:0:0:0:
221,347,148461,1,0,0:0:0:0:
301,329,148747,2,0,L|451:339,1,150.000005722046,0|0,3:0|3:0,0:0:0:0:
382,222,149604,1,0,0:0:0:0:
382,222,149890,2,0,L|388:148,1,75.0000028610231,0|0,3:0|0:0,0:0:0:0:
356,37,150461,2,0,L|507:52,1,150.000005722046,0|0,3:0|3:0,0:0:0:0:
506,52,151604,5,0,3:0:0:0:
506,52,152176,1,0,3:0:0:0:
425,36,152461,1,0,0:0:0:0:
422,28,152604,1,0,3:0:0:0:
355,79,152747,1,0,3:0:0:0:
275,57,153033,1,0,0:0:0:0:
215,113,153318,2,0,L|255:265,1,150.000005722046,0|0,3:0|3:0,0:0:0:0:
149,360,154176,1,0,0:0:0:0:
112,345,154318,1,0,0:0:0:0:
153,340,154461,2,0,L|191:194,1,150.000005722046,0|0,3:0|3:0,0:0:0:0:
213,115,155318,1,0,0:0:0:0:
213,115,156747,37,0,0:0:0:0:
136,151,157033,1,0,0:0:0:0:
206,197,157318,1,0,0:0:0:0:
286,169,157604,1,0,0:0:0:0:
366,138,157890,2,0,B|318:249|318:249|349:367,1,239.999992675781
348,364,161318,1,0,0:0:0:0:
272,320,161604,1,0,0:0:0:0:
185,311,161890,1,0,0:0:0:0:
103,340,162176,1,0,0:0:0:0:
114,257,162461,21,4,3:2:0:0:
130,174,162604,2,0,L|51:174,1,59.9999981689454,8|8,0:3|0:3,0:0:0:0:
127,259,162890,5,0,3:0:0:0:
143,176,163033,1,8,0:3:0:0:
159,93,163176,2,0,L|80:93,1,59.9999981689454,0|0,3:3|3:3,0:0:0:0:
157,177,163461,37,8,0:3:0:0:
175,97,163604,1,0,3:0:0:0:
114,257,163890,6,0,L|35:257,1,59.9999981689454,0|0,3:3|3:3,0:0:0:0:
20,334,164176,1,12,0:3:0:0:
113,351,164318,1,8,0:3:0:0:
123,243,164461,1,8,0:3:0:0:
229,260,164604,1,8,0:3:0:0:
191,154,164747,38,0,L|350:136,1,160,0|0,3:0|0:0,0:0:0:0:
393,49,165176,1,0,0:0:0:0:
458,118,165318,2,0,P|450:191|360:239,1,160,0|0,1:0|0:0,0:0:0:0:
315,306,165747,1,0,0:0:0:0:
221,278,165890,2,0,P|185:293|162:325,1,80,2|0,3:2|0:0,0:0:0:0:
125,235,166176,2,0,P|99:204|61:193,1,80,2|0,0:2|0:0,0:0:0:0:
135,129,166461,2,0,P|155:95|155:55,1,80,2|0,1:2|0:0,0:0:0:0:
238,106,166748,2,0,P|276:115|313:102,1,80,2|0,0:2|0:0,0:0:0:0:
292,198,167033,6,0,P|295:237|449:236,1,240,2|0,3:2|0:0,0:0:0:0:
478,147,167604,1,0,1:2:0:0:
433,62,167747,1,2,0:1:0:0:
341,32,167890,1,8,0:1:0:0:
247,52,168033,1,4,0:1:0:0:
199,135,168176,1,0,3:2:0:0:
447,61,168461,1,2,0:1:0:0:
345,22,168604,1,2,0:1:0:0:
236,44,168747,1,8,1:2:0:0:
187,142,168890,1,4,0:1:0:0:
429,217,169318,38,0,P|375:159|299:132,1,160,0|0,3:0|0:0,0:0:0:0:
250,214,169747,1,0,0:0:0:0:
296,298,169890,2,0,L|394:294,2,80,0|0|0,1:0|0:0|0:0,0:0:0:0:
199,302,170318,1,0,0:0:0:0:
102,305,170461,2,0,L|22:308,1,80,2|0,3:2|0:0,0:0:0:0:
0,213,170747,1,2,0:2:0:0:
75,153,170890,1,0,3:0:0:0:
149,213,171033,2,0,L|228:209,1,80,2|0,1:2|0:0,0:0:0:0:
301,146,171318,2,0,L|380:149,1,80,2|0,0:2|0:0,0:0:0:0:
450,81,171604,5,2,3:2:0:0:
258,62,171890,1,2,0:1:0:0:
191,130,172033,1,2,0:1:0:0:
153,41,172176,1,8,1:1:0:0:
84,109,172318,2,0,P|82:186|142:235,1,160,4|0,0:1|0:0,0:0:0:0:
154,330,172747,2,0,P|190:314|229:316,1,80,0|0,3:2|0:0,0:0:0:0:
310,369,173033,1,2,0:1:0:0:
403,348,173176,1,2,0:1:0:0:
448,264,173318,37,8,1:2:0:0:
320,257,173461,1,8,0:3:0:0:
287,133,173604,1,8,0:3:0:0:
394,63,173747,1,8,0:3:0:0:
508,141,173890,6,0,L|353:181,1,160,0|0,3:0|0:0,0:0:0:0:
252,209,174318,1,0,0:0:0:0:
322,274,174461,2,0,P|418:252|436:179,1,160,0|0,1:0|0:0,0:0:0:0:
413,108,174890,1,0,0:0:0:0:
317,97,175033,2,0,P|296:61|298:21,1,80,2|0,3:2|0:0,0:0:0:0:
203,99,175318,2,0,P|162:107|124:93,1,80,2|0,0:2|0:0,0:0:0:0:
169,208,175604,2,0,P|164:249|139:280,1,80,2|0,1:2|0:0,0:0:0:0:
262,273,175890,2,0,P|300:289|322:323,1,80,2|0,0:2|0:0,0:0:0:0:
353,204,176176,38,0,P|455:164|510:259,1,240,2|0,3:2|0:0,0:0:0:0:
479,350,176747,1,0,1:2:0:0:
386,376,176890,1,2,0:1:0:0:
294,345,177033,1,8,0:1:0:0:
243,263,177176,1,4,0:1:0:0:
249,167,177318,1,0,3:0:0:0:
385,384,177604,1,2,0:1:0:0:
287,351,177747,1,2,0:1:0:0:
232,263,177890,1,8,1:2:0:0:
239,161,178032,1,4,0:1:0:0:
482,229,178461,6,0,P|406:251|332:225,1,160,0|0,3:0|0:0,0:0:0:0:
334,128,178890,1,0,0:0:0:0:
383,45,179033,2,0,L|476:50,2,80,0|0|0,1:0|0:0|0:0,0:0:0:0:
287,40,179461,1,0,0:0:0:0:
191,32,179604,2,0,L|111:27,1,80,2|0,3:2|0:0,0:0:0:0:
76,118,179890,1,2,0:2:0:0:
149,180,180033,1,0,3:0:0:0:
230,129,180176,2,0,L|309:124,1,80,2|0,1:2|0:0,0:0:0:0:
371,198,180461,2,0,L|450:193,1,80,2|0,3:2|0:0,0:0:0:0:
510,270,180747,37,6,3:2:0:0:
318,279,181033,1,2,0:1:0:0:
228,244,181176,1,2,0:1:0:0:
233,339,181318,1,8,1:1:0:0:
142,303,181461,2,0,P|119:230|159:163,1,160,4|0,0:1|0:0,0:0:0:0:
129,71,181890,2,0,P|171:63|205:28,1,80,0|0,3:0|0:0,0:0:0:0:
286,79,182176,1,2,0:1:0:0:
370,35,182318,1,2,0:1:0:0:
461,64,182461,5,8,1:2:0:0:
353,147,182604,1,8,0:3:0:0:
319,270,182747,1,8,0:3:0:0:
203,325,182890,1,8,0:3:0:0:
77,300,183033,38,0,L|69:140,2,160,2|0|0,3:2|0:0|1:0,0:1:0:0:
170,230,183747,2,0,L|164:146,1,80
270,188,184033,2,0,P|349:192|412:257,1,160,2|0,0:2|0:0,0:0:0:0:
428,338,184461,1,0,0:0:0:0:
428,338,184747,2,0,P|473:310|505:308,1,80,0|0,1:0|0:0,0:0:0:0:
340,312,185033,2,0,P|300:305|269:281,1,80,2|0,0:2|0:0,0:0:0:0:
184,327,185318,6,0,P|231:270|169:117,1,240,2|2,3:2|0:2,0:0:0:0:
98,79,185890,1,2,1:2:0:0:
104,174,186033,1,2,0:1:0:0:
182,229,186176,1,8,0:1:0:0:
277,223,186318,2,0,L|276:132,1,80,2|0,0:2|3:0,0:0:0:0:
90,178,186747,1,2,0:1:0:0:
178,240,186890,1,2,0:1:0:0:
285,233,187032,1,10,1:2:0:0:
352,148,187176,2,0,L|351:57,1,80,4|2,0:1|0:0,0:0:0:0:
507,304,187604,38,0,P|460:243|382:236,1,160,2|0,3:2|0:0,0:0:0:0:
317,308,188033,1,2,0:0:0:0:
229,347,188176,2,0,P|189:351|150:331,1,80,2|0,1:2|0:0,0:0:0:0:
109,248,188461,1,2,0:2:0:0:
204,240,188604,2,0,B|218:121|218:121|137:31,1,240,2|0,0:2|0:0,0:0:0:0:
43,52,189176,1,0,3:0:0:0:
0,137,189318,2,0,P|42:144|90:131,1,80,0|2,1:2|0:2,0:2:0:0:
171,112,189604,2,0,P|213:105|261:118,1,80,2|2,3:2|0:2,0:2:0:0:
343,89,189890,5,0,3:0:0:0:
443,252,190176,1,2,0:1:0:0:
407,340,190318,1,2,0:1:0:0:
348,263,190461,1,8,1:0:0:0:
312,351,190604,2,0,L|231:345,1,80,2|2,0:0|0:0,0:0:0:0:
138,369,190890,2,0,P|178:314|163:222,1,160,2|0,0:2|0:0,0:0:0:0:
92,164,191318,2,0,P|129:152|153:120,1,80,2|2,0:1|0:1,0:0:0:0:
164,24,191604,37,8,1:2:0:0:
292,18,191747,1,10,0:3:0:0:
252,139,191890,1,10,0:3:0:0:
371,92,192033,1,8,0:3:0:0:
367,216,192176,6,0,B|418:236|486:217|486:217|469:284|495:333,1,240,2|0,3:2|0:0,0:0:0:0:
400,321,192747,2,0,P|375:335|341:374,1,80,2|0,1:2|0:0,0:0:0:0:
279,298,193033,2,0,P|250:297|201:314,1,80,2|0,0:2|0:0,0:0:0:0:
121,366,193318,1,2,3:2:0:0:
117,269,193461,1,0,0:0:0:0:
38,214,193604,1,2,0:2:0:0:
25,118,193747,2,0,L|197:108,1,160,2|2,0:2|0:2,0:0:0:0:
191,205,194176,1,2,0:2:0:0:
123,272,194318,1,2,0:2:0:0:
132,366,194461,38,0,P|209:352|286:372,1,160,2|0,3:2|0:0,0:0:0:0:
361,310,194890,2,0,P|347:264|357:211,1,80,2|0,0:2|1:0,0:0:0:0:
443,254,195176,2,0,P|457:208|447:155,1,80,2|8,0:1|0:1,0:0:0:0:
396,100,195461,2,0,L|237:90,1,160,2|2,0:2|0:2,0:0:0:0:
139,80,195890,2,0,L|34:73,1,80,2|2,0:2|0:1,0:0:0:0:
20,163,196176,1,10,1:2:0:0:
91,226,196318,1,4,0:1:0:0:
169,171,196461,1,2,0:0:0:0:
273,332,196747,6,0,P|203:314|105:334,2,160,2|2|2,3:2|0:2|1:2,0:0:0:0:
458,383,197604,1,2,0:2:0:0:
425,292,197747,2,0,P|403:279|369:272,2,40,2|0|0,0:2|0:0|3:0,0:0:0:0:
474,208,198033,1,2,0:2:0:0:
405,140,198176,1,2,0:2:0:0:
430,48,198318,1,0,3:2:0:0:
502,111,198461,1,2,1:2:0:0:
317,166,198747,1,2,3:2:0:0:
227,131,198890,1,2,0:2:0:0:
137,165,199033,37,6,3:2:0:0:
106,256,199176,1,2,0:2:0:0:
160,334,199318,1,2,0:2:0:0:
208,251,199461,2,0,P|260:250|309:275,1,80,2|0,0:2|1:0,0:0:0:0:
364,316,199747,2,0,P|416:317|465:292,1,80,2|0,0:2|0:0,0:0:0:0:
479,218,200033,2,0,L|487:136,1,80,2|0,0:0|3:0,0:0:0:0:
374,144,200318,2,0,L|364:57,1,80,2|0,0:0|0:0,0:0:0:0:
258,101,200604,2,0,P|222:102|181:81,1,80,2|8,0:0|1:2,0:0:0:0:
70,72,200890,2,0,P|49:39|49:-12,1,80,10|8,0:3|0:3,0:0:0:0:
19,166,201176,6,0,P|65:203|64:372,1,240,10|0,0:3|0:0,0:0:0:0:
209,198,201890,2,0,P|170:206|135:225,1,80,0|0,1:0|0:0,0:0:0:0:
203,293,202176,1,2,0:2:0:0:
289,332,202318,2,0,P|322:338|372:328,1,80,2|0,0:2|3:0,0:0:0:0:
459,301,202604,1,2,0:2:0:0:
465,205,202747,2,0,L|478:36,2,160,2|0|0,0:2|1:0|0:0,0:0:0:0:
459,301,203461,1,2,0:2:0:0:
367,329,203604,37,2,3:2:0:0:
279,291,203747,1,2,0:2:0:0:
261,196,203890,1,2,0:2:0:0:
261,196,204176,1,2,1:2:0:0:
172,231,204318,1,2,0:1:0:0:
79,206,204461,1,2,0:2:0:0:
35,120,204604,2,0,L|114:121,1,80,2|0,0:2|3:0,0:0:0:0:
199,73,204890,2,0,L|278:72,1,80,2|2,0:2|0:1,0:0:0:0:
356,130,205176,1,2,0:2:0:0:
432,187,205318,2,0,P|456:133|407:48,1,160,10|4,1:2|0:1,0:0:0:0:
274,186,205890,5,2,3:2:0:0:
328,265,206033,2,0,L|374:271,2,40,2|0|2,0:2|0:0|0:2,0:0:0:0:
276,346,206318,1,0,0:0:0:0:
180,360,206461,2,0,P|133:317|39:321,1,160,2|0,1:2|0:0,0:0:0:0:
58,224,206890,1,2,0:2:0:0:
28,132,207033,2,0,P|73:132|114:93,1,80,2|0,3:2|0:0,0:0:0:0:
160,37,207318,1,2,0:2:0:0:
192,153,207461,2,0,P|234:107|338:81,1,160,2|0,3:2|0:0,0:0:0:0:
382,158,207890,2,0,P|418:168|459:201,1,80,2|0,0:2|0:0,0:0:0:0:
469,288,208176,37,2,3:2:0:0:
386,335,208318,1,0,0:0:0:0:
296,299,208461,1,2,0:2:0:0:
290,203,208604,1,2,0:1:0:0:
210,256,208747,2,0,P|168:249|121:259,1,80,2|4,1:2|0:1,0:0:0:0:
297,210,209033,2,0,P|336:216|375:209,1,80,2|0,0:2|0:0,0:0:0:0:
436,135,209318,2,0,L|424:330,2,160,2|2|10,3:2|0:2|1:2,0:0:0:0:
477,12,210033,1,8,0:3:0:0:
350,33,210176,1,8,0:3:0:0:
224,51,210318,6,0,L|56:73,1,160,10|0,0:3|0:0,0:0:0:0:
33,163,210747,1,0,0:0:0:0:
33,163,211033,2,0,L|112:151,1,80,2|0,1:2|0:0,0:0:0:0:
164,231,211318,1,2,0:2:0:0:
214,312,211461,1,2,0:2:0:0:
119,328,211604,2,0,L|40:340,1,80,2|0,3:2|0:0,0:0:0:0:
66,247,211890,1,2,0:2:0:0:
164,231,212033,2,0,L|322:207,1,160,2|0,0:2|0:0,0:0:0:0:
417,191,212461,1,0,0:0:0:0:
492,249,212604,38,0,P|453:308|342:300,1,160,2|2,0:2|0:2,0:0:0:0:
276,347,213033,2,0,P|239:334|199:329,1,80,2|0,0:2|0:0,0:0:0:0:
110,293,213318,2,0,P|140:267|164:235,1,80,2|0,1:2|0:0,0:0:0:0:
241,175,213604,2,0,P|248:214|263:250,1,80,2|0,0:2|0:0,0:0:0:0:
353,287,213890,1,2,3:2:0:0:
447,270,214033,1,2,0:2:0:0:
490,184,214176,1,2,0:2:0:0:
469,90,214318,2,0,L|307:83,1,160,2|0,0:2|0:0,0:0:0:0:
212,80,214747,1,2,0:2:0:0:
40,252,215033,6,0,L|202:245,1,160,0|2,3:2|0:2,0:0:0:0:
295,244,215461,1,2,0:2:0:0:
254,331,215604,2,0,L|416:338,1,160,2|0,1:2|0:0,0:0:0:0:
510,342,216033,2,0,L|512:259,1,80,2|0,0:2|3:0,0:0:0:0:
439,198,216318,2,0,L|437:115,1,80,2|0,0:2|0:0,0:0:0:0:
478,30,216604,1,2,3:0:0:0:
381,32,216747,1,0,1:2:0:0:
217,133,217033,2,0,P|234:141|250:153,2,40,2|2|2,3:2|0:2|0:2,0:0:0:0:
122,115,217318,37,4,3:2:0:0:
75,301,217604,1,2,0:1:0:0:
136,374,217747,1,2,0:1:0:0:
171,284,217890,1,8,1:1:0:0:
236,354,218033,2,0,L|316:338,1,80,4|2,0:1|0:2,0:0:0:0:
408,319,218318,1,0,0:0:0:0:
445,230,218461,2,0,P|456:185|449:149,1,80,2|0,3:2|0:0,0:0:0:0:
347,106,218747,2,0,P|341:145|352:183,1,80,2|0,0:2|0:0,0:0:0:0:
284,273,219033,5,10,1:2:0:0:
230,156,219176,1,8,0:3:0:0:
117,216,219318,1,10,0:3:0:0:
158,94,219461,1,8,0:3:0:0:
31,70,219604,1,0,3:3:0:0:
256,192,219747,12,0,228747,0:0:0:0:
