osu file format v14

[General]
AudioFilename: audio.mp3
AudioLeadIn: 0
PreviewTime: 16176
Countdown: 0
SampleSet: Soft
StackLeniency: 0.7
Mode: 0
LetterboxInBreaks: 0
WidescreenStoryboard: 1

[Editor]
Bookmarks: 182461
DistanceSpacing: 1.2
BeatDivisor: 4
GridSize: 4
TimelineZoom: 1.5

[Metadata]
Title:Midnight City
TitleUnicode:Midnight City
Artist:M83
ArtistUnicode:M83
Creator:_orange
Version:Renumi's Normal
Source:
Tags:hurry up we're dreaming anthony gonzalez synthpop electronic huwd mute naive english renumi hewwo ralsei mimari reform kujinn squirrelpascals saturnalize
BeatmapID:2007725
BeatmapSetID:871651

[Difficulty]
HPDrainRate:4
CircleSize:3
OverallDifficulty:3
ApproachRate:4
SliderMultiplier:1.45
SliderTickRate:1

[Events]
//Background and Video events
0,0,"bg.jpg",0,0
//Break Periods
2,128375,135998
2,155518,161141
//Storyboard Layer 0 (Background)
//Storyboard Layer 1 (Fail)
//Storyboard Layer 2 (Pass)
//Storyboard Layer 3 (Foreground)
//Storyboard Layer 4 (Overlay)
//Storyboard Sound Samples

[TimingPoints]
9319,571.428571428571,4,2,1,50,1,0
16176,-100,4,2,1,80,0,0
18461,-100,4,2,1,80,0,1
18604,-100,4,2,1,80,0,0
36747,-100,4,2,1,50,0,0
52747,-100,4,2,1,80,0,0
55033,-100,4,2,1,80,0,1
55176,-100,4,2,1,80,0,0
73318,-100,4,2,1,60,0,0
107604,-100,4,2,1,80,0,0
109890,-100,4,2,1,80,0,1
110033,-100,4,2,1,80,0,0
128176,-100,4,2,1,50,0,0
156747,-100,4,2,1,50,0,0
164747,-100,4,2,1,80,0,1
221890,-100,4,2,1,70,0,1
224176,-100,4,2,1,60,0,1
226461,-100,4,2,1,50,0,1
228747,-100,4,2,1,40,0,0

[Colours]
Combo1 : 232,146,17
Combo2 : 128,128,128
Combo3 : 192,192,192
Combo4 : 240,54,0

[HitObjects]
32,0,9319,6,0,B|25:72|25:72|40:114,1,108.75,2|2,0:0|0:0,0:0:0:0:
151,169,10176,2,0,B|158:241|158:241|143:283,1,108.75,2|2,0:0|0:0,0:0:0:0:
248,356,11033,1,2,0:0:0:0:
314,300,11319,1,2,0:0:0:0:
400,306,11604,6,0,P|433:268|460:202,1,108.75,2|2,0:0|0:0,0:0:0:0:
424,88,12461,1,2,0:0:0:0:
364,24,12747,2,0,L|206:41,1,145,2|2,0:0|0:0,0:0:0:0:
46,28,13890,38,0,P|37:86|22:138,1,108.75,2|2,0:0|0:0,0:0:0:0:
3,263,14747,2,0,P|55:248|109:240,2,108.75,2|2|2,0:0|0:0|0:0,0:0:0:0:
136,383,16176,21,4,3:2:0:0:
136,383,16318,2,0,P|159:350|181:312,1,72.5,8|0,0:3|3:0,0:0:0:0:
215,304,16747,2,0,L|201:208,1,72.5,10|0,0:3|3:0,0:0:0:0:
181,194,17176,2,0,P|198:148|209:77,1,108.75,10|0,0:3|3:0,0:0:0:0:
273,31,17890,2,0,L|322:20,1,36.25,10|8,0:3|0:3,0:0:0:0:
343,49,18176,2,0,L|392:60,1,36.25,8|8,0:3|0:3,0:0:0:0:
415,33,18461,6,0,P|458:99|460:180,1,145,0|2,3:2|1:2,0:0:0:0:
441,250,19318,1,2,0:0:0:0:
441,250,19461,2,0,B|371:246|371:246|320:215,1,108.75,2|0,0:2|0:0,0:0:0:0:
290,147,20176,1,2,1:2:0:0:
191,290,20747,38,0,P|163:256|144:142,1,145,0|2,3:2|1:2,0:0:0:0:
98,83,21604,2,0,L|47:68,2,36.25,8|2|0,0:1|0:2|3:2,0:0:0:0:
172,37,22176,2,0,L|223:22,1,36.25,2|2,0:1|0:1,0:0:0:0:
249,35,22461,2,0,P|296:70|334:81,1,72.5,2|0,1:2|0:0,0:0:0:0:
393,97,23033,6,0,P|421:131|440:245,1,145,0|2,3:0|1:2,0:0:0:0:
406,306,23890,1,2,0:0:0:0:
406,306,24033,2,0,B|341:314|357:293|279:302,1,108.75,2|0,0:2|0:0,0:0:0:0:
222,343,24747,2,0,P|192:308|163:201,1,145,2|0,1:2|3:0,0:0:0:0:
204,138,25604,38,0,L|225:97,2,36.25,2|2|2,0:1|0:1|1:2,0:0:0:0:
38,192,26461,2,0,P|20:135|13:91,1,72.5,0|2,3:0|0:1,0:0:0:0:
47,40,27033,2,0,L|91:19,1,36.25,2|8,1:2|0:3,0:0:0:0:
116,47,27318,2,0,L|175:55,1,36.25,8|8,0:3|0:3,0:0:0:0:
192,36,27604,6,0,B|275:29|246:56|340:45,1,145,0|2,3:0|1:2,0:0:0:0:
425,61,28461,1,2,0:0:0:0:
425,61,28604,2,0,P|469:115|480:172,1,108.75,2|0,0:0|0:0,0:0:0:0:
439,228,29318,1,2,1:2:0:0:
338,370,29890,38,0,L|179:351,1,145,0|2,3:2|1:2,0:0:0:0:
106,349,30747,2,0,L|115:383,2,36.25,8|2|0,0:1|0:2|3:0,0:0:0:0:
56,277,31318,2,0,L|65:242,1,36.25,2|2,0:1|0:1,0:0:0:0:
91,207,31604,2,0,P|87:179|84:125,1,72.5,2|0,1:2|0:0,0:0:0:0:
127,58,32176,6,0,P|184:50|275:9,1,145,0|2,3:0|1:2,0:0:0:0:
345,61,33033,1,2,0:0:0:0:
345,61,33176,2,0,P|402:76|476:111,1,108.75,2|0,0:0|0:0,0:0:0:0:
497,166,33890,2,0,L|487:318,1,145,2|0,1:2|3:2,0:0:0:0:
417,363,34747,38,0,L|374:368,2,36.25,2|2|2,0:1|0:1|1:2,0:0:0:0:
315,221,35604,2,0,P|279:212|243:209,1,72.5,0|2,3:0|0:1,0:0:0:0:
157,225,36176,2,0,L|118:195,1,36.25,10|8,1:2|0:3,0:0:0:0:
84,206,36461,2,0,L|64:154,1,36.25,8|8,0:3|0:3,0:0:0:0:
27,164,36747,22,0,P|38:108|50:13,1,145,0|0,3:0|1:0,0:0:0:0:
223,24,37890,2,0,P|246:58|286:90,1,72.5,2|2,3:2|0:2,0:0:0:0:
339,129,38461,2,0,L|441:113,1,72.5,2|2,1:2|0:2,0:0:0:0:
473,178,39033,2,0,P|439:242|383:290,1,145,2|0,3:2|1:0,0:0:0:0:
308,325,39890,1,0,0:0:0:0:
308,325,40176,1,0,3:0:0:0:
137,357,40747,1,0,1:0:0:0:
44,209,41318,6,0,B|30:110|30:110|42:66,1,145,0|0,3:0|1:0,0:0:0:0:
213,39,42461,2,0,P|198:78|153:135,1,108.75,2|0,3:2|3:0,0:0:0:0:
142,172,43033,2,0,P|177:176|213:182,1,72.5,2|2,1:2|0:0,0:0:0:0:
291,235,43604,2,0,L|451:221,1,145,2|0,3:2|1:0,0:0:0:0:
506,170,44461,1,2,0:2:0:0:
506,170,44747,1,2,3:2:0:0:
352,88,45318,2,0,L|301:76,2,36.25,2|8|10,1:2|0:3|0:3,0:0:0:0:
439,77,45890,38,0,L|434:237,1,145,0|0,3:2|1:2,0:0:0:0:
321,354,47033,2,0,P|279:340|241:320,1,72.5,2|0,3:2|0:0,0:0:0:0:
185,273,47604,2,0,L|172:187,1,72.5,2|2,1:2|0:2,0:0:0:0:
139,121,48176,2,0,P|70:110|-8:84,1,145,2|0,3:2|1:0,0:0:0:0:
28,7,49033,1,0,0:0:0:0:
28,7,49318,1,0,3:0:0:0:
57,186,49890,1,0,1:0:0:0:
94,355,50461,6,0,P|163:344|241:318,1,145,0|0,3:0|1:0,0:0:0:0:
365,205,51604,2,0,P|418:222|449:246,1,72.5,2|2,3:2|0:2,0:0:0:0:
449,316,52176,2,0,P|407:353|371:368,1,72.5,2|2,1:2|0:2,0:0:0:0:
314,336,52747,5,6,3:2:0:0:
314,336,52890,2,0,P|302:281|307:242,1,72.5,8|2,0:3|3:2,0:0:0:0:
263,247,53318,2,0,P|280:194|303:162,1,72.5,8|2,0:3|3:2,0:0:0:0:
319,149,53747,2,0,P|271:123|235:83,1,108.75,8|0,0:3|3:3,0:0:0:0:
152,55,54461,2,0,L|126:83,1,36.25,14|8,0:3|0:3,0:0:0:0:
83,80,54747,2,0,L|75:119,1,36.25,8|8,0:3|0:3,0:0:0:0:
52,152,55033,6,0,P|76:229|78:303,1,145,0|2,3:0|1:2,0:0:0:0:
138,364,55890,1,2,0:0:0:0:
138,364,56033,2,0,P|184:345|268:345,1,108.75,2|0,0:2|0:0,0:0:0:0:
324,352,56747,1,2,1:2:0:0:
482,281,57318,38,0,P|436:232|402:149,1,145,0|2,3:2|1:2,0:0:0:0:
458,92,58176,2,0,L|508:108,2,36.25,8|2|0,0:1|0:2|3:0,0:0:0:0:
398,28,58747,2,0,L|363:16,1,36.25,2|2,0:1|0:1,0:0:0:0:
319,21,59033,2,0,P|275:55|246:73,1,72.5,10|0,1:2|0:0,0:0:0:0:
173,58,59604,6,0,P|103:69|40:128,1,145,0|2,3:0|1:2,0:0:0:0:
28,203,60461,1,2,0:0:0:0:
28,203,60604,2,0,P|62:250|108:289,1,108.75,2|0,0:2|0:0,0:0:0:0:
173,330,61318,2,0,B|229:337|229:337|331:315,1,145,2|0,1:2|3:0,0:0:0:0:
380,259,62176,38,0,L|386:210,2,36.25,2|2|2,0:1|0:1|1:2,0:0:0:0:
213,208,63033,2,0,P|199:159|191:113,1,72.5,0|2,3:0|0:1,0:0:0:0:
263,84,63604,2,0,L|318:93,1,36.25,10|8,1:2|0:3,0:0:0:0:
335,113,63890,2,0,L|391:100,1,36.25,8|8,0:3|0:3,0:0:0:0:
396,67,64176,6,0,P|460:69|492:138,1,145,0|2,3:0|1:2,0:0:0:0:
482,229,65033,1,2,0:0:0:0:
482,229,65176,2,0,P|430:254|354:254,1,108.75,2|0,0:0|0:0,0:0:0:0:
301,220,65890,1,2,1:2:0:0:
204,364,66461,38,0,B|120:377|153:341|51:359,1,145,0|2,3:2|1:2,0:0:0:0:
19,280,67318,2,0,L|-21:288,2,36.25,8|2|0,0:1|0:2|3:1,0:0:0:0:
82,219,67890,2,0,L|122:227,1,36.25,2|2,0:1|0:1,0:0:0:0:
156,245,68176,2,0,P|199:197|211:168,1,72.5,10|0,1:2|0:0,0:0:0:0:
196,103,68747,6,0,B|356:96,1,145,0|2,3:0|1:2,0:0:0:0:
429,79,69604,1,2,0:0:0:0:
429,79,69747,2,0,B|472:118|498:168,1,108.75,2|0,0:2|0:0,0:0:0:0:
455,241,70461,2,0,B|384:244|309:220,1,145,2|0,1:2|3:0,0:0:0:0:
227,201,71318,38,0,L|238:252,2,36.25,2|2|2,0:1|0:1|1:2,0:0:0:0:
126,58,72176,2,0,P|88:68|51:86,1,72.5,0|2,3:0|0:1,0:0:0:0:
25,162,72747,2,0,L|40:205,1,36.25,10|8,1:2|0:3,0:0:0:0:
75,216,73033,2,0,L|69:263,1,36.25,8|8,0:3|0:3,0:0:0:0:
57,302,73318,22,0,P|90:317|203:329,1,145,0|0,3:0|1:0,0:0:0:0:
371,317,74461,2,0,P|386:279|398:228,1,72.5,2|2,3:2|0:2,0:0:0:0:
332,186,75033,2,0,P|297:195|263:209,1,72.5,2|2,1:2|0:2,0:0:0:0:
176,203,75604,2,0,P|182:130|186:47,2,145,2|0|0,3:2|1:0|3:0,0:0:0:0:
59,332,77318,1,0,1:0:0:0:
229,366,77890,6,0,B|329:366|329:366|385:337,1,145,0|0,3:0|1:0,0:0:0:0:
439,293,78747,1,0,0:0:0:0:
369,224,79033,2,0,P|347:182|336:120,1,108.75,2|0,3:2|3:0,0:0:0:0:
371,96,79604,2,0,P|393:54|403:14,1,72.5,2|2,1:2|0:2,0:0:0:0:
316,3,80176,2,0,P|254:18|152:23,1,145,2|0,3:2|1:0,0:0:0:0:
103,188,81318,2,0,P|165:173|199:172,1,72.5,2|0,3:2|0:0,0:0:0:0:
254,204,81890,2,0,L|269:245,2,36.25,2|8|10,1:2|0:3|0:3,0:0:0:0:
320,147,82461,38,0,P|377:160|423:258,1,145,0|0,3:0|1:0,0:0:0:0:
436,314,83318,1,0,0:0:0:0:
359,356,83604,2,0,P|322:353|275:336,1,72.5,2|2,3:2|0:2,0:0:0:0:
210,302,84176,2,0,L|124:316,1,72.5,2|2,1:2|0:2,0:0:0:0:
56,342,84747,2,0,P|38:275|40:188,2,145,2|0|0,3:2|1:0|3:0,0:0:0:0:
197,240,86461,1,0,1:0:0:0:
137,76,87033,6,0,B|241:95|241:95|299:89,1,145,0|0,3:0|1:2,0:0:0:0:
365,74,87890,1,0,0:0:0:0:
442,112,88176,2,0,P|464:156|477:220,1,108.75,2|0,3:2|3:0,0:0:0:0:
448,247,88747,2,0,P|430:278|419:313,1,72.5,2|2,1:2|0:2,0:0:0:0:
354,372,89318,2,0,B|250:353|250:353|192:359,1,145,2|0,3:2|1:0,0:0:0:0:
102,220,90461,2,0,L|187:240,1,72.5,2|0,3:2|0:0,0:0:0:0:
257,257,91033,2,0,L|288:289,2,36.25,2|8|8,1:2|0:3|0:3,0:0:0:0:
258,169,91604,38,0,L|230:69,1,72.5,0|2,3:0|0:2,0:0:0:0:
257,13,92176,1,0,1:0:0:0:
401,110,92747,2,0,P|442:132|477:144,1,72.5,2|2,3:2|0:2,0:0:0:0:
466,243,93318,2,0,P|432:256|401:274,1,72.5,2|2,1:2|0:2,0:0:0:0:
368,355,93890,2,0,L|209:336,1,145,2|0,3:2|1:0,0:0:0:0:
51,359,95033,2,0,B|25:258|25:258|31:197,1,145,2|2,3:2|1:2,0:0:0:0:
61,136,95890,1,2,0:2:0:0:
146,117,96176,6,0,P|182:140|215:170,1,72.5,0|2,3:0|0:2,0:0:0:0:
253,231,96747,1,0,1:0:0:0:
403,317,97318,2,0,L|429:205,1,108.75,2|0,3:2|3:0,0:0:0:0:
467,194,97890,2,0,P|464:163|449:106,1,72.5,2|2,1:2|0:2,0:0:0:0:
417,44,98461,2,0,P|367:70|265:92,1,145,2|0,3:2|1:0,0:0:0:0:
206,136,99318,1,2,0:2:0:0:
163,62,99604,2,0,P|113:43|77:38,1,72.5,2|0,3:2|0:0,0:0:0:0:
7,48,100176,2,0,L|0:12,2,36.25,2|8|8,1:2|0:3|0:3,0:0:0:0:
24,133,100747,37,0,0:0:0:0:
62,302,101318,2,0,P|126:335|209:344,1,145,8|2,0:3|0:2,0:0:0:0:
256,276,102176,1,2,0:2:0:0:
314,344,102461,2,0,P|385:335|450:302,1,145,10|2,0:3|0:2,0:0:0:0:
368,148,103604,2,0,P|350:67|340:-6,1,145,2|2,1:2|0:2,0:0:0:0:
170,5,104747,2,0,P|159:77|144:148,1,145,0|0,1:0|0:0,0:0:0:0:
256,276,105890,6,0,L|254:96,1,145,8|2,0:3|0:2,0:0:0:0:
213,55,106747,1,2,0:2:0:0:
130,59,107033,2,0,P|78:73|44:90,1,72.5,2|2,1:2|0:2,0:0:0:0:
18,156,107604,21,6,3:2:0:0:
18,156,107747,2,0,L|26:233,1,72.5,8|2,0:3|3:2,0:0:0:0:
17,271,108176,2,0,P|51:304|81:323,1,72.5,8|2,0:3|3:2,0:0:0:0:
99,351,108604,2,0,L|218:338,1,108.75,8|0,0:3|3:0,0:0:0:0:
292,354,109318,2,0,P|308:341|337:321,1,36.25,14|8,0:3|0:3,0:0:0:0:
364,326,109604,2,0,P|369:299|374:264,1,36.25,8|8,0:3|0:3,0:0:0:0:
353,250,109890,38,0,P|332:178|330:86,1,145,0|2,3:0|1:2,0:0:0:0:
286,31,110747,1,2,0:0:0:0:
286,31,110890,2,0,P|240:56|161:61,1,108.75,2|0,0:2|0:0,0:0:0:0:
102,36,111604,1,2,1:2:0:0:
3,179,112176,6,0,B|89:187|68:163|155:178,1,145,0|2,3:2|1:2,0:0:0:0:
231,199,113033,2,0,L|245:244,2,36.25,8|2|0,0:1|0:2|3:0,0:0:0:0:
296,141,113604,2,0,L|330:151,1,36.25,2|2,0:1|0:1,0:0:0:0:
366,177,113890,2,0,P|401:171|436:161,1,72.5,10|0,1:2|0:0,0:0:0:0:
497,223,114461,38,0,P|504:267|435:351,1,145,0|2,3:0|1:2,0:0:0:0:
363,355,115318,1,2,0:0:0:0:
363,355,115461,2,0,B|286:347|286:347|235:316,1,108.75,2|0,0:2|0:0,0:0:0:0:
220,252,116176,2,0,P|157:248|86:304,1,145,2|0,1:2|3:0,0:0:0:0:
156,352,117033,6,0,L|207:370,2,36.25,2|2|2,0:1|0:1|1:2,0:0:0:0:
80,195,117890,2,0,P|56:146|48:103,1,72.5,0|2,3:0|0:1,0:0:0:0:
101,57,118461,2,0,L|156:21,1,36.25,10|8,1:2|0:3,0:0:0:0:
165,9,118747,2,0,L|204:24,1,36.25,8|8,0:3|0:3,0:0:0:0:
225,57,119033,38,0,B|323:79|323:79|371:66,1,145,0|2,3:0|1:2,0:0:0:0:
439,113,119890,1,2,0:0:0:0:
439,113,120033,2,0,B|437:240,1,108.75,2|0,0:0|0:0,0:0:0:0:
476,299,120747,1,2,1:2:0:0:
317,370,121318,6,0,P|269:329|218:249,1,145,0|2,3:2|1:2,0:0:0:0:
152,210,122176,2,0,L|106:227,2,36.25,8|2|0,0:1|0:2|3:1,0:0:0:0:
204,140,122747,2,0,L|209:83,1,36.25,2|2,0:1|0:1,0:0:0:0:
219,61,123033,2,0,P|266:60|302:56,1,72.5,10|0,1:2|0:0,0:0:0:0:
376,39,123604,38,0,P|437:66|466:152,1,145,0|2,3:0|1:2,0:0:0:0:
414,204,124461,1,2,0:0:0:0:
414,204,124604,2,0,L|285:187,1,108.75,2|0,0:2|0:0,0:0:0:0:
222,164,125318,2,0,P|156:191|126:255,1,145,2|0,1:2|3:0,0:0:0:0:
184,319,126176,6,0,L|206:367,2,36.25,2|2|2,0:1|0:1|1:2,0:0:0:0:
43,216,127033,2,0,P|51:180|62:146,1,72.5,0|2,3:0|0:1,0:0:0:0:
112,74,127604,2,0,L|167:87,1,36.25,10|8,1:2|0:3,0:0:0:0:
179,112,127890,2,0,L|214:103,2,36.25,8|8|0,0:3|0:3|0:0,0:0:0:0:
7,20,137318,5,0,3:0:0:0:
142,129,137890,1,0,3:0:0:0:
291,226,138461,2,0,P|327:183|344:152,1,72.5,2|2,3:2|0:2,0:0:0:0:
422,165,139033,2,0,P|439:187|471:220,1,72.5,2|2,3:2|0:2,0:0:0:0:
465,306,139604,2,0,P|420:313|345:384,1,145,2|0,3:2|3:0,0:0:0:0:
163,378,140747,2,0,P|115:324|47:306,1,145,0|0,3:0|3:0,0:0:0:0:
8,136,141890,5,0,3:0:0:0:
178,106,142461,1,0,3:0:0:0:
339,41,143033,2,0,L|460:62,1,108.75,2|0,3:2|3:0,0:0:0:0:
484,79,143604,2,0,P|498:118|506:157,1,72.5,2|2,3:2|0:2,0:0:0:0:
493,234,144176,2,0,B|415:248|448:221|337:235,1,145,2|0,3:2|3:0,0:0:0:0:
163,233,145318,2,0,B|64:221|97:248|19:234,1,145,2|2,3:2|3:2,0:0:0:0:
34,320,146176,1,2,0:2:0:0:
109,362,146461,37,0,3:0:0:0:
283,368,147033,1,0,3:0:0:0:
418,259,147604,2,0,P|438:205|443:165,1,72.5,2|2,3:2|0:2,0:0:0:0:
439,103,148176,2,0,P|430:67|416:34,1,72.5,2|2,3:2|0:2,0:0:0:0:
344,83,148747,2,0,P|296:103|191:115,1,145,2|2,3:2|3:2,0:0:0:0:
168,301,149890,2,0,P|216:281|321:269,2,145,2|2|0,3:2|3:2|3:0,0:0:0:0:
13,380,151604,5,0,3:0:0:0:
84,221,152176,2,0,L|68:104,1,108.75,2|0,3:2|3:0,0:0:0:0:
76,70,152747,2,0,P|124:47|155:43,1,72.5,2|2,3:2|0:2,0:0:0:0:
218,85,153318,2,0,P|283:120|374:118,1,145,2|0,3:2|3:0,0:0:0:0:
294,299,154461,2,0,P|229:264|138:266,1,145,2|2,3:2|3:2,0:0:0:0:
88,311,155318,1,2,0:2:0:0:
174,194,162461,5,6,3:2:0:0:
174,194,162604,2,0,P|153:148|146:106,1,72.5,8|0,0:3|3:0,0:0:0:0:
107,111,163033,2,0,P|116:76|132:43,1,72.5,8|2,0:3|3:2,0:0:0:0:
126,0,163461,2,0,P|182:25|245:30,1,108.75,10|0,0:3|3:3,0:0:0:0:
301,79,164176,2,0,L|367:65,1,36.25,14|8,0:3|0:3,0:0:0:0:
377,86,164461,2,0,P|387:104|399:121,1,36.25,10|8,0:3|0:3,0:0:0:0:
439,119,164747,6,0,P|475:155|486:245,1,145,2|0,3:2|1:2,0:0:0:0:
434,316,165604,1,2,0:2:0:0:
434,316,165747,2,0,P|371:310|317:294,1,108.75,2|0,0:2|0:2,0:0:0:0:
255,247,166461,1,2,1:2:0:0:
251,159,166747,1,2,0:2:0:0:
183,104,167033,38,0,P|127:118|22:131,1,145,2|0,3:2|1:2,0:0:0:0:
32,216,167890,2,0,L|-11:199,2,36.25,8|4|0,0:1|0:1|3:2,0:0:0:0:
88,282,168461,2,0,L|123:274,1,36.25,2|2,0:1|0:1,0:0:0:0:
163,257,168747,2,0,P|214:287|246:296,1,72.5,8|0,1:2|0:0,0:0:0:0:
293,347,169318,6,0,B|373:332|360:359|454:338,1,145,0|0,3:0|1:0,0:0:0:0:
495,175,170461,2,0,P|470:128|418:76,1,108.75,2|0,3:2|3:0,0:0:0:0:
403,54,171033,2,0,P|356:79|320:109,1,72.5,2|2,1:2|0:2,0:0:0:0:
274,146,171604,37,2,3:2:0:0:
191,117,171890,2,0,L|171:71,2,36.25,2|2|8,0:1|0:1|1:1,0:0:0:0:
221,288,172747,2,0,P|189:272|150:238,1,72.5,0|2,3:2|0:1,0:0:0:0:
99,186,173318,2,0,L|119:140,2,36.25,8|8|8,1:2|0:3|0:3,0:0:0:0:
11,193,173890,6,0,L|-3:32,1,145,0|0,3:0|1:0,0:0:0:0:
75,4,174747,1,2,0:0:0:0:
75,4,174890,2,0,P|131:21|202:35,1,108.75,2|0,0:0|0:2,0:0:0:0:
263,56,175604,1,2,1:2:0:0:
349,51,175890,1,2,0:2:0:0:
435,39,176176,38,0,P|444:87|466:186,1,145,2|0,3:2|1:2,0:0:0:0:
477,268,177033,2,0,L|513:278,2,36.25,8|4|0,0:1|0:1|3:0,0:0:0:0:
389,271,177604,2,0,L|357:315,1,36.25,2|2,0:1|0:1,0:0:0:0:
337,332,177890,2,0,P|287:348|253:351,1,72.5,8|0,1:2|0:0,0:0:0:0:
183,373,178461,6,0,P|132:326|96:243,1,145,0|0,3:0|1:0,0:0:0:0:
151,92,179604,2,0,L|265:108,1,108.75,2|0,3:2|3:0,0:0:0:0:
296,128,180176,2,0,P|347:106|382:78,1,72.5,2|2,1:2|3:2,0:0:0:0:
444,73,180747,37,6,3:2:0:0:
489,147,181033,2,0,L|507:186,1,36.25,2|2,0:1|0:1,0:0:0:0:
511,222,181318,2,0,P|499:256|468:314,1,72.5,8|0,1:1|0:0,0:0:0:0:
426,354,181890,1,0,3:0:0:0:
348,314,182176,1,2,0:1:0:0:
273,364,182461,2,0,L|234:346,1,36.25,8|8,1:2|0:3,0:0:0:0:
196,348,182747,2,0,P|186:330|178:304,1,36.25,8|8,0:3|0:3,0:0:0:0:
141,296,183033,6,0,L|137:122,1,145,2|0,3:2|1:0,0:0:0:0:
171,72,183890,1,0,0:0:0:0:
171,72,184033,2,0,P|227:83|296:101,1,108.75,2|0,0:2|0:0,0:0:0:0:
350,48,184747,1,0,1:0:0:0:
477,166,185318,38,0,P|476:208|454:331,1,145,2|2,3:2|1:2,0:0:0:0:
392,363,186176,1,8,0:1:0:0:
392,363,186319,2,0,P|336:352|267:334,1,108.75,2|2,0:2|0:1,0:0:0:0:
212,291,187033,2,0,L|164:299,2,36.25,10|0|2,1:2|0:0|0:0,0:0:0:0:
272,228,187604,6,0,P|291:159|299:63,1,145,2|2,3:2|1:2,0:0:0:0:
248,22,188461,1,2,0:2:0:0:
248,22,188604,2,0,L|121:5,1,108.75,2|0,0:2|0:0,0:0:0:0:
58,38,189318,1,0,1:2:0:0:
17,207,189890,38,0,P|87:190|148:153,1,145,0|8,3:0|1:0,0:0:0:0:
224,107,190747,1,2,0:0:0:0:
224,107,190890,2,0,L|351:124,1,108.75,2|2,0:2|0:1,0:0:0:0:
414,148,191604,2,0,L|453:127,2,36.25,8|10|10,1:2|0:3|0:3,0:0:0:0:
382,229,192176,6,0,P|394:274|414:311,1,72.5,2|0,3:2|0:0,0:0:0:0:
354,368,192747,2,0,P|321:353|285:344,1,72.5,2|2,1:2|0:2,0:0:0:0:
199,352,193318,2,0,L|118:326,1,72.5,2|2,3:2|0:2,0:0:0:0:
54,285,193890,2,0,B|50:248|50:248|57:207,1,72.5,2|2,1:2|0:2,0:0:0:0:
53,126,194461,38,0,P|132:125|200:94,1,145,2|0,3:2|1:0,0:0:0:0:
348,22,195604,2,0,P|391:38|422:58,1,72.5,0|2,3:0|0:2,0:0:0:0:
448,132,196176,2,0,L|502:149,2,36.25,10|4|0,1:2|0:1|0:0,0:0:0:0:
396,201,196747,6,0,P|346:217|253:217,1,145,2|2,3:2|1:2,0:0:0:0:
167,217,197604,1,2,0:2:0:0:
167,217,197747,2,0,P|185:277|208:327,1,108.75,2|2,0:2|0:2,0:0:0:0:
281,358,198461,1,2,1:2:0:0:
418,250,199033,38,0,P|447:199|457:156,1,72.5,6|2,3:2|0:2,0:0:0:0:
410,108,199604,2,0,L|387:52,2,36.25,0|2|0,1:0|0:2|0:0,0:0:0:0:
332,147,200176,2,0,L|246:154,1,72.5,2|2,3:2|0:1,0:0:0:0:
175,174,200747,2,0,L|122:159,1,36.25,10|10,1:2|0:3,0:0:0:0:
100,183,201033,2,0,L|76:144,1,36.25,8|10,0:3|0:3,0:0:0:0:
46,125,201318,6,0,P|46:78|131:18,1,145,2|0,3:2|1:0,0:0:0:0:
207,28,202176,1,2,0:2:0:0:
207,28,202318,2,0,P|259:50|325:55,1,108.75,2|2,0:2|0:2,0:0:0:0:
396,39,203033,1,0,1:0:0:0:
324,197,203604,38,0,P|333:249|342:278,1,72.5,2|2,3:2|0:2,0:0:0:0:
403,326,204176,2,0,L|450:337,2,36.25,2|2|2,1:2|0:1|0:2,0:0:0:0:
336,384,204747,2,0,L|240:367,1,72.5,0|2,3:0|0:1,0:0:0:0:
190,325,205318,2,0,L|143:336,2,36.25,10|0|4,1:2|0:0|0:1,0:0:0:0:
231,248,205890,6,0,P|253:160|253:81,1,145,2|2,3:2|1:2,0:0:0:0:
207,33,206747,1,0,0:0:0:0:
122,11,207033,2,0,P|85:32|45:62,1,72.5,2|2,3:2|0:2,0:0:0:0:
22,127,207604,2,0,L|39:214,1,72.5,2|2,1:2|0:2,0:0:0:0:
29,285,208176,38,0,P|69:318|106:334,1,72.5,2|2,3:2|0:2,0:0:0:0:
166,295,208747,2,0,L|229:289,2,36.25,2|4|2,1:2|0:1|0:2,0:0:0:0:
128,216,209318,2,0,B|131:177|131:177|121:131,1,72.5,2|2,3:2|0:1,0:0:0:0:
155,63,209890,2,0,L|211:47,1,36.25,10|8,1:2|0:3,0:0:0:0:
216,18,210176,2,0,L|264:33,1,36.25,8|10,0:3|0:3,0:0:0:0:
279,63,210461,6,0,B|357:95|346:53|426:93,1,145,2|2,3:2|1:2,0:0:0:0:
491,138,211318,1,2,0:2:0:0:
476,227,211604,2,0,L|468:315,1,72.5,2|2,3:2|0:2,0:0:0:0:
460,342,212033,2,0,P|417:354|350:366,1,108.75,2|2,0:2|0:2,0:0:0:0:
256,336,212747,38,0,P|216:308|182:293,1,72.5,2|2,3:2|0:2,0:0:0:0:
119,254,213318,2,0,L|79:265,2,36.25,2|2|2,1:2|0:1|0:2,0:0:0:0:
174,186,213890,2,0,P|201:122|202:98,1,72.5,2|2,3:2|0:2,0:0:0:0:
172,37,214461,2,0,L|161:-3,2,36.25,10|0|2,1:2|0:0|0:2,0:0:0:0:
258,49,215033,6,0,P|332:64|421:68,1,145,2|2,3:2|1:2,0:0:0:0:
481,101,215890,1,0,0:0:0:0:
482,188,216176,2,0,L|498:310,1,108.75,0|2,3:0|3:0,0:0:0:0:
473,333,216747,2,0,P|425:349|389:352,1,72.5,2|0,1:2|0:0,0:0:0:0:
319,374,217318,38,0,P|266:342|245:317,1,72.5,4|2,3:2|0:1,0:0:0:0:
210,262,217890,2,0,L|149:236,2,36.25,8|4|2,1:1|0:1|0:2,0:0:0:0:
284,217,218461,2,0,P|337:185|358:160,1,72.5,2|2,3:2|0:1,0:0:0:0:
412,123,219033,2,0,L|409:70,1,36.25,10|8,1:2|0:3,0:0:0:0:
414,43,219318,2,0,P|399:32|377:20,1,36.25,10|8,0:3|0:3,0:0:0:0:
338,21,219604,6,0,L|182:4,2,145,2|0|0,3:2|1:0|3:0,0:0:0:0:
429,183,221318,2,0,P|372:202|334:203,1,72.5,2|0,1:2|0:0,0:0:0:0:
280,239,221890,38,0,P|244:231|192:216,1,72.5,2|0,3:2|0:0,0:0:0:0:
140,167,222461,2,0,L|120:120,2,36.25,0|2|4,1:0|0:1|0:1,0:0:0:0:
71,220,223033,2,0,P|56:260|47:297,1,72.5,0|2,3:0|0:1,0:0:0:0:
110,350,223604,6,0,L|157:330,1,36.25,10|0,1:2|0:0,0:0:0:0:
185,323,223890,2,0,L|218:337,1,36.25,0|0,0:0|0:0,0:0:0:0:
257,356,224176,1,2,3:2:0:0:
256,192,224461,12,2,228747,3:2:0:0:
