osu file format v14

[General]
AudioFilename: audio.mp3
AudioLeadIn: 0
PreviewTime: 16176
Countdown: 0
SampleSet: Soft
StackLeniency: 0.6
Mode: 0
LetterboxInBreaks: 0
WidescreenStoryboard: 1

[Editor]
Bookmarks: 9319,18461,36747,55033,73318,91604,109890,128176,155604,162461,164747,183033,201318,219604,228747
DistanceSpacing: 1.4
BeatDivisor: 8
GridSize: 8
TimelineZoom: 1.2

[Metadata]
Title:Midnight City
TitleUnicode:Midnight City
Artist:M83
ArtistUnicode:M83
Creator:_orange
Version:Mimari's Expert
Source:
Tags:hurry up we're dreaming anthony gonzalez synthpop electronic huwd mute naive english renumi hewwo ralsei mimari reform kujinn squirrelpascals saturnalize
BeatmapID:3254921
BeatmapSetID:871651

[Difficulty]
HPDrainRate:5
CircleSize:4
OverallDifficulty:8
ApproachRate:9.1
SliderMultiplier:1.8
SliderTickRate:1

[Events]
//Background and Video events
0,0,"bg.jpg",0,0
//Break Periods
2,128376,136718
2,155804,161861
//Storyboard Layer 0 (Background)
//Storyboard Layer 1 (Fail)
//Storyboard Layer 2 (Pass)
//Storyboard Layer 3 (Foreground)
//Storyboard Layer 4 (Overlay)
//Storyboard Sound Samples

[TimingPoints]
9319,571.428571428571,4,2,1,50,1,0
9319,-117.647058823529,4,2,1,50,0,0
10890,-117.647058823529,4,2,1,5,0,0
11033,-117.647058823529,4,2,1,50,0,0
13176,-117.647058823529,4,2,1,5,0,0
13318,-117.647058823529,4,2,1,50,0,0
15461,-117.647058823529,4,2,1,5,0,0
15604,-117.647058823529,4,2,1,50,0,0
16176,-117.647058823529,4,2,1,80,0,0
16461,-76.9230769230769,4,2,1,80,0,0
18461,-80,4,2,1,80,0,0
22889,-80,4,2,1,50,0,0
23033,-80,4,2,1,80,0,0
23461,-80,4,2,1,50,0,0
23604,-80,4,2,1,80,0,0
26175,-80,4,2,1,50,0,0
26318,-80,4,2,1,80,0,0
32032,-80,4,2,1,50,0,0
32176,-80,4,2,1,80,0,0
32604,-80,4,2,1,50,0,0
32747,-80,4,2,1,80,0,0
35318,-80,4,2,1,50,0,0
35461,-80,4,2,1,80,0,0
36747,-80,4,2,1,50,0,0
37318,-105.263157894737,4,2,1,50,0,0
52747,-105.263157894737,4,2,1,80,0,0
53033,-76.9230769230769,4,2,1,80,0,0
55033,-80,4,2,1,80,0,0
60318,-80,4,2,1,50,0,0
60462,-80,4,2,1,80,0,0
62747,-80,4,2,1,50,0,0
62890,-80,4,2,1,80,0,0
69460,-80,4,2,1,50,0,0
69604,-80,4,2,1,80,0,0
71890,-80,4,2,1,50,0,0
72033,-80,4,2,1,80,0,0
73319,-80,4,2,1,60,0,0
73890,-105.263157894737,4,2,1,60,0,0
89175,-105.263157894737,4,2,1,50,0,0
89318,-105.263157894737,4,2,1,60,0,0
90889,-105.263157894737,4,2,1,50,0,0
91033,-105.263157894737,4,2,1,60,0,0
105318,-105.263157894737,4,2,1,50,0,0
105890,-105.263157894737,4,2,1,60,0,0
107604,-105.263157894737,4,2,1,80,0,0
107890,-76.9230769230769,4,2,1,80,0,0
109890,-80,4,2,1,80,0,0
115175,-80,4,2,1,50,0,0
115319,-80,4,2,1,80,0,0
117604,-80,4,2,1,50,0,0
117747,-80,4,2,1,80,0,0
124317,-80,4,2,1,50,0,0
124461,-80,4,2,1,80,0,0
126747,-80,4,2,1,50,0,0
126890,-80,4,2,1,80,0,0
128176,-80,4,2,1,50,0,0
137318,-333.333333333333,4,2,1,50,0,0
139604,-285.714285714286,4,2,1,50,0,0
141890,-250,4,2,1,50,0,0
144176,-222.222222222222,4,2,1,50,0,0
146461,-200,4,2,1,50,0,0
148747,-181.818181818182,4,2,1,50,0,0
151033,-166.666666666667,4,2,1,50,0,0
153318,-153.846153846154,4,2,1,50,0,0
155604,-153.846153846154,4,2,1,77,0,0
162461,-153.846153846154,4,2,1,80,0,0
162747,-76.9230769230769,4,2,1,80,0,0
164747,-74.0740740740741,4,2,1,80,0,1
165318,-74.0740740740741,4,2,1,80,0,0
170032,-74.0740740740741,4,2,1,77,0,0
170176,-74.0740740740741,4,2,1,80,0,0
173890,-74.0740740740741,4,2,1,80,0,1
174461,-74.0740740740741,4,2,1,80,0,0
179175,-74.0740740740741,4,2,1,77,0,0
179319,-74.0740740740741,4,2,1,80,0,0
183033,-71.4285714285714,4,2,1,80,0,1
183746,-71.4285714285714,4,2,1,77,0,1
183890,-71.4285714285714,4,2,1,80,0,1
184889,-71.4285714285714,4,2,1,77,0,1
185033,-71.4285714285714,4,2,1,80,0,1
187175,-71.4285714285714,4,2,1,77,0,1
187318,-71.4285714285714,4,2,1,80,0,1
188318,-71.4285714285714,4,2,1,77,0,1
188461,-71.4285714285714,4,2,1,80,0,1
191175,-71.4285714285714,4,2,1,77,0,1
191319,-71.4285714285714,4,2,1,80,0,1
192889,-71.4285714285714,4,2,1,77,0,1
193033,-71.4285714285714,4,2,1,80,0,1
196461,-71.4285714285714,4,2,1,77,0,1
196747,-71.4285714285714,4,2,1,80,0,1
197460,-71.4285714285714,4,2,1,77,0,1
197604,-71.4285714285714,4,2,1,80,0,1
200318,-71.4285714285714,4,2,1,77,0,1
200462,-71.4285714285714,4,2,1,80,0,1
203175,-71.4285714285714,4,2,1,77,0,1
203318,-71.4285714285714,4,2,1,80,0,1
205460,-71.4285714285714,4,2,1,77,0,1
205604,-71.4285714285714,4,2,1,80,0,1
207746,-71.4285714285714,4,2,1,77,0,1
207890,-71.4285714285714,4,2,1,80,0,1
210603,-71.4285714285714,4,2,1,77,0,1
210747,-71.4285714285714,4,2,1,80,0,1
211176,-71.4285714285714,4,2,1,77,0,1
211318,-71.4285714285714,4,2,1,80,0,1
211460,-71.4285714285714,4,2,1,77,0,1
211604,-71.4285714285714,4,2,1,80,0,1
211746,-71.4285714285714,4,2,1,77,0,1
211890,-71.4285714285714,4,2,1,80,0,1
212318,-71.4285714285714,4,2,1,77,0,1
212461,-71.4285714285714,4,2,1,80,0,1
215746,-71.4285714285714,4,2,1,77,0,1
215890,-71.4285714285714,4,2,1,80,0,1
216889,-71.4285714285714,4,2,1,77,0,1
217175,-71.4285714285714,4,2,1,80,0,1
218603,-71.4285714285714,4,2,1,77,0,1
218747,-71.4285714285714,4,2,1,80,0,1
218890,-71.4285714285714,4,2,1,77,0,1
219033,-71.4285714285714,4,2,1,80,0,1
219604,-76.9230769230769,4,2,1,70,0,0
219747,-76.9230769230769,4,2,1,77,0,0
228747,-76.9230769230769,4,2,1,30,0,0

[Colours]
Combo1 : 232,146,17
Combo2 : 128,128,128
Combo3 : 192,192,192
Combo4 : 240,54,0

[HitObjects]
238,35,9319,6,0,L|120:53,1,114.750002188683,2|0,0:0|0:0,0:0:0:0:
74,111,9890,2,0,B|42:91|42:91|-8:116,1,76.5000014591217,2|0,0:0|0:0,0:0:0:0:
67,193,10319,6,0,B|122:215|150:153|148:152|146:150|176:87|252:138,1,191.250003647804,2|2,0:0|0:0,0:0:0:0:
227,125,11319,1,0,0:0:0:0:
226,316,11604,38,0,B|219:257|219:257|217:255|217:255|208:196,1,114.750002188683
285,184,12176,2,0,B|319:166|319:166|351:186,1,76.5000014591217,2|0,0:0|0:0,0:0:0:0:
469,282,12604,6,0,B|416:260|385:304|387:313|384:319|375:318|373:310|379:304|369:245|283:262,1,191.250003647804,2|2,0:0|0:0,0:0:0:0:
312,259,13604,1,0,0:0:0:0:
434,196,13890,38,0,P|456:148|430:89,1,114.750002188683,0|0,0:0|0:0,0:0:0:0:
385,35,14461,2,0,B|349:48|349:48|319:24,1,76.5000014591217,2|0,0:0|0:0,0:0:0:0:
238,140,14890,6,0,B|361:122|361:122|320:139|330:199,1,191.250003647804,2|2,0:0|0:0,0:0:0:0:
328,175,16176,5,4,3:2:0:0:
337,250,16318,1,8,0:3:0:0:
347,326,16461,2,0,L|356:398,1,58.4999973220826,8|0,0:3|3:0,0:0:0:0:
402,203,16747,5,10,0:3:0:0:
273,300,16890,2,0,L|207:285,1,58.4999973220826,0|0,3:0|3:0,0:0:0:0:
328,175,17176,37,10,0:3:0:0:
417,286,17318,1,0,3:0:0:0:
417,286,17604,6,0,L|474:298,1,58.4999973220826,0|0,3:0|3:0,0:0:0:0:
393,124,17890,37,10,0:3:0:0:
337,250,18033,1,8,0:3:0:0:
319,93,18176,5,8,0:3:0:0:
402,203,18318,1,8,0:3:0:0:
452,64,18461,38,0,B|462:34|491:23|491:23|361:43,1,168.75,0|0,3:2|0:0,0:0:0:0:
257,0,19033,6,0,P|293:0|320:31,1,56.25,2|0,1:2|0:0,0:0:0:0:
393,124,19318,1,0,0:0:0:0:
319,93,19461,2,0,P|256:95|207:185,1,168.75,2|0,0:2|0:0,0:0:0:0:
303,363,20176,2,0,B|341:320|341:320|282:238,1,112.5,2|0,1:2|0:0,0:0:0:0:
156,240,20747,38,0,B|103:214|75:266|76:267|78:269|48:318|-14:283,1,168.75,0|0,3:2|0:0,0:0:0:0:
129,371,21318,6,0,L|138:315,1,56.25,2|2,1:2|0:1,0:0:0:0:
102,181,21604,1,8,0:1:0:0:
156,240,21747,2,0,B|250:223|250:223|269:261|313:264,1,168.75,2|2,0:2|0:1,0:0:0:0:
380,236,22318,1,2,0:1:0:0:
333,72,22461,1,2,1:2:0:0:
333,72,22604,2,0,L|319:184,1,112.5,4|0,0:1|0:0,0:0:0:0:
403,156,23033,38,0,B|443:134|479:163|474:201|474:201|458:279,1,168.75,0|0,3:0|0:0,0:0:0:0:
354,345,23604,6,0,P|372:325|428:319,1,56.25,2|0,1:2|0:0,0:0:0:0:
473,343,23890,1,0,0:0:0:0:
386,236,24033,2,0,P|310:226|276:136,1,168.75,2|0,0:2|0:0,0:0:0:0:
377,11,24747,2,0,B|412:53|412:53|356:136,1,112.5,2|0,1:2|3:0,0:0:0:0:
196,165,25318,38,0,B|140:159|140:159|137:162|137:162|70:155,1,112.5,0|2,3:0|0:1,0:0:0:0:
112,27,25747,5,2,0:1:0:0:
112,27,25890,2,0,L|122:102,1,56.25,2|4,1:2|0:1,0:0:0:0:
36,218,26175,1,0,0:0:0:0:
85,156,26318,2,0,B|71:246|71:246|99:272|94:335,1,168.75,2|2,0:2|0:1,0:0:0:0:
255,355,27033,37,2,1:2:0:0:
242,236,27176,1,8,0:3:0:0:
194,302,27318,5,8,0:3:0:0:
305,288,27461,1,8,0:3:0:0:
162,230,27604,38,0,B|176:117|176:117|178:151|208:170,1,168.75,0|0,3:0|0:0,0:0:0:0:
329,150,28176,6,0,L|262:165,1,56.25,2|0,1:2|0:0,0:0:0:0:
201,45,28461,1,0,0:0:0:0:
264,86,28604,2,0,B|358:69|358:69|381:105|421:110,1,168.75,2|0,0:0|0:0,0:0:0:0:
473,253,29319,2,0,B|511:210|511:210|452:128,1,112.5,2|0,1:2|0:0,0:0:0:0:
260,252,29890,38,0,B|313:278|341:226|340:225|338:223|368:174|432:213,1,168.75,0|0,3:2|0:0,0:0:0:0:
388,334,30461,6,0,L|397:278,1,56.25,2|2,1:2|0:1,0:0:0:0:
348,155,30747,1,8,0:1:0:0:
407,202,30890,2,0,B|283:182|283:182|263:128,1,168.75,2|2,0:2|0:1,0:0:0:0:
112,244,31604,1,2,1:2:0:0:
112,244,31747,2,0,P|167:244|217:191,1,112.5,4|0,0:1|0:0,0:0:0:0:
191,131,32176,38,0,B|96:118|96:118|78:157|35:163,1,168.75,0|0,3:0|0:0,0:0:0:0:
0,292,32747,6,0,L|10:218,1,56.25,2|0,1:2|0:0,0:0:0:0:
26,82,33033,1,0,0:0:0:0:
40,162,33176,2,0,B|93:136|121:188|120:189|118:191|148:240|212:201,1,168.75,2|0,0:0|0:0,0:0:0:0:
337,14,33890,2,0,B|372:56|372:56|316:139,1,112.5,2|0,1:2|3:0,0:0:0:0:
262,274,34461,38,0,B|268:218|268:218|265:215|265:215|272:148,1,112.5,0|2,3:2|0:1,0:0:0:0:
400,190,34890,5,2,0:1:0:0:
400,190,35033,2,0,P|366:192|332:221,1,56.25,2|4,1:2|0:1,0:0:0:0:
209,115,35318,1,0,0:0:0:0:
270,163,35461,2,0,P|298:239|302:348,1,168.75,2|2,0:2|0:1,0:0:0:0:
497,378,36176,37,10,1:2:0:0:
414,347,36319,1,8,0:3:0:0:
509,229,36461,5,8,0:3:0:0:
385,276,36604,1,8,0:3:0:0:
479,300,36747,5,0,3:0:0:0:
479,300,37176,5,0,0:0:0:0:
446,186,37318,2,0,L|458:82,1,85.4999977169037,0|0,1:0|0:0,0:0:0:0:
224,91,37890,38,0,B|276:66|302:111|301:112|299:114|327:158|388:125,1,170.999995433807,2|2,3:2|1:2,0:0:0:0:
376,130,39033,6,0,B|336:108|300:137|305:175|305:175|320:255,1,170.999995433807,2|0,3:2|1:0,0:0:0:0:
335,313,39890,1,0,0:0:0:0:
237,215,40176,2,0,B|185:190|158:235|159:236|161:238|133:282|73:249,1,170.999995433807,0|0,3:0|1:0,0:0:0:0:
84,254,41318,38,0,B|62:281|37:280|37:280|50:344|50:344|79:337|104:358,1,170.999995433807,0|0,3:0|1:0,0:0:0:0:
168,381,42176,1,0,0:0:0:0:
279,285,42461,2,0,P|328:289|352:334,1,85.4999977169037,2|2,3:2|0:0,0:0:0:0:
285,363,42890,5,0,3:0:0:0:
215,237,43033,2,0,L|226:134,1,85.4999977169037,2|2,1:2|0:0,0:0:0:0:
452,165,43604,38,0,B|357:152|357:152|339:191|296:197,1,170.999995433807,2|0,3:2|1:0,0:0:0:0:
189,28,44747,6,0,P|269:40|276:134,1,170.999995433807,2|2,3:2|1:2,0:0:0:0:
223,166,45461,37,8,0:3:0:0:
148,157,45603,1,10,0:3:0:0:
72,147,45747,1,8,0:3:0:0:
176,233,45890,6,0,B|180:298|180:298|182:299|182:299|187:372,1,128.249996575356,0|0,3:2|0:0,0:0:0:0:
258,372,46461,2,0,B|292:344|292:344|338:368,1,85.4999977169037,0|2,1:2|0:2,0:0:0:0:
495,236,47033,38,0,B|443:211|416:256|417:257|419:259|391:303|331:270,1,170.999995433807,2|2,3:2|1:2,0:0:0:0:
342,275,48176,6,0,B|324:163|324:163|338:199|383:205,1,170.999995433807,2|0,3:2|1:0,0:0:0:0:
420,255,49033,1,0,0:0:0:0:
493,141,49318,2,0,B|459:108|459:108|390:126|390:126|377:97|341:88,1,170.999995433807,0|0,3:0|1:0,0:0:0:0:
352,91,50461,38,0,L|222:80,1,128.249996575356,0|0,3:0|0:0,0:0:0:0:
149,54,51033,2,0,B|129:90|129:90|157:124,1,85.4999977169037,0|0,1:0|0:0,0:0:0:0:
207,252,51604,2,0,P|227:217|211:164,1,85.4999977169037,2|2,3:2|0:2,0:0:0:0:
146,203,52033,5,0,3:0:0:0:
149,336,52176,2,0,B|201:330|201:330|211:334|211:334|220:328|220:328|284:321,1,128.249996575356,2|0,1:2|0:0,0:0:0:0:
295,173,52747,5,6,3:2:0:0:
342,237,52890,1,8,0:3:0:0:
265,246,53033,2,0,L|187:254,1,58.4999973220826,8|2,0:3|3:2,0:0:0:0:
375,162,53318,5,8,0:3:0:0:
310,308,53461,2,0,L|319:378,1,58.4999973220826,0|2,3:0|3:2,0:0:0:0:
214,172,53747,37,8,0:3:0:0:
391,305,53889,1,2,3:2:0:0:
391,305,54176,6,0,L|400:375,1,58.4999973220826,0|0,3:3|3:3,0:0:0:0:
375,162,54461,37,14,0:3:0:0:
310,308,54604,1,8,0:3:0:0:
335,93,54747,5,8,0:3:0:0:
265,246,54890,1,8,0:3:0:0:
419,89,55033,38,0,B|473:122|473:122|439:235,1,168.75,0|0,3:0|0:0,0:0:0:0:
508,329,55605,6,0,P|490:307|455:298,1,56.25,2|0,1:2|0:0,0:0:0:0:
339,362,55890,1,0,0:0:0:0:
385,288,56033,2,0,B|289:280|289:280|274:320|231:328,1,168.75,2|0,0:2|0:0,0:0:0:0:
52,276,56748,2,0,B|14:233|14:233|73:151,1,112.5,2|0,1:2|0:0,0:0:0:0:
266,246,57318,38,0,B|216:227|190:264|192:271|189:276|182:275|180:269|185:264|171:218|106:229,1,168.75,0|0,3:2|0:0,0:0:0:0:
190,112,57890,6,0,L|201:168,1,56.25,2|2,1:2|0:1,0:0:0:0:
115,305,58176,1,8,0:1:0:0:
104,152,58318,2,0,B|121:41|121:41|150:46|184:18,1,168.75,2|2,0:2|0:1,0:0:0:0:
252,55,58890,1,2,0:1:0:0:
204,224,59033,1,10,1:2:0:0:
204,224,59176,2,0,L|190:112,1,112.5,4|0,0:1|0:0,0:0:0:0:
252,55,59604,38,0,B|305:29|333:81|332:82|330:84|360:133|424:94,1,168.75,0|0,3:0|0:0,0:0:0:0:
436,12,60176,6,0,P|409:13|380:44,1,56.25,2|0,1:2|0:0,0:0:0:0:
333,149,60462,1,0,0:0:0:0:
399,104,60605,2,0,P|475:114|509:204,1,168.75,2|0,0:2|0:0,0:0:0:0:
438,346,61176,1,0,0:0:0:0:
438,346,61319,2,0,B|388:376|388:376|329:330,1,112.5,2|0,1:2|3:0,0:0:0:0:
183,181,61890,38,0,B|239:175|239:175|242:178|242:178|309:171,1,112.5,0|2,3:0|0:1,0:0:0:0:
227,313,62319,5,2,0:1:0:0:
227,313,62462,2,0,L|217:238,1,56.25,2|4,1:2|0:1,0:0:0:0:
202,102,62747,1,0,0:0:0:0:
143,248,62890,2,0,B|87:242|87:242|84:245|84:245|17:238,1,112.5,2|0,0:2|0:0,0:0:0:0:
96,376,63318,2,0,L|106:301,1,56.25,2|2,0:1|0:1,0:0:0:0:
129,164,63605,37,10,1:2:0:0:
185,321,63748,1,8,0:3:0:0:
66,215,63890,5,8,0:3:0:0:
224,247,64033,1,8,0:3:0:0:
53,138,64176,38,0,B|22:72|69:24|69:24|57:50|64:72,1,168.75,0|0,3:0|0:0,0:0:0:0:
187,171,64748,6,0,L|118:164,1,56.25,2|0,1:2|0:0,0:0:0:0:
161,23,65033,1,0,0:0:0:0:
209,94,65176,2,0,B|305:86|305:86|320:126|363:134,1,168.75,2|0,0:0|0:0,0:0:0:0:
476,101,65891,2,0,B|514:58|514:58|455:-24,1,112.5,2|0,1:2|0:0,0:0:0:0:
312,200,66462,38,0,B|365:174|393:226|392:227|390:229|420:278|484:239,1,168.75,0|0,3:2|0:0,0:0:0:0:
338,329,67033,6,0,L|332:273,1,56.25,2|2,1:2|0:1,0:0:0:0:
380,154,67319,1,8,0:1:0:0:
251,249,67461,2,0,L|262:373,1,112.5,2|0,0:2|0:0,0:0:0:0:
178,285,67890,2,0,L|184:341,1,56.25,2|2,0:1|0:1,0:0:0:0:
84,169,68176,1,10,1:2:0:0:
84,169,68319,2,0,P|139:169|189:222,1,112.5,2|0,0:1|0:0,0:0:0:0:
251,166,68748,38,0,B|264:71|264:71|225:53|219:10,1,168.75,0|0,3:0|0:1,0:0:0:0:
352,8,69318,6,0,L|286:0,1,56.25,2|0,1:2|0:0,0:0:0:0:
178,104,69604,1,0,0:0:0:0:
337,82,69747,2,0,B|449:94|449:94|415:98|393:136,1,168.75,2|0,0:2|0:0,0:0:0:0:
335,253,70318,1,0,3:0:0:0:
335,253,70462,2,0,B|300:211|300:211|332:163,1,112.5,2|0,1:2|3:0,0:0:0:0:
512,213,71033,38,0,B|456:207|456:207|453:210|453:210|386:203,1,112.5,0|2,3:0|0:1,0:0:0:0:
469,345,71462,5,2,0:1:0:0:
469,345,71604,2,0,L|476:272,1,56.25,2|4,1:2|0:1,0:0:0:0:
438,130,71890,1,0,0:0:0:0:
397,283,72033,38,0,B|341:289|341:289|338:286|338:286|271:293,1,112.5,2|0,0:0|0:0,0:0:0:0:
361,152,72461,2,0,L|368:225,1,56.25,2|2,0:1|0:1,0:0:0:0:
304,369,72748,5,10,1:2:0:0:
283,210,72891,1,8,0:3:0:0:
223,384,73033,37,8,0:3:0:0:
199,215,73176,1,8,0:3:0:0:
253,293,73319,21,0,3:0:0:0:
253,293,73747,5,0,0:0:0:0:
173,303,73890,2,0,L|75:290,1,85.4999977169037,0|0,1:0|0:0,0:0:0:0:
103,119,74461,38,0,B|63:97|27:126|32:164|32:164|47:244,1,170.999995433807,2|2,3:2|1:2,0:0:0:0:
43,227,75604,6,0,B|95:252|122:207|121:206|119:204|147:160|207:193,1,170.999995433807,2|0,3:2|1:0,0:0:0:0:
249,247,76462,1,0,0:0:0:0:
297,81,76747,2,0,B|284:176|284:176|323:194|329:237,1,170.999995433807,0|0,3:0|1:0,0:0:0:0:
328,232,77890,38,0,P|272:241|256:356,1,170.999995433807,0|0,3:0|1:0,0:0:0:0:
309,384,78748,1,0,0:0:0:0:
402,264,79033,2,0,B|420:225|420:225|398:188,1,85.4999977169037,2|2,3:2|0:2,0:0:0:0:
328,232,79462,5,0,3:0:0:0:
375,341,79605,2,0,L|478:352,1,85.4999977169037,2|2,1:2|0:2,0:0:0:0:
450,114,80176,38,0,B|355:101|355:101|337:140|294:146,1,170.999995433807,2|0,3:2|1:0,0:0:0:0:
139,91,81318,2,0,B|186:71|212:108|210:116|213:121|220:120|222:113|217:108|225:58|294:67,1,170.999995433807,2|2,3:2|1:2,0:0:0:0:
342,113,82033,5,8,0:3:0:0:
333,188,82175,1,10,0:3:0:0:
323,264,82319,1,8,0:3:0:0:
224,190,82462,38,0,B|228:255|228:255|230:256|230:256|235:329,1,128.249996575356,0|0,3:0|0:0,0:0:0:0:
169,372,83033,2,0,B|135:344|135:344|89:368,1,85.4999977169037,0|0,1:0|0:0,0:0:0:0:
0,219,83605,6,0,B|52:194|79:239|78:240|76:242|104:286|164:253,1,170.999995433807,2|2,3:2|1:2,0:0:0:0:
152,258,84748,38,0,B|170:146|170:146|156:182|111:188,1,170.999995433807,2|0,3:2|1:0,0:0:0:0:
78,245,85605,1,0,0:0:0:0:
104,97,85890,2,0,P|174:66|248:128,1,170.999995433807,0|0,3:0|1:0,0:0:0:0:
244,116,87033,6,0,P|300:134|353:81,1,128.249996575356,0|0,3:0|0:0,0:0:0:0:
400,38,87605,2,0,B|434:66|434:66|470:46,1,85.4999977169037,0|0,1:2|0:0,0:0:0:0:
453,183,88176,2,0,B|417:163|417:163|383:191,1,85.4999977169037,2|2,3:2|0:2,0:0:0:0:
310,186,88605,37,0,3:0:0:0:
427,255,88747,2,0,L|414:391,1,128.249996575356,2|0,1:2|0:0,0:0:0:0:
346,310,89318,6,0,B|294:285|267:330|268:331|270:333|242:377|182:344,1,170.999995433807,2|0,3:2|1:0,0:0:0:0:
115,372,90176,1,2,0:2:0:0:
29,259,90461,2,0,B|67:240|88:273|87:274|85:276|106:309|151:284,1,128.249996575356,2|0,3:2|0:0,0:0:0:0:
209,245,91033,37,2,1:2:0:0:
193,349,91176,1,8,0:3:0:0:
135,209,91318,5,8,0:3:0:0:
264,309,91461,1,8,0:3:0:0:
199,163,91604,38,0,B|186:75|186:75|178:102|155:110,1,128.249996575356,0|0,3:0|0:0,0:0:0:0:
94,138,92176,2,0,L|2:120,1,85.4999977169037,0|0,1:0|0:0,0:0:0:0:
160,8,92747,6,0,B|212:-17|239:28|238:29|236:31|264:75|324:42,1,170.999995433807,2|2,3:2|1:2,0:0:0:0:
312,47,93890,38,0,B|383:20|383:20|414:37|414:37|428:73|460:80,1,170.999995433807,2|0,3:2|1:0,0:0:0:0:
492,142,94748,1,0,0:0:0:0:
407,221,95033,2,0,B|369:202|348:235|349:236|351:238|330:271|285:246,1,128.249996575356,2|0,3:2|0:0,0:0:0:0:
225,208,95604,2,0,L|213:123,1,85.4999977169037,2|2,1:2|0:2,0:0:0:0:
127,48,96176,6,0,B|95:15|52:32|45:70|45:70|36:151,1,170.999995433807,0|0,3:0|1:0,0:0:0:0:
31,209,97034,1,0,0:0:0:0:
121,125,97319,2,0,B|158:147|158:147|197:129,1,85.4999977169037,2|2,3:2|0:2,0:0:0:0:
203,54,97748,37,0,3:0:0:0:
249,186,97891,2,0,L|238:289,1,85.4999977169037,2|2,1:2|0:2,0:0:0:0:
73,318,98462,6,0,B|168:305|168:305|186:344|229:350,1,170.999995433807,2|0,3:2|1:0,0:0:0:0:
380,290,99604,2,0,B|329:294|315:251|320:244|318:238|311:237|307:243|311:249|288:294|225:264,1,170.999995433807,2|2,3:2|1:2,0:0:0:0:
193,206,100319,37,8,0:3:0:0:
213,127,100461,1,8,0:3:0:0:
269,181,100605,1,8,0:3:0:0:
132,149,100748,6,0,B|141:84|141:84|139:83|139:83|150:10,1,128.249996575356,0|0,0:0|0:0,0:0:0:0:
222,44,101319,2,0,B|256:16|256:16|302:40,1,85.4999977169037,8|0,0:3|0:0,0:0:0:0:
480,68,101891,38,0,B|428:43|401:88|402:89|404:91|376:135|316:102,1,170.999995433807,2|0,0:2|1:0,0:0:0:0:
327,107,103034,6,0,B|345:219|345:219|331:183|286:177,1,170.999995433807,2|0,0:2|1:0,0:0:0:0:
248,126,103891,1,2,0:2:0:0:
216,313,104176,2,0,B|234:201|234:201|220:237|175:243,1,170.999995433807,2|0,0:2|1:0,0:0:0:0:
26,251,105318,38,0,B|75:260|75:260|93:287|93:287|144:300,1,128.249996575356,0|0,0:0|0:0,0:0:0:0:
184,359,105890,2,0,B|227:353|227:353|229:355|229:355|285:347,1,85.4999977169037,8|2,0:3|0:2,0:0:0:0:
483,246,106461,6,0,B|431:221|404:266|405:267|407:269|379:313|319:280,1,170.999995433807,2|2,0:2|1:2,0:0:0:0:
256,7,107604,5,6,3:2:0:0:
247,82,107746,1,8,0:3:0:0:
237,158,107890,2,0,L|228:241,1,58.4999973220826,8|2,0:3|3:2,0:0:0:0:
182,35,108175,5,8,0:3:0:0:
311,132,108318,2,0,L|377:118,1,58.4999973220826,0|2,3:0|3:2,0:0:0:0:
256,7,108604,37,8,0:3:0:0:
156,180,108746,1,2,3:2:0:0:
156,180,109033,6,0,L|76:168,1,58.4999973220826,0|0,3:0|3:2,0:0:0:0:
247,82,109318,37,14,0:3:0:0:
254,248,109461,1,8,0:3:0:0:
175,103,109604,5,8,0:3:0:0:
334,206,109746,1,8,0:3:0:0:
173,282,109890,38,0,B|70:257|70:257|67:291|30:314,1,168.75,0|0,3:0|0:0,0:0:0:0:
116,371,110462,6,0,L|192:359,1,56.25,2|0,1:2|0:0,0:0:0:0:
251,258,110747,1,0,0:0:0:0:
173,282,110890,2,0,B|275:310|275:310|261:341|282:379,1,168.75,2|0,0:2|0:0,0:0:0:0:
460,276,111605,2,0,B|498:233|498:233|439:151,1,112.5,2|0,1:2|0:0,0:0:0:0:
246,246,112176,38,0,B|296:227|322:264|320:271|323:276|330:275|332:269|327:264|341:218|406:229,1,168.75,0|0,3:2|0:0,0:0:0:0:
442,114,112747,6,0,P|416:133|398:174,1,56.25,2|2,1:2|0:1,0:0:0:0:
396,308,113033,1,8,0:1:0:0:
308,112,113176,2,0,B|255:86|227:138|228:139|230:141|200:190|136:151,1,168.75,2|2,0:2|0:1,0:0:0:0:
212,49,113747,1,2,0:1:0:0:
294,191,113890,1,10,1:2:0:0:
294,191,114033,2,0,L|280:303,1,112.5,4|0,0:1|0:0,0:0:0:0:
245,372,114461,38,0,B|209:360|197:320|197:320|102:336,1,168.75,0|0,3:0|0:0,0:0:0:0:
9,249,115033,6,0,P|28:267|71:265,1,56.25,2|0,1:2|0:0,0:0:0:0:
183,244,115319,1,0,0:0:0:0:
111,206,115462,2,0,P|64:145|103:57,1,168.75,2|0,0:2|0:0,0:0:0:0:
236,132,116033,1,0,3:0:0:0:
236,132,116176,2,0,B|193:98|193:98|143:128,1,112.5,2|0,1:2|3:0,0:0:0:0:
304,182,116747,38,0,B|310:126|310:126|307:123|307:123|314:56,1,112.5,0|2,3:0|0:1,0:0:0:0:
230,212,117176,5,2,0:1:0:0:
230,212,117319,2,0,L|240:289,1,56.25,2|4,1:2|0:1,0:0:0:0:
386,138,117604,1,0,0:0:0:0:
317,262,117747,2,0,B|311:313|311:313|314:316|314:316|308:372,1,112.5,2|0,0:2|0:0,0:0:0:0:
236,132,118176,2,0,L|228:76,1,56.25,2|2,0:1|0:1,0:0:0:0:
310,179,118462,37,10,1:2:0:0:
161,151,118605,1,8,0:3:0:0:
312,100,118747,5,8,0:3:0:0:
236,219,118890,1,8,0:3:0:0:
277,27,119033,38,0,P|329:20|389:106,1,168.75,0|0,3:0|0:0,0:0:0:0:
440,216,119605,6,0,L|447:161,1,56.25,2|0,1:2|0:0,0:0:0:0:
456,41,119890,1,0,0:0:0:0:
366,179,120033,2,0,B|270:171|270:171|255:211|212:219,1,168.75,2|0,0:0|0:0,0:0:0:0:
46,133,120748,2,0,B|8:90|8:90|67:8,1,112.5,2|0,1:2|0:0,0:0:0:0:
188,166,121319,38,0,B|135:140|107:192|108:193|110:195|80:244|16:205,1,168.75,0|0,3:2|0:0,0:0:0:0:
162,293,121890,6,0,L|168:237,1,56.25,2|2,1:2|0:1,0:0:0:0:
122,128,122176,1,8,0:1:0:0:
244,224,122318,2,0,B|289:191|289:191|355:226,1,112.5,2|0,0:2|0:0,0:0:0:0:
463,220,122747,2,0,P|432:193|402:191,1,56.25,2|2,0:1|0:1,0:0:0:0:
392,383,123033,1,10,1:2:0:0:
392,383,123176,2,0,L|400:266,1,112.5,4|0,0:1|0:0,0:0:0:0:
359,135,123604,38,0,B|306:109|278:161|279:162|281:164|251:213|187:174,1,168.75,0|0,3:0|0:1,0:0:0:0:
235,52,124175,6,0,L|228:117,1,56.25,2|0,1:2|0:0,0:0:0:0:
211,268,124461,1,0,0:0:0:0:
156,124,124604,2,0,B|44:136|44:136|78:140|100:178,1,168.75,2|0,0:2|0:0,0:0:0:0:
129,333,125175,1,0,3:0:0:0:
129,333,125319,2,0,B|141:212,1,112.5,2|0,1:2|3:0,0:0:0:0:
181,45,125890,38,0,B|224:85|224:85|277:46,1,112.5,0|2,3:0|0:1,0:0:0:0:
349,98,126319,5,2,0:1:0:0:
349,98,126461,2,0,L|356:25,1,56.25,2|4,1:2|0:1,0:0:0:0:
280,141,126747,1,0,0:0:0:0:
443,193,126890,38,0,B|397:161|397:161|346:212,1,112.5,2|0,0:0|0:0,0:0:0:0:
402,321,127318,2,0,L|409:248,1,56.25,2|2,0:1|0:1,0:0:0:0:
280,141,127605,5,10,1:2:0:0:
319,346,127748,1,8,0:3:0:0:
197,159,127890,37,8,0:3:0:0:
328,257,128033,1,8,0:3:0:0:
241,292,128176,21,0,0:0:0:0:
304,348,137318,6,0,L|359:356,3,53.9999983520508,0|0|2|2,3:0|3:0|3:2|3:2,0:0:0:0:
206,348,139604,38,0,L|139:357,3,62.9999980773926,2|0|0|0,3:2|3:0|3:0|3:0,0:0:0:0:
308,270,141890,6,0,L|383:280,3,72,0|0|2|2,3:0|3:0|3:2|3:2,0:0:0:0:
202,272,144176,38,0,L|113:284,3,80.9999975280763,2|0|2|2,3:2|3:0|3:2|3:2,0:0:0:0:
310,193,146461,6,0,L|407:205,3,90,0|0|2|2,3:0|3:0|3:2|3:2,0:0:0:0:
203,193,148747,38,0,L|96:206,3,99.0000030212403,2|2|2|2,3:2|3:2|3:2|3:2,0:0:0:0:
307,112,151033,6,0,L|431:124,3,107.999996704102,0|0|2|2,3:0|3:0|3:2|3:2,0:0:0:0:
205,114,153318,38,0,L|71:129,3,116.999994644165,2|0|2|2,3:2|3:0|3:2|3:2,0:0:0:0:
255,33,155604,5,0,0:0:0:0:
190,175,162461,5,6,3:2:0:0:
181,250,162603,1,8,0:3:0:0:
171,326,162747,2,0,L|162:398,1,58.4999973220826,8|0,0:3|3:0,0:0:0:0:
116,203,163032,5,8,0:3:0:0:
245,300,163175,2,0,L|311:285,1,58.4999973220826,0|2,3:3|3:2,0:0:0:0:
200,97,163461,37,10,0:3:0:0:
101,286,163603,1,2,3:2:0:0:
101,286,163890,6,0,L|34:301,1,58.4999973220826,0|0,3:3|3:3,0:0:0:0:
122,68,164175,37,14,0:3:0:0:
181,250,164318,1,8,0:3:0:0:
187,17,164461,5,10,0:3:0:0:
114,202,164603,1,8,0:3:0:0:
263,44,164747,38,0,B|318:15|349:71|348:72|346:74|378:127|446:85,1,182.250000695229,2|0,3:2|0:0,0:0:0:0:
456,0,165319,6,0,P|423:5|403:29,1,60.7500002317429,0|0,1:2|0:0,0:0:0:0:
286,119,165604,1,0,0:2:0:0:
433,174,165747,1,0,0:2:0:0:
369,107,165890,38,0,L|386:259,1,121.500000463486,2|2,3:2|0:2,0:0:0:0:
461,363,166318,1,0,0:0:0:0:
511,304,166461,2,0,B|466:259|466:259|408:305,1,121.500000463486,2|2,1:2|0:2,0:0:0:0:
154,278,167033,6,0,B|204:252|230:290|228:297|231:302|238:301|240:295|235:290|249:243|316:254,1,182.250000695229,2|0,3:2|0:0,0:0:0:0:
328,376,167604,2,0,P|346:353|328:294,1,60.7500002317429,0|2,1:2|0:1,0:0:0:0:
219,198,167890,1,8,0:1:0:0:
381,236,168033,38,0,L|253:267,1,121.500000463486,4|0,0:1|0:0,0:0:0:0:
187,116,168461,1,2,0:1:0:0:
293,177,168604,1,2,0:1:0:0:
164,263,168747,2,0,B|111:233|111:233|138:175,1,121.500000463486,8|0,1:2|0:0,0:0:0:0:
327,36,169318,6,0,B|359:60|399:47|399:47|365:180,1,182.250000695229,0|0,3:0|0:0,0:0:0:0:
378,284,169890,2,0,P|376:256|355:223,1,60.7500002317429,0|0,1:0|0:0,0:0:0:0:
269,93,170176,1,0,0:0:0:0:
435,201,170318,1,0,0:0:0:0:
293,177,170461,38,0,B|235:187|235:187|230:191|230:191|148:207,1,121.500000463486,2|2,3:2|0:2,0:0:0:0:
66,94,170890,1,0,3:0:0:0:
130,41,171033,2,0,B|175:86|175:86|129:144,1,121.500000463486,2|2,1:2|0:2,0:0:0:0:
8,304,171604,6,0,P|50:263|111:274,1,121.500000463486,2|2,3:2|0:1,0:0:0:0:
265,327,172033,37,2,0:1:0:0:
106,355,172176,1,8,1:1:0:0:
186,248,172318,2,0,L|178:310,1,60.7500002317429,4|0,0:1|0:0,0:0:0:0:
375,276,172604,6,0,P|333:235|272:246,1,121.500000463486,0|0,0:0|0:0,0:0:0:0:
121,186,173033,1,2,0:1:0:0:
179,384,173176,1,2,0:1:0:0:
237,176,173319,37,8,1:2:0:0:
96,264,173462,1,8,0:3:0:0:
192,113,173604,5,8,0:3:0:0:
167,302,173747,1,8,0:3:0:0:
42,132,173890,38,0,B|33:97|1:85|1:85|131:105,1,182.250000695229,0|0,3:0|0:0,0:0:0:0:
214,16,174461,6,0,P|176:24|156:62,1,60.7500002317429,0|0,1:0|0:0,0:0:0:0:
143,198,174747,1,0,0:0:0:0:
274,65,174890,1,0,0:0:0:0:
116,102,175033,38,0,B|175:113|175:113|178:118|178:118|247:133,1,121.500000463486,2|2,3:2|0:2,0:0:0:0:
399,73,175461,1,0,0:0:0:0:
340,23,175604,2,0,B|295:68|295:68|341:126,1,121.500000463486,2|2,1:2|0:2,0:0:0:0:
499,247,176176,6,0,B|432:236|432:236|413:251|395:271|395:271|327:260,1,182.250000695229,2|0,3:2|0:0,0:0:0:0:
280,349,176747,2,0,P|262:326|280:267,1,60.7500002317429,0|2,1:2|0:1,0:0:0:0:
377,187,177033,1,8,0:1:0:0:
237,218,177176,38,0,P|306:222|335:279,1,121.500000463486,4|0,0:1|0:0,0:0:0:0:
430,81,177604,1,2,0:1:0:0:
310,141,177747,1,2,0:1:0:0:
429,253,177890,2,0,B|482:223|482:223|455:165,1,121.500000463486,8|0,1:2|0:0,0:0:0:0:
282,36,178461,6,0,B|175:41|175:41|164:88|118:104,1,182.250000695229,0|0,3:0|0:0,0:0:0:0:
42,11,179033,2,0,P|83:16|106:43,1,60.7500002317429,0|0,1:0|0:0,0:0:0:0:
226,121,179319,1,0,0:0:0:0:
52,175,179461,1,0,0:0:0:0:
130,98,179604,38,0,L|148:225,1,121.500000463486,2|2,3:2|0:2,0:0:0:0:
61,356,180033,1,0,3:0:0:0:
20,290,180176,2,0,B|70:255|70:255|112:298,1,121.500000463486,2|2,1:2|3:2,0:0:0:0:
308,361,180747,6,0,B|248:354|248:354|245:357|245:357|171:350,1,121.500000463486,6|2,3:2|0:1,0:0:0:0:
145,179,181176,37,2,0:1:0:0:
231,277,181318,2,0,L|298:270,1,60.7500002317429,8|4,1:1|0:1,0:0:0:0:
387,80,181604,5,0,0:0:0:0:
338,205,181747,2,0,B|296:162|296:162|245:196,1,121.500000463486,0|0,0:0|0:0,0:0:0:0:
409,249,182175,2,0,P|419:220|409:174,1,60.7500002317429,2|2,0:1|0:1,0:0:0:0:
300,84,182462,37,8,1:2:0:0:
331,289,182605,1,8,0:3:0:0:
217,83,182747,5,8,0:3:0:0:
249,289,182890,1,8,0:3:0:0:
138,88,183033,38,0,B|104:109|65:98|65:98|84:244,1,188.999994232178,2|0,3:2|0:0,0:0:0:0:
16,338,183604,6,0,P|29:311|70:288,1,62.9999980773926,0|0,1:0|0:0,0:0:0:0:
173,359,183890,2,0,P|143:362|101:340,1,62.9999980773926,0|2,0:0|0:2,0:0:0:0:
172,155,184176,38,0,B|163:212|163:212|164:217|164:217|154:290,1,125.999996154785,0|0,3:0|0:0,0:0:0:0:
79,210,184604,1,0,0:0:0:0:
233,299,184747,2,0,L|308:284,1,62.9999980773926,0|0,1:0|0:0,0:0:0:0:
243,217,185033,2,0,L|318:202,1,62.9999980773926,2|0,0:2|0:0,0:0:0:0:
461,359,185318,6,0,B|499:332|481:280|444:271|444:271|365:255,1,188.999994232178,2|2,3:2|0:2,0:0:0:0:
425,139,185890,2,0,P|394:153|376:188,1,62.9999980773926,2|2,1:2|0:1,0:0:0:0:
384,337,186176,1,8,0:1:0:0:
480,200,186318,1,2,0:2:0:0:
369,256,186461,38,0,B|304:250|304:250|302:253|302:253|218:247,1,125.999996154785,0|2,3:0|0:1,0:0:0:0:
301,169,186890,1,2,0:1:0:0:
287,330,187033,2,0,B|304:343|285:356|285:356|264:337|304:316,1,62.9999980773926,10|0,1:2|0:0,0:0:0:0:
217,169,187318,2,0,B|234:156|215:143|215:143|194:162|234:183,1,62.9999980773926,2|0,0:0|0:0,0:0:0:0:
200,339,187604,6,0,B|92:327|92:327|86:280|23:267,1,188.999994232178,2|2,3:2|0:0,0:0:0:0:
135,184,188176,2,0,L|146:254,1,62.9999980773926,2|0,1:2|0:0,0:0:0:0:
3,167,188461,2,0,P|10:130|32:109,1,62.9999980773926,2|2,0:2|0:2,0:0:0:0:
225,248,188747,38,0,B|218:189|218:189|214:184|214:184|202:95,1,125.999996154785,2|0,3:2|0:0,0:0:0:0:
78,46,189176,1,0,3:0:0:0:
210,46,189318,2,0,P|182:48|151:71,1,62.9999980773926,0|2,1:2|0:2,0:0:0:0:
294,98,189604,2,0,P|308:68|297:17,1,62.9999980773926,2|2,3:2|0:2,0:0:0:0:
161,191,189890,6,0,B|205:144|205:144|291:196,1,125.999996154785,0|2,3:0|0:1,0:0:0:0:
419,130,190318,1,2,0:1:0:0:
332,230,190461,2,0,L|344:162,2,62.9999980773926,8|2|2,1:0|0:0|0:0,0:0:0:0:
457,56,190890,38,0,P|392:45|348:96,1,125.999996154785,2|0,0:2|0:0,0:0:0:0:
254,175,191319,1,2,0:1:0:0:
419,130,191462,1,2,0:1:0:0:
279,92,191605,5,8,1:2:0:0:
417,211,191748,1,10,0:3:0:0:
301,17,191890,37,10,0:3:0:0:
330,223,192033,1,8,0:3:0:0:
218,30,192176,6,0,B|116:45|116:45|105:96|59:104,1,188.999994232178,2|0,3:2|0:0,0:0:0:0:
166,180,192747,2,0,L|173:112,1,62.9999980773926,2|0,1:2|0:0,0:0:0:0:
83,228,193033,1,2,0:2:0:0:
247,194,193176,1,0,0:0:0:0:
29,292,193318,38,0,B|80:258|80:258|126:303,1,125.999996154785,2|2,3:2|0:2,0:0:0:0:
300,345,193747,1,2,0:2:0:0:
186,249,193890,1,2,1:2:0:0:
224,384,194033,1,2,0:2:0:0:
289,263,194176,2,0,P|320:262|350:290,1,62.9999980773926,2|2,0:2|0:2,0:0:0:0:
418,127,194461,6,0,B|361:97|329:154|330:155|332:157|300:212|230:169,1,188.999994232178,2|2,3:2|0:2,0:0:0:0:
466,258,195033,2,0,L|476:191,1,62.9999980773926,0|2,1:0|0:1,0:0:0:0:
315,56,195319,1,8,0:1:0:0:
397,205,195461,1,2,0:2:0:0:
481,61,195604,38,0,B|464:48|483:35|483:35|504:54|464:75,1,62.9999980773926,0|2,3:0|0:2,0:0:0:0:
314,174,195890,5,2,0:2:0:0:
481,148,196033,1,2,0:1:0:0:
403,0,196176,2,0,B|398:61|398:61|396:66|396:66|391:130,1,125.999996154785,10|0,1:2|0:0,0:0:0:0:
167,285,196747,38,0,B|218:260|246:297|244:304|247:310|254:308|256:302|251:297|265:248|335:259,1,188.999994232178,2|0,3:2|0:0,0:0:0:0:
389,355,197318,2,0,L|308:334,1,62.9999980773926,2|0,1:2|0:0,0:0:0:0:
233,202,197604,1,2,0:2:0:0:
263,383,197747,1,2,0:2:0:0:
425,193,197890,6,0,B|389:177|371:202|372:206|370:210|366:209|364:205|368:202|354:172|313:177,1,125.999996154785,2|2,3:2|0:2,0:0:0:0:
234,298,198319,1,2,3:2:0:0:
259,123,198461,2,0,L|254:60,1,62.9999980773926,2|0,1:2|0:0,0:0:0:0:
108,225,198747,2,0,P|142:236|167:267,1,62.9999980773926,2|2,3:2|0:2,0:0:0:0:
177,105,199033,38,0,B|124:136|124:136|80:89,1,125.999996154785,6|2,3:2|0:2,0:0:0:0:
138,33,199461,1,2,0:2:0:0:
203,184,199604,2,0,L|277:196,2,62.9999980773926,0|2|0,1:0|0:2|0:0,0:0:0:0:
365,73,200033,6,0,P|300:62|256:113,1,125.999996154785,2|0,0:0|0:0,0:0:0:0:
273,290,200462,1,2,0:1:0:0:
326,141,200605,1,6,0:1:0:0:
345,341,200748,37,10,1:2:0:0:
265,194,200891,1,10,0:3:0:0:
269,382,201033,5,8,0:3:0:0:
339,233,201176,1,10,0:3:0:0:
198,338,201318,38,0,B|141:368|109:311|110:310|112:308|80:253|10:296,1,188.999994232178,2|0,3:2|0:0,0:0:0:0:
170,202,201890,6,0,L|177:271,1,62.9999980773926,0|0,1:0|0:0,0:0:0:0:
53,361,202176,1,2,0:2:0:0:
85,203,202318,2,0,P|86:174|115:135,1,62.9999980773926,2|0,0:2|3:0,0:0:0:0:
204,339,202604,38,0,L|127:350,1,62.9999980773926,2|2,0:2|0:2,0:0:0:0:
178,121,202889,1,0,0:0:0:0:
258,275,203033,2,0,L|340:290,1,62.9999980773926,0|0,1:0|0:0,0:0:0:0:
297,126,203318,2,0,P|265:142|250:191,1,62.9999980773926,0|2,0:0|0:2,0:0:0:0:
392,258,203604,6,0,B|433:209|433:209|486:252,1,125.999996154785,2|2,3:2|0:2,0:0:0:0:
445,319,204033,1,0,0:0:0:0:
374,156,204175,2,0,L|385:86,1,62.9999980773926,2|2,1:2|0:1,0:0:0:0:
481,248,204461,1,2,0:2:0:0:
468,68,204604,38,0,L|459:131,1,62.9999980773926,2|0,0:2|3:0,0:0:0:0:
321,219,204890,1,2,0:2:0:0:
392,258,205033,1,2,0:1:0:0:
292,147,205175,1,2,0:2:0:0:
320,303,205318,2,0,B|337:316|318:329|318:329|297:310|337:289,1,62.9999980773926,10|0,1:2|0:0,0:0:0:0:
374,156,205604,2,0,B|391:143|372:130|372:130|351:149|391:170,1,62.9999980773926,4|0,0:1|0:0,0:0:0:0:
247,261,205890,6,0,B|121:246|121:246|157:252|169:301,1,188.999994232178,2|0,3:2|0:0,0:0:0:0:
224,338,206461,1,2,1:2:0:0:
175,171,206604,1,0,0:0:0:0:
92,321,206747,2,0,L|14:337,1,62.9999980773926,0|2,0:0|0:2,0:0:0:0:
95,169,207032,38,0,B|102:110|102:110|106:105|106:105|118:16,1,125.999996154785,2|2,3:2|0:2,0:0:0:0:
130,244,207461,1,2,3:2:0:0:
16,191,207604,2,0,P|27:220|60:244,1,62.9999980773926,2|0,1:2|0:0,0:0:0:0:
237,172,207890,2,0,P|206:166|168:182,1,62.9999980773926,2|0,0:2|0:0,0:0:0:0:
182,358,208176,6,0,B|226:311|226:311|312:363,1,125.999996154785,2|2,3:2|0:2,0:0:0:0:
436,280,208603,1,2,0:1:0:0:
353,377,208747,2,0,L|361:311,2,62.9999980773926,2|4|2,1:2|0:1|0:2,0:0:0:0:
343,155,209176,37,0,0:0:0:0:
446,205,209318,2,0,P|408:206|380:230,1,62.9999980773926,2|0,3:2|0:0,0:0:0:0:
250,126,209604,1,2,0:1:0:0:
313,246,209747,1,2,0:1:0:0:
315,77,209890,5,10,1:2:0:0:
239,209,210033,1,8,0:3:0:0:
241,44,210176,37,8,0:3:0:0:
313,246,210318,1,10,0:3:0:0:
166,82,210461,6,0,L|89:63,1,62.9999980773926,2|0,3:2|0:0,0:0:0:0:
167,162,210747,2,0,L|90:143,1,62.9999980773926,2|0,0:2|0:0,0:0:0:0:
32,300,211033,1,2,1:2:0:0:
173,246,211176,1,0,0:0:0:0:
26,156,211318,2,0,L|48:223,1,62.9999980773926,2|0,0:2|0:0,0:0:0:0:
104,371,211604,38,0,P|112:338|139:313,1,62.9999980773926,2|0,3:2|0:0,0:0:0:0:
283,250,211890,1,2,0:2:0:0:
194,369,212033,1,2,0:2:0:0:
176,166,212176,2,0,L|244:180,1,62.9999980773926,0|0,1:0|0:0,0:0:0:0:
273,337,212461,1,2,0:2:0:0:
316,169,212604,6,0,L|303:95,1,62.9999980773926,2|2,0:2|3:2,0:0:0:0:
366,241,212890,2,0,B|408:195|408:195|475:232,1,125.999996154785,2|0,0:2|0:0,0:0:0:0:
414,361,213318,2,0,L|424:294,1,62.9999980773926,2|2,1:2|0:1,0:0:0:0:
281,251,213604,1,2,0:2:0:0:
338,319,213746,1,4,0:1:0:0:
382,123,213890,38,0,L|369:49,1,62.9999980773926,2|2,3:2|0:2,0:0:0:0:
228,188,214175,5,2,0:2:0:0:
366,241,214318,1,2,0:2:0:0:
298,87,214461,2,0,B|237:82|237:82|232:80|232:80|168:75,1,125.999996154785,10|2,1:2|0:2,0:0:0:0:
27,239,215033,38,0,B|56:172|137:199|137:199|115:269,1,188.999994232178,2|2,3:2|0:2,0:0:0:0:
204,356,215604,2,0,L|194:286,1,62.9999980773926,2|0,1:2|0:0,0:0:0:0:
169,128,215890,1,0,0:0:0:0:
261,249,216033,6,0,P|236:223|199:215,1,62.9999980773926,2|0,0:2|3:0,0:0:0:0:
282,329,216318,2,0,P|317:320|342:292,1,62.9999980773926,2|0,0:2|0:0,0:0:0:0:
444,123,216604,1,2,3:0:0:0:
338,227,216747,2,0,L|330:165,1,62.9999980773926,2|0,1:2|0:0,0:0:0:0:
414,275,217033,2,0,L|422:337,1,62.9999980773926,0|2,0:0|0:2,0:0:0:0:
365,87,217318,38,0,B|312:56|312:56|268:103,1,125.999996154785,4|2,3:2|0:1,0:0:0:0:
130,23,217747,1,2,0:1:0:0:
188,169,217890,2,0,L|260:185,2,62.9999980773926,8|4|2,1:1|0:1|0:2,0:0:0:0:
59,99,218318,1,2,0:2:0:0:
125,218,218461,6,0,P|106:192|111:150,1,62.9999980773926,2|0,3:2|0:0,0:0:0:0:
275,96,218747,1,2,0:1:0:0:
195,261,218890,1,2,0:1:0:0:
196,86,219033,37,10,1:2:0:0:
270,293,219176,1,8,0:3:0:0:
330,37,219318,5,10,0:3:0:0:
263,206,219461,1,8,0:3:0:0:
247,18,219604,37,2,3:2:0:0:
256,192,219747,12,2,228747,3:2:0:0:
