osu file format v14

[General]
AudioFilename: audio.mp3
AudioLeadIn: 0
PreviewTime: 16176
Countdown: 0
SampleSet: Soft
StackLeniency: 0.6
Mode: 0
LetterboxInBreaks: 0
WidescreenStoryboard: 1

[Editor]
Bookmarks: 35461,183033,201318,219604
DistanceSpacing: 1.6
BeatDivisor: 8
GridSize: 32
TimelineZoom: 2.3

[Metadata]
Title:Midnight City
TitleUnicode:Midnight City
Artist:M83
ArtistUnicode:M83
Creator:_orange
Version:Kujinn's Insane
Source:
Tags:hurry up we're dreaming anthony gonzalez synthpop electronic huwd mute naive english renumi hewwo ralsei mimari reform kujinn squirrelpascals saturnalize
BeatmapID:2220176
BeatmapSetID:871651

[Difficulty]
HPDrainRate:5
CircleSize:3
OverallDifficulty:6.5
ApproachRate:8.5
SliderMultiplier:2
SliderTickRate:1

[Events]
//Background and Video events
0,0,"bg.jpg",0,0
//Break Periods
2,128376,136568
2,155604,161711
//Storyboard Layer 0 (Background)
//Storyboard Layer 1 (Fail)
//Storyboard Layer 2 (Pass)
//Storyboard Layer 3 (Foreground)
//Storyboard Layer 4 (Overlay)
//Storyboard Sound Samples

[TimingPoints]
9319,571.428571428571,4,2,1,50,1,0
9319,-125,4,2,1,50,0,0
16176,-100,4,2,1,80,0,0
18461,-100,4,2,1,80,0,1
18604,-100,4,2,1,80,0,0
36747,-125,4,2,1,50,0,0
52747,-100,4,2,1,80,0,0
55033,-100,4,2,1,80,0,1
55176,-100,4,2,1,80,0,0
73318,-125,4,2,1,60,0,0
91604,-100,4,2,1,60,0,0
105318,-100,4,2,1,60,0,0
105604,-100,4,2,1,60,0,0
107604,-100,4,2,1,80,0,0
109890,-100,4,2,1,80,0,1
110033,-100,4,2,1,80,0,0
128176,-100,4,2,1,50,0,0
137318,-166.666666666667,4,2,1,50,0,0
156747,-100,4,2,1,50,0,0
162461,-100,4,2,1,80,0,0
164747,-83.3333333333333,4,2,1,80,0,1
219604,-83.3333333333333,4,2,1,70,0,1
221890,-83.3333333333333,4,2,1,60,0,1
224176,-90.9090909090909,4,2,1,50,0,1
226461,-90.9090909090909,4,2,1,40,0,1
228747,-100,4,2,1,30,0,0
231033,-100,4,2,1,25,0,0
233318,-100,4,2,1,20,0,0
235604,-100,4,2,1,15,0,0
240176,-100,4,2,1,5,0,0

[Colours]
Combo1 : 232,146,17
Combo2 : 128,128,128
Combo3 : 192,192,192
Combo4 : 240,54,0

[HitObjects]
75,305,9319,6,0,P|128:288|210:284,1,120
195,291,10176,2,0,P|135:286|78:268,1,120
68,274,11033,2,0,L|63:193,1,80,2|2,0:0|0:0,0:0:0:0:
86,68,11604,6,0,P|139:85|221:89,1,120
213,94,12461,2,0,P|178:99|133:114,1,80
125,104,13318,1,0,0:0:0:0:
132,116,13890,38,0,L|142:252,1,120
137,246,14747,2,0,L|145:126,1,120
135,111,15604,1,0,0:0:0:0:
388,280,16176,21,4,3:2:0:0:
388,280,16318,2,0,L|325:270,2,50,8|8|0,0:3|0:3|3:0,0:0:0:0:
234,354,16747,2,0,L|297:344,2,50,10|0|0,0:3|3:0|3:0,0:0:0:0:
159,301,17176,1,10,0:3:0:0:
159,301,17318,2,0,P|149:266|162:200,1,100,0|0,3:0|3:0,0:0:0:0:
230,147,17747,1,0,3:0:0:0:
120,80,17890,5,10,0:3:0:0:
141,174,18033,1,8,0:3:0:0:
235,153,18176,1,8,0:3:0:0:
214,59,18318,1,8,0:3:0:0:
120,80,18461,38,0,P|83:84|41:29,1,100,0|0,3:2|0:0,0:0:0:0:
329,22,19033,2,0,P|317:77|308:141,1,100,2|0,1:2|0:0,0:0:0:0:
264,187,19461,2,0,P|274:225|286:297,1,100,2|0,0:2|0:0,0:0:0:0:
273,361,19890,1,0,0:0:0:0:
49,276,20176,2,0,P|67:235|134:219,1,100,2|0,1:2|0:0,0:0:0:0:
435,321,20747,6,0,P|389:315|319:306,1,100,0|0,3:2|0:0,0:0:0:0:
168,110,21318,1,2,1:2:0:0:
233,52,21460,1,2,0:1:0:0:
258,136,21604,1,8,0:1:0:0:
152,31,21747,2,0,L|37:44,1,100,2|0,0:2|0:0,0:0:0:0:
0,146,22176,37,2,0:1:0:0:
0,146,22318,1,2,0:1:0:0:
67,209,22461,1,2,1:2:0:0:
67,209,22604,1,4,0:1:0:0:
13,369,23033,6,0,P|63:362|129:352,1,100,0|0,3:0|0:0,0:0:0:0:
289,126,23604,2,0,P|314:164|295:235,1,100,2|0,1:2|0:0,0:0:0:0:
242,270,24033,2,0,P|192:263|126:253,1,100,2|0,0:2|0:0,0:0:0:0:
78,204,24461,1,0,0:0:0:0:
367,371,24747,2,0,P|417:364|483:354,1,100,2|0,1:2|3:0,0:0:0:0:
382,60,25318,38,0,B|367:109|367:109|394:156,1,100,0|2,3:0|0:1,0:0:0:0:
504,211,25747,1,2,0:1:0:0:
504,211,25890,2,0,L|441:205,1,50,2|4,1:2|0:1,0:0:0:0:
246,345,26318,1,2,0:2:0:0:
246,345,26461,2,0,P|267:296|256:245,1,100,0|2,3:0|0:1,0:0:0:0:
204,172,26890,1,2,0:1:0:0:
110,193,27033,5,2,1:2:0:0:
89,99,27175,1,8,0:3:0:0:
183,78,27318,1,8,0:3:0:0:
204,172,27461,1,8,0:3:0:0:
110,193,27604,38,0,P|70:183|8:171,1,100,0|0,3:0|0:0,0:0:0:0:
216,40,28176,2,0,P|256:30|318:18,1,100,2|0,1:2|0:0,0:0:0:0:
384,64,28604,2,0,P|400:109|378:162,1,100,2|0,0:0|0:0,0:0:0:0:
327,215,29033,1,0,0:0:0:0:
101,66,29318,2,0,P|114:118|124:169,1,100,2|0,1:2|0:0,0:0:0:0:
377,338,29890,6,0,P|425:335|466:280,1,100,0|0,3:2|0:0,0:0:0:0:
309,72,30461,1,2,1:2:0:0:
385,115,30604,1,2,0:1:0:0:
313,154,30747,1,8,0:1:0:0:
381,36,30890,2,0,P|411:37|463:101,1,100,2|0,0:2|0:0,0:0:0:0:
422,174,31318,37,2,0:1:0:0:
422,174,31461,1,2,0:1:0:0:
479,247,31604,1,2,1:2:0:0:
479,247,31747,1,4,0:1:0:0:
189,369,32176,6,0,P|186:327|180:263,1,100,0|0,3:0|0:0,0:0:0:0:
258,15,32747,2,0,P|253:64|249:114,1,100,2|0,1:2|0:0,0:0:0:0:
191,172,33176,2,0,P|157:187|95:172,1,100,2|0,0:0|0:0,0:0:0:0:
57,104,33604,2,0,L|0:95,1,50,0|0,0:0|3:0,0:0:0:0:
139,53,33890,2,0,L|257:39,1,100,2|0,1:2|3:0,0:0:0:0:
426,307,34461,38,0,L|326:295,1,100,0|2,3:2|0:1,0:0:0:0:
256,238,34890,1,2,0:1:0:0:
256,238,35033,2,0,L|205:248,1,50,2|4,1:2|0:1,0:0:0:0:
343,74,35461,5,2,0:2:0:0:
343,74,35604,2,0,L|358:186,1,100,0|2,3:0|0:1,0:0:0:0:
416,227,36033,1,2,0:1:0:0:
437,321,36176,37,10,1:2:0:0:
343,342,36318,1,8,0:3:0:0:
322,248,36461,1,8,0:3:0:0:
416,227,36604,1,8,0:3:0:0:
343,342,36747,22,0,L|207:328,1,120,0|0,3:0|0:0,0:0:0:0:
161,279,37318,2,0,L|78:272,1,80,0|0,1:0|0:0,0:0:0:0:
175,132,37890,1,2,3:2:0:0:
175,132,38033,2,0,L|270:138,1,80,0|0,0:0|0:0,0:0:0:0:
320,186,38461,2,0,L|415:192,1,80,2|2,1:2|0:2,0:0:0:0:
237,384,39033,6,0,P|232:333|226:261,1,120,2|0,3:2|0:0,0:0:0:0:
176,200,39604,2,0,L|168:115,1,80,0|0,1:0|0:0,0:0:0:0:
253,15,40176,37,0,3:0:0:0:
56,191,40747,5,0,1:0:0:0:
309,335,41318,38,0,P|360:348|420:300,1,120,0|0,3:0|0:0,0:0:0:0:
469,254,41890,2,0,P|432:260|388:269,1,80,0|0,1:0|0:0,0:0:0:0:
208,204,42461,1,2,3:2:0:0:
208,204,42604,2,0,P|245:210|289:219,1,80,0|0,0:0|3:0,0:0:0:0:
354,167,43033,2,0,L|370:84,1,80,2|2,1:2|0:0,0:0:0:0:
135,82,43604,6,0,L|162:218,1,120,2|0,3:2|0:0,0:0:0:0:
220,252,44176,2,0,L|235:330,1,80,0|2,1:0|0:2,0:0:0:0:
301,376,44604,1,2,0:2:0:0:
362,324,44747,1,2,3:2:0:0:
362,324,44890,2,0,L|377:245,1,80,0|0,0:0|0:0,0:0:0:0:
365,157,45318,37,2,1:2:0:0:
289,120,45461,5,8,0:3:0:0:
213,157,45604,37,10,0:3:0:0:
137,120,45747,5,8,0:3:0:0:
61,157,45890,38,0,B|46:215|46:215|69:288,1,120,0|0,3:2|0:0,0:0:0:0:
92,348,46461,2,0,P|130:339|178:328,1,80,0|2,1:2|0:2,0:0:0:0:
318,214,47033,1,2,3:2:0:0:
318,214,47176,2,0,P|310:265|303:309,1,80,0|0,0:0|0:0,0:0:0:0:
363,350,47604,2,0,P|385:363|440:361,1,80,2|2,1:2|0:2,0:0:0:0:
248,161,48176,6,0,L|126:179,1,120,2|0,3:2|0:0,0:0:0:0:
52,140,48747,2,0,P|39:115|51:58,1,80,0|0,1:0|0:0,0:0:0:0:
144,0,49318,37,0,3:0:0:0:
301,190,49890,5,0,1:0:0:0:
33,280,50461,38,0,P|74:290|150:312,1,120,0|0,3:0|0:0,0:0:0:0:
218,352,51033,2,0,P|259:345|312:337,1,80,0|0,1:0|0:0,0:0:0:0:
447,233,51604,1,2,3:2:0:0:
447,233,51747,2,0,P|406:226|353:218,1,80,0|0,0:0|3:0,0:0:0:0:
309,167,52176,2,0,P|301:135|320:80,1,80,2|2,1:2|0:2,0:0:0:0:
484,42,52747,21,6,3:2:0:0:
484,42,52890,2,0,L|420:48,2,50,8|8|2,0:3|0:3|3:2,0:0:0:0:
386,132,53318,2,0,L|450:138,2,50,8|0|2,0:3|3:0|3:2,0:0:0:0:
310,192,53747,1,8,0:3:0:0:
310,192,53890,2,0,P|317:242|324:298,1,100,2|0,3:2|3:3,0:0:0:0:
257,349,54318,1,0,3:3:0:0:
151,282,54461,5,14,0:3:0:0:
172,376,54604,1,8,0:3:0:0:
266,355,54747,1,8,0:3:0:0:
245,261,54889,1,8,0:3:0:0:
77,321,55033,38,0,P|66:284|90:222,1,100,0|0,3:0|0:0,0:0:0:0:
344,46,55604,2,0,P|287:50|230:55,1,100,2|0,1:2|0:0,0:0:0:0:
150,78,56033,2,0,P|207:82|264:87,1,100,2|0,0:2|0:0,0:0:0:0:
323,129,56461,1,0,0:0:0:0:
279,373,56747,2,0,B|265:319|265:319|285:268,1,100,2|0,1:2|0:0,0:0:0:0:
496,170,57318,6,0,P|459:175|388:160,1,100,0|0,3:2|0:0,0:0:0:0:
209,16,57890,1,2,1:2:0:0:
165,87,58033,1,2,0:1:0:0:
256,85,58176,1,8,0:1:0:0:
96,43,58318,2,0,P|85:80|101:140,1,100,2|0,0:2|0:0,0:0:0:0:
170,210,58747,37,2,0:1:0:0:
170,210,58890,1,2,0:1:0:0:
118,285,59033,1,10,1:2:0:0:
118,285,59176,1,4,0:1:0:0:
416,351,59604,6,0,P|426:291|432:238,1,100,0|0,3:0|0:0,0:0:0:0:
274,25,60176,2,0,P|233:42|224:93,1,100,2|0,1:2|0:0,0:0:0:0:
291,150,60604,2,0,P|329:144|402:132,1,100,2|0,0:2|0:0,0:0:0:0:
461,173,61033,1,0,0:0:0:0:
153,198,61318,2,0,P|115:192|42:180,1,100,2|0,1:2|3:0,0:0:0:0:
339,336,61890,38,0,P|343:299|353:223,1,100,0|2,3:0|0:1,0:0:0:0:
411,178,62318,1,2,0:1:0:0:
411,178,62461,2,0,P|449:174|477:171,1,50,2|4,1:2|0:1,0:0:0:0:
271,34,62890,1,2,0:2:0:0:
271,34,63033,2,0,P|264:83|258:133,1,100,0|2,3:0|0:1,0:0:0:0:
248,230,63461,1,2,0:1:0:0:
182,145,63604,5,10,1:2:0:0:
330,166,63746,1,8,0:3:0:0:
179,151,63890,1,8,0:3:0:0:
334,173,64033,1,8,0:3:0:0:
248,230,64176,38,0,P|205:235|127:250,1,100,0|0,3:0|0:0,0:0:0:0:
421,350,64747,2,0,P|461:354|494:296,1,100,2|0,1:2|0:0,0:0:0:0:
443,245,65176,2,0,P|447:209|459:141,1,100,2|0,0:0|0:0,0:0:0:0:
410,77,65604,1,0,0:0:0:0:
188,311,65890,2,0,B|235:338|235:338|287:325,1,100,2|0,1:2|0:0,0:0:0:0:
155,120,66461,6,0,P|99:130|45:140,1,100,0|0,3:2|0:0,0:0:0:0:
334,166,67033,1,2,1:2:0:0:
370,80,67176,1,2,0:1:0:0:
288,99,67318,1,8,0:1:0:0:
413,152,67461,2,0,P|469:162|523:172,1,100,2|0,0:2|0:0,0:0:0:0:
460,246,67890,37,2,0:1:0:0:
460,246,68033,1,2,0:1:0:0:
512,317,68176,1,10,1:2:0:0:
512,317,68318,1,4,0:1:0:0:
177,373,68747,6,0,P|161:343|173:280,1,100,0|0,3:0|0:0,0:0:0:0:
321,135,69318,2,0,P|280:143|204:152,1,100,2|0,1:2|0:0,0:0:0:0:
157,195,69747,2,0,P|116:187|40:178,1,100,2|0,0:2|0:0,0:0:0:0:
0,232,70176,1,0,0:0:0:0:
222,102,70461,2,0,P|236:60|215:0,1,100,2|0,1:2|3:0,0:0:0:0:
47,200,71033,38,0,P|54:246|64:309,1,100,0|2,3:0|0:1,0:0:0:0:
126,356,71461,1,2,0:1:0:0:
126,356,71604,2,0,P|156:353|184:350,1,50,2|4,1:2|0:1,0:0:0:0:
414,150,72033,1,2,0:0:0:0:
414,150,72176,2,0,P|373:143|292:133,1,100,0|2,3:0|0:1,0:0:0:0:
221,121,72604,1,2,0:1:0:0:
269,200,72747,5,10,1:2:0:0:
289,64,72890,1,8,0:3:0:0:
262,204,73033,1,8,0:3:0:0:
284,59,73176,1,8,0:3:0:0:
331,147,73318,6,0,P|387:166|451:135,1,120,0|0,3:0|0:0,0:0:0:0:
432,131,73890,2,0,P|434:173|435:221,1,80,0|0,1:0|0:0,0:0:0:0:
222,354,74461,1,2,3:2:0:0:
222,354,74604,2,0,P|221:314|219:274,1,80,0|0,0:0|0:0,0:0:0:0:
263,208,75033,2,0,P|263:168|265:128,1,80,2|2,1:2|0:2,0:0:0:0:
115,37,75604,6,0,P|68:29|24:95,1,120,2|0,3:2|0:0,0:0:0:0:
55,153,76176,2,0,P|97:160|152:171,1,80,0|0,1:0|0:0,0:0:0:0:
271,135,76747,37,0,3:0:0:0:
41,259,77318,5,0,1:0:0:0:
404,362,77890,38,0,P|410:316|417:242,1,120,0|0,3:0|0:0,0:0:0:0:
404,242,78461,2,0,P|402:209|400:146,1,80,0|0,1:0|0:0,0:0:0:0:
213,27,79033,1,2,3:2:0:0:
213,27,79176,2,0,P|184:20|136:51,1,80,0|0,0:0|3:0,0:0:0:0:
129,41,79604,2,0,P|138:80|148:126,1,80,2|2,1:2|0:2,0:0:0:0:
79,342,80176,6,0,B|55:317|55:317|76:233,1,120,2|0,3:2|0:0,0:0:0:0:
69,225,80747,2,0,P|124:220|163:217,1,80,0|2,1:0|0:2,0:0:0:0:
368,346,81318,1,2,3:2:0:0:
368,346,81461,2,0,P|313:341|274:338,1,80,0|0,0:0|0:0,0:0:0:0:
226,285,81890,37,2,1:2:0:0:
275,222,82033,5,8,0:3:0:0:
226,159,82176,37,10,0:3:0:0:
275,96,82318,5,8,0:3:0:0:
226,33,82461,38,0,P|269:38|350:47,1,120,0|0,3:0|0:0,0:0:0:0:
354,43,83033,2,0,B|339:84|339:84|352:123,1,80,0|0,1:0|0:0,0:0:0:0:
461,269,83604,1,2,3:2:0:0:
461,269,83747,2,0,P|438:251|381:252,1,80,0|0,0:0|0:0,0:0:0:0:
333,312,84176,2,0,P|295:306|238:296,1,80,2|2,1:2|0:2,0:0:0:0:
130,85,84747,6,0,P|161:117|135:183,1,120,2|0,3:2|0:0,0:0:0:0:
126,193,85318,2,0,P|164:187|221:177,1,80,0|0,1:0|0:0,0:0:0:0:
327,238,85890,37,0,3:0:0:0:
156,354,86461,5,0,1:0:0:0:
453,308,87033,38,0,P|449:259|443:187,1,120,0|0,3:0|0:0,0:0:0:0:
434,180,87604,2,0,P|438:147|444:91,1,80,0|0,1:2|0:0,0:0:0:0:
202,57,88176,1,2,3:2:0:0:
202,57,88318,2,0,P|230:86|273:84,1,80,0|0,0:0|3:0,0:0:0:0:
343,57,88747,1,2,1:2:0:0:
217,218,89318,6,0,P|158:208|84:190,1,120,2|2,3:2|0:2,0:0:0:0:
91,204,89890,2,0,P|126:198|180:190,1,80,0|2,1:0|0:2,0:0:0:0:
294,360,90461,1,2,3:2:0:0:
294,360,90604,2,0,P|286:328|303:266,1,80,0|0,0:0|0:0,0:0:0:0:
362,238,91033,37,2,1:2:0:0:
455,261,91175,1,8,0:3:0:0:
479,168,91318,1,8,0:3:0:0:
385,144,91461,1,8,0:3:0:0:
362,238,91604,6,0,P|297:243|204:261,1,150,0|0,3:0|0:0,0:0:0:0:
205,250,92176,2,0,P|254:265|307:277,1,100,0|0,1:0|0:0,0:0:0:0:
166,130,92747,1,2,3:2:0:0:
166,130,92890,2,0,P|122:142|95:196,1,100,0|0,0:0|0:0,0:0:0:0:
84,188,93318,2,0,P|89:224|99:295,1,100,2|2,1:2|0:2,0:0:0:0:
350,349,93890,38,0,B|275:368|275:368|191:340,1,150,2|0,3:2|0:0,0:0:0:0:
197,352,94461,2,0,P|184:317|203:253,1,100,0|0,1:0|0:0,0:0:0:0:
277,164,95033,5,2,3:2:0:0:
389,350,95604,37,2,1:2:0:0:
137,278,96176,6,0,P|145:211|141:122,1,150,0|0,3:0|0:0,0:0:0:0:
129,127,96747,2,0,P|153:144|224:128,1,100,0|0,1:0|0:0,0:0:0:0:
380,24,97318,1,2,3:2:0:0:
380,24,97461,2,0,B|366:73|366:73|384:128,1,100,0|0,0:0|3:0,0:0:0:0:
396,127,97890,2,0,P|352:122|276:118,1,100,2|2,1:2|0:2,0:0:0:0:
70,317,98461,38,0,P|114:312|239:308,1,150,2|2,3:2|0:2,0:0:0:0:
234,314,99033,2,0,B|247:264|247:264|228:206,1,100,0|2,1:0|0:2,0:0:0:0:
71,84,99604,1,2,3:2:0:0:
71,84,99747,2,0,P|115:75|174:87,1,100,0|0,0:0|0:0,0:0:0:0:
237,129,100176,5,2,1:2:0:0:
304,82,100318,37,8,0:3:0:0:
370,130,100461,5,8,0:3:0:0:
438,84,100604,37,8,0:3:0:0:
499,136,100747,6,0,P|490:213|484:298,1,150,0|0,0:0|0:0,0:0:0:0:
489,294,101318,2,0,P|456:305|392:282,1,100,8|0,0:3|0:0,0:0:0:0:
163,126,102033,1,0,0:0:0:0:
163,126,102461,2,0,P|196:115|260:138,1,100,10|2,0:3|0:2,0:0:0:0:
370,372,103033,38,0,P|357:303|374:205,1,150,2|0,0:2|0:0,0:0:0:0:
392,201,103604,2,0,P|404:160|390:85,1,100,2|2,1:2|0:2,0:0:0:0:
322,3,104176,5,2,0:2:0:0:
91,168,104747,37,0,1:0:0:0:
389,322,105890,5,8,0:3:0:0:
389,322,107033,37,2,1:2:0:0:
265,220,107604,21,6,3:2:0:0:
265,220,107747,2,0,L|260:163,2,50,8|8|2,0:3|0:3|3:2,0:0:0:0:
189,274,108176,2,0,L|184:323,2,50,8|0|2,0:3|3:0|3:2,0:0:0:0:
137,204,108604,1,8,0:3:0:0:
137,204,108747,2,0,P|99:205|58:151,1,100,2|0,3:2|3:0,0:0:0:0:
129,122,109176,1,0,3:2:0:0:
223,143,109318,5,14,0:3:0:0:
244,49,109460,1,8,0:3:0:0:
150,28,109603,1,8,0:3:0:0:
129,122,109746,1,8,0:3:0:0:
223,143,109890,38,0,P|267:134|345:127,1,100,0|0,3:0|0:0,0:0:0:0:
435,352,110461,2,0,P|386:347|363:293,1,100,2|0,1:2|0:0,0:0:0:0:
416,248,110890,2,0,P|424:198|440:128,1,100,2|0,0:2|0:0,0:0:0:0:
402,74,111318,1,0,0:0:0:0:
165,250,111604,2,0,P|175:298|183:348,1,100,2|0,1:2|0:0,0:0:0:0:
209,59,112176,6,0,P|186:35|112:41,1,100,0|0,3:2|0:0,0:0:0:0:
82,292,112747,1,2,1:2:0:0:
165,250,112890,1,2,0:1:0:0:
93,211,113033,1,8,0:1:0:0:
158,334,113176,2,0,P|195:338|264:350,1,100,2|0,0:2|0:0,0:0:0:0:
373,382,113604,37,2,0:1:0:0:
373,382,113747,1,2,0:1:0:0:
467,347,113890,1,10,1:2:0:0:
467,347,114033,1,4,0:1:0:0:
344,84,114461,6,0,P|337:135|329:201,1,100,0|0,3:0|0:0,0:0:0:0:
89,339,115033,2,0,P|71:308|87:240,1,100,2|0,1:2|0:0,0:0:0:0:
153,206,115461,2,0,P|188:215|259:229,1,100,2|0,0:2|0:0,0:0:0:0:
331,183,115890,2,0,L|338:244,1,50,0|0,0:0|3:0,0:0:0:0:
407,300,116176,2,0,P|357:309|309:321,1,100,2|0,1:2|3:0,0:0:0:0:
107,95,116747,38,0,B|159:85|159:85|203:120,1,100,0|2,3:0|0:1,0:0:0:0:
248,178,117176,1,2,0:1:0:0:
248,178,117318,2,0,L|304:168,1,50,2|4,1:2|0:1,0:0:0:0:
203,348,117747,1,2,0:2:0:0:
203,348,117890,2,0,P|141:337|86:325,1,100,0|2,3:0|0:1,0:0:0:0:
28,310,118318,1,2,0:1:0:0:
106,255,118461,5,10,1:2:0:0:
172,315,118604,37,8,0:3:0:0:
238,255,118747,5,8,0:3:0:0:
304,315,118890,37,8,0:3:0:0:
377,253,119033,6,0,P|380:185|386:133,1,100,0|0,3:0|0:0,0:0:0:0:
87,120,119604,2,0,P|133:131|181:93,1,100,2|0,1:2|0:0,0:0:0:0:
200,29,120033,2,0,P|209:74|216:131,1,100,2|0,0:0|0:0,0:0:0:0:
192,214,120461,1,0,0:0:0:0:
465,141,120747,2,0,P|456:186|449:243,1,100,2|0,1:2|0:0,0:0:0:0:
175,352,121318,38,0,P|197:325|271:322,1,100,0|0,3:2|0:0,0:0:0:0:
470,358,121890,1,2,1:2:0:0:
432,277,122033,1,2,0:1:0:0:
380,339,122176,1,8,0:1:0:0:
512,301,122318,2,0,P|509:245|504:191,1,100,2|0,0:2|0:0,0:0:0:0:
427,108,122747,5,2,0:1:0:0:
427,108,122890,1,2,0:1:0:0:
356,166,123033,1,10,1:2:0:0:
356,166,123176,1,4,0:1:0:0:
145,42,123604,38,0,P|87:34|50:72,1,100,0|0,3:0|0:0,0:0:0:0:
106,196,124176,2,0,P|146:189|224:178,1,100,2|0,1:2|0:0,0:0:0:0:
270,127,124604,2,0,P|310:134|388:145,1,100,2|0,0:2|0:0,0:0:0:0:
421,206,125033,2,0,P|465:201|490:199,1,50,0|0,0:0|3:0,0:0:0:0:
367,274,125318,2,0,P|327:281|275:230,1,100,2|0,1:2|3:0,0:0:0:0:
188,66,125890,6,0,P|199:118|189:177,1,100,0|2,3:0|0:1,0:0:0:0:
147,234,126318,1,2,0:1:0:0:
147,234,126461,2,0,P|145:264|151:290,1,50,2|4,1:2|0:1,0:0:0:0:
453,361,126890,37,2,0:0:0:0:
453,361,127033,2,0,L|462:249,1,100,0|2,3:0|0:1,0:0:0:0:
406,180,127461,1,2,0:1:0:0:
474,124,127604,5,10,1:2:0:0:
408,64,127747,37,8,0:3:0:0:
342,124,127890,5,8,0:3:0:0:
276,64,128033,37,8,0:3:0:0:
208,125,128176,21,0,0:0:0:0:
204,290,137318,53,0,3:0:0:0:
206,268,137890,5,0,3:0:0:0:
210,235,138461,38,0,L|214:166,1,59.9999981689454,2|2,3:2|0:2,0:0:0:0:
266,117,139033,2,0,L|262:48,1,59.9999981689454,2|2,3:2|0:2,0:0:0:0:
94,71,139604,6,0,P|78:114|137:165,3,119.999996337891,2|0|0|0,3:2|3:0|3:0|3:0,0:0:0:0:
458,68,141890,37,0,3:0:0:0:
453,88,142461,5,0,3:0:0:0:
450,107,143033,38,0,L|457:170,1,59.9999981689454,2|2,3:2|0:2,0:0:0:0:
393,230,143461,1,0,3:0:0:0:
393,230,143604,2,0,L|386:293,1,59.9999981689454,2|2,3:2|0:2,0:0:0:0:
463,355,144176,6,0,P|403:343|346:332,3,119.999996337891,2|0|2|2,3:2|3:0|3:2|3:2,0:0:0:0:
82,363,146461,37,0,3:0:0:0:
88,342,147033,5,0,3:0:0:0:
84,319,147604,38,0,L|80:257,1,59.9999981689454,2|2,3:2|0:2,0:0:0:0:
144,200,148176,2,0,L|148:138,1,59.9999981689454,2|2,3:2|0:2,0:0:0:0:
258,32,148747,6,0,B|313:40|313:40|329:56|329:56|384:65,3,119.999996337891,2|2|2|2,3:2|3:2|3:2|3:2,0:0:0:0:
209,174,151033,37,0,3:0:0:0:
173,185,151604,5,0,3:0:0:0:
146,175,152176,38,0,L|86:181,1,59.9999981689454,2|2,3:2|0:2,0:0:0:0:
11,202,152604,1,0,3:0:0:0:
11,202,152747,2,0,L|70:208,1,59.9999981689454,2|2,3:2|0:2,0:0:0:0:
317,358,153318,6,0,P|341:322|323:248,3,119.999996337891,2|0|2|2,3:2|3:0|3:2|3:2,0:0:0:0:
324,176,162461,5,6,3:2:0:0:
324,176,162604,2,0,L|329:120,2,50,8|8|0,0:3|0:3|3:0,0:0:0:0:
244,237,163033,2,0,L|248:286,2,50,8|0|2,0:3|3:3|3:2,0:0:0:0:
188,160,163461,1,10,0:3:0:0:
188,160,163604,2,0,P|138:135|75:162,1,100,2|0,3:2|3:3,0:0:0:0:
39,207,164033,1,0,3:3:0:0:
142,302,164176,5,14,0:3:0:0:
9,285,164318,1,8,0:3:0:0:
129,223,164461,1,10,0:3:0:0:
69,341,164604,1,8,0:3:0:0:
39,207,164747,38,0,P|45:161|52:61,1,119.999996337891,2|0,3:2|0:0,0:0:0:0:
299,14,165318,2,0,P|341:8|372:84,1,119.999996337891,0|0,1:0|0:0,0:0:0:0:
332,136,165747,1,0,0:0:0:0:
332,136,165890,2,0,B|287:129|287:129|264:140|264:140|207:132,1,119.999996337891,2|2,3:2|0:2,0:0:0:0:
337,269,166461,2,0,B|382:262|382:262|405:273|405:273|462:265,1,119.999996337891,2|2,1:2|0:2,0:0:0:0:
173,354,167033,6,0,P|131:358|100:246,1,179.999994506836,2|0,3:2|0:0,0:0:0:0:
185,174,167604,1,0,1:2:0:0:
117,97,167747,1,2,0:1:0:0:
32,160,167890,1,8,0:1:0:0:
96,249,168033,2,0,P|143:252|237:259,1,119.999996337891,4|0,0:1|0:0,0:0:0:0:
300,322,168461,37,2,0:1:0:0:
300,322,168604,1,2,0:1:0:0:
399,269,168747,1,8,1:2:0:0:
399,269,168890,1,4,0:1:0:0:
350,35,169318,6,0,P|296:60|233:40,1,119.999996337891,0|0,3:0|0:0,0:0:0:0:
16,240,169890,2,0,P|66:236|144:228,1,119.999996337891,0|0,1:0|0:0,0:0:0:0:
209,282,170318,1,0,0:0:0:0:
209,282,170461,2,0,P|177:245|189:167,1,119.999996337891,2|2,3:2|0:2,0:0:0:0:
331,259,170890,1,0,3:0:0:0:
331,259,171033,2,0,P|315:318|301:384,1,119.999996337891,2|2,1:2|0:2,0:0:0:0:
320,89,171604,38,0,B|371:81|371:81|392:90|392:90|447:82,1,119.999996337891,2|2,3:2|0:1,0:0:0:0:
503,135,172033,1,2,0:1:0:0:
503,135,172176,2,0,L|437:125,1,59.9999981689454,8|4,1:1|0:1,0:0:0:0:
237,336,172604,1,0,0:0:0:0:
237,336,172747,2,0,B|281:343|305:281|256:242,1,119.999996337891,0|2,3:2|0:1,0:0:0:0:
217,174,173176,1,2,0:1:0:0:
131,221,173318,5,8,1:2:0:0:
264,250,173461,1,8,0:3:0:0:
125,209,173604,37,8,0:3:0:0:
279,240,173747,1,8,0:3:0:0:
173,276,173890,6,0,P|145:329|122:384,1,119.999996337891,0|0,3:0|0:0,0:0:0:0:
391,112,174461,2,0,P|363:63|291:65,1,119.999996337891,0|0,1:0|0:0,0:0:0:0:
223,115,174890,1,0,0:0:0:0:
223,115,175033,2,0,P|269:111|346:105,1,119.999996337891,2|2,3:2|0:2,0:0:0:0:
138,220,175604,2,0,P|92:216|15:210,1,119.999996337891,2|2,1:2|0:2,0:0:0:0:
275,317,176176,38,0,B|382:345|345:262|461:293,1,179.999994506836,2|0,3:2|0:0,0:0:0:0:
508,356,176747,1,0,1:2:0:0:
429,302,176890,1,2,0:1:0:0:
427,203,177033,1,8,0:1:0:0:
512,161,177176,2,0,P|465:171|392:128,1,119.999996337891,4|0,0:1|0:0,0:0:0:0:
317,56,177604,5,2,0:1:0:0:
317,56,177747,1,2,0:1:0:0:
228,128,177890,1,8,1:2:0:0:
228,128,178033,1,4,0:1:0:0:
39,47,178461,38,0,P|62:103|76:178,1,119.999996337891,0|0,3:0|0:0,0:0:0:0:
258,354,179033,2,0,P|219:365|179:292,1,119.999996337891,0|0,1:0|0:0,0:0:0:0:
235,231,179461,1,0,0:0:0:0:
235,231,179604,2,0,P|290:219|374:216,1,119.999996337891,2|2,3:2|0:2,0:0:0:0:
467,147,180033,1,0,3:0:0:0:
467,147,180176,2,0,P|429:132|374:197,1,119.999996337891,2|2,1:2|3:2,0:0:0:0:
193,360,180747,6,0,P|201:294|216:228,1,119.999996337891,6|2,3:2|0:1,0:0:0:0:
152,104,181176,1,2,0:1:0:0:
152,104,181318,2,0,P|161:144|164:175,1,59.9999981689454,8|4,1:1|0:1,0:0:0:0:
25,347,181747,1,0,0:0:0:0:
25,347,181890,2,0,P|69:334|169:317,1,119.999996337891,0|2,3:0|0:1,0:0:0:0:
242,360,182318,1,2,0:1:0:0:
179,289,182461,37,8,1:2:0:0:
250,227,182604,5,8,0:3:0:0:
179,165,182747,37,8,0:3:0:0:
250,103,182890,5,8,0:3:0:0:
179,41,183033,38,0,P|134:27|88:144,1,179.999994506836,2|0,3:2|0:0,0:0:0:0:
179,165,183604,2,0,P|236:152|310:143,1,119.999996337891,0|0,1:0|0:0,0:0:0:0:
414,222,184033,2,0,P|371:232|320:175,1,119.999996337891,2|0,0:2|0:0,0:0:0:0:
398,125,184461,1,0,0:0:0:0:
270,307,184747,2,0,P|205:290|149:285,1,119.999996337891,0|2,1:0|0:2,0:0:0:0:
398,125,185318,6,0,B|353:221|436:193|387:305,1,179.999994506836,2|2,3:2|0:2,0:0:0:0:
242,334,185890,1,2,1:2:0:0:
183,256,186033,1,2,0:1:0:0:
242,184,186176,1,8,0:1:0:0:
323,227,186318,2,0,P|351:249|436:244,1,119.999996337891,2|0,0:2|0:0,0:0:0:0:
499,176,186747,37,2,0:1:0:0:
499,176,186890,1,2,0:1:0:0:
441,92,187033,1,10,1:2:0:0:
441,92,187176,1,4,0:1:0:0:
507,24,187318,1,2,0:0:0:0:
344,122,187604,6,0,P|337:179|218:198,1,179.999994506836,2|2,3:2|0:0,0:0:0:0:
137,109,188176,2,0,P|153:67|239:65,1,119.999996337891,2|2,1:2|0:2,0:0:0:0:
214,172,188604,2,0,P|162:154|88:150,1,119.999996337891,2|0,0:2|0:0,0:0:0:0:
12,190,189033,1,0,0:0:0:0:
306,249,189318,2,0,P|365:245|422:226,1,119.999996337891,0|2,1:2|3:2,0:0:0:0:
222,23,189890,38,0,B|191:48|191:48|210:136,1,119.999996337891,0|2,3:0|0:1,0:0:0:0:
230,217,190318,1,2,0:1:0:0:
230,217,190461,2,0,L|169:232,1,59.9999981689454,8|2,1:0|0:2,0:0:0:0:
306,288,190747,2,0,L|364:302,1,59.9999981689454,2|2,0:0|0:2,0:0:0:0:
428,161,191033,2,0,P|408:122|326:122,1,119.999996337891,2|2,3:2|0:1,0:0:0:0:
256,163,191461,1,2,0:1:0:0:
161,215,191604,5,8,1:2:0:0:
76,161,191747,37,10,0:3:0:0:
80,70,191890,5,10,0:3:0:0:
167,32,192033,37,8,0:3:0:0:
241,81,192176,6,0,P|275:143|383:111,1,179.999994506836,2|0,3:2|0:0,0:0:0:0:
481,33,192747,2,0,P|472:100|463:165,1,119.999996337891,2|2,1:2|0:2,0:0:0:0:
461,261,193176,1,0,0:0:0:0:
461,261,193318,2,0,L|470:328,2,59.9999981689454,2|0|2,3:2|0:0|0:2,0:0:0:0:
362,225,193747,1,2,0:2:0:0:
362,225,193890,2,0,P|318:215|259:269,1,119.999996337891,2|2,1:2|0:2,0:0:0:0:
151,339,194318,37,2,0:2:0:0:
151,339,194461,2,0,P|210:345|285:357,1,119.999996337891,2|0,3:2|0:0,0:0:0:0:
234,40,195033,1,0,1:0:0:0:
169,104,195176,1,2,0:1:0:0:
211,186,195318,1,8,0:1:0:0:
304,207,195461,2,0,P|347:203|379:127,1,119.999996337891,2|2,0:2|0:2,0:0:0:0:
341,50,195890,1,2,0:2:0:0:
341,50,196033,1,2,0:1:0:0:
256,119,196176,1,10,1:2:0:0:
256,119,196318,1,4,0:1:0:0:
44,100,196747,6,0,P|25:177|90:259,1,179.999994506836,2|0,3:2|0:0,0:0:0:0:
238,272,197318,2,0,P|299:260|374:249,1,119.999996337891,2|2,1:2|0:2,0:0:0:0:
432,302,197747,2,0,P|395:316|330:264,1,119.999996337891,2|2,0:2|0:2,0:0:0:0:
292,193,198176,1,2,0:2:0:0:
482,61,198461,2,0,P|474:126|466:192,1,119.999996337891,2|2,1:2|3:2,0:0:0:0:
205,376,199033,38,0,B|171:349|171:349|191:264,1,119.999996337891,6|2,3:2|0:2,0:0:0:0:
223,185,199461,1,2,0:2:0:0:
223,185,199604,2,0,L|218:120,1,59.9999981689454,0|2,1:0|0:2,0:0:0:0:
371,342,200033,1,2,0:0:0:0:
371,342,200176,2,0,P|439:356|480:306,1,119.999996337891,0|2,3:0|0:1,0:0:0:0:
400,258,200604,1,6,0:1:0:0:
458,169,200747,5,8,1:2:0:0:
315,208,200890,1,10,0:3:0:0:
476,155,201033,37,8,0:3:0:0:
296,195,201176,1,10,0:3:0:0:
367,115,201318,6,0,P|385:82|513:74,1,179.999994506836,2|0,3:2|0:0,0:0:0:0:
414,212,201890,2,0,P|359:204|291:194,1,119.999996337891,0|2,1:0|0:2,0:0:0:0:
235,278,202318,2,0,B|266:251|266:251|246:162,1,119.999996337891,2|2,0:2|0:2,0:0:0:0:
228,91,202747,1,2,0:2:0:0:
442,15,203033,2,0,P|383:11|362:79,1,119.999996337891,0|0,1:0|0:0,0:0:0:0:
481,221,203604,38,0,B|377:205|430:299|303:277,1,179.999994506836,2|0,3:2|0:0,0:0:0:0:
234,243,204176,1,2,1:2:0:0:
246,152,204318,1,2,0:1:0:0:
339,141,204461,1,2,0:2:0:0:
398,216,204604,2,0,P|402:262|353:324,1,119.999996337891,2|2,0:2|0:2,0:0:0:0:
272,351,205033,1,2,0:1:0:0:
272,351,205176,1,2,0:2:0:0:
296,258,205318,2,0,P|292:228|284:199,1,59.9999981689454,10|4,1:2|0:1,0:0:0:0:
199,178,205604,1,2,0:2:0:0:
44,277,205890,6,0,P|17:222|52:94,1,179.999994506836,2|0,3:2|0:0,0:0:0:0:
221,74,206461,2,0,P|197:118|121:103,1,119.999996337891,2|0,1:2|0:0,0:0:0:0:
83,33,206890,2,0,P|96:96|107:161,1,119.999996337891,2|0,0:2|0:0,0:0:0:0:
173,216,207318,2,0,P|168:259|164:297,1,59.9999981689454,2|2,0:2|3:2,0:0:0:0:
241,344,207604,2,0,P|285:355|333:284,1,119.999996337891,2|2,1:2|0:2,0:0:0:0:
491,195,208176,38,0,P|436:201|369:211,1,119.999996337891,2|2,3:2|0:2,0:0:0:0:
333,306,208604,1,2,0:1:0:0:
333,306,208747,2,0,P|283:296|258:294,2,59.9999981689454,2|4|2,1:2|0:1|0:2,0:0:0:0:
428,375,209176,1,0,0:0:0:0:
428,375,209318,2,0,P|477:360|476:288,1,119.999996337891,2|2,3:2|0:1,0:0:0:0:
405,242,209747,1,2,0:1:0:0:
334,177,209890,5,10,1:2:0:0:
377,90,210033,37,8,0:3:0:0:
473,104,210176,5,8,0:3:0:0:
491,195,210318,37,10,0:3:0:0:
405,242,210461,6,0,P|375:220|286:239,1,119.999996337891,2|2,3:2|0:2,0:0:0:0:
79,355,211033,2,0,P|69:295|61:236,1,119.999996337891,2|2,1:2|0:2,0:0:0:0:
106,117,211461,2,0,P|97:176|88:236,1,119.999996337891
74,331,211890,1,2,0:2:0:0:
305,160,212176,2,0,P|293:109|213:108,1,119.999996337891,0|2,1:0|0:2,0:0:0:0:
250,302,212747,38,0,P|310:293|391:280,1,119.999996337891,2|2,3:2|0:2,0:0:0:0:
425,51,213318,1,2,1:2:0:0:
321,98,213461,1,2,0:1:0:0:
381,196,213604,1,2,0:2:0:0:
470,150,213747,2,0,P|410:141|329:128,1,119.999996337891,4|2,0:1|0:2,0:0:0:0:
233,173,214176,1,2,0:1:0:0:
233,173,214318,1,2,0:1:0:0:
157,98,214461,1,10,1:2:0:0:
157,98,214604,1,0,0:0:0:0:
74,159,214747,2,0,L|88:230,1,59.9999981689454,2|0,0:2|0:0,0:0:0:0:
81,351,215033,6,0,P|131:368|184:310,1,119.999996337891,2|2,3:2|0:2,0:0:0:0:
309,125,215604,2,0,B|274:150|274:150|294:243,1,119.999996337891,2|0,1:2|0:0,0:0:0:0:
397,251,216033,2,0,P|347:234|294:292,1,119.999996337891,2|2,0:2|0:2,0:0:0:0:
250,359,216461,2,0,P|221:350|172:338,1,59.9999981689454,0|2,0:0|3:0,0:0:0:0:
80,269,216747,2,0,P|131:260|211:246,1,119.999996337891,2|0,1:2|0:0,0:0:0:0:
485,101,217318,38,0,B|435:91|435:91|415:70|415:70|360:60,1,119.999996337891,4|2,3:2|0:1,0:0:0:0:
273,17,217747,1,2,0:1:0:0:
273,17,217890,2,0,L|281:87,1,59.9999981689454,8|4,1:1|0:1,0:0:0:0:
378,343,218318,1,2,0:2:0:0:
378,343,218461,2,0,B|416:354|416:354|443:301|416:265,1,119.999996337891,2|2,3:2|0:1,0:0:0:0:
337,228,218890,1,2,0:1:0:0:
254,299,219033,5,10,1:2:0:0:
156,263,219176,37,8,0:3:0:0:
144,157,219318,5,10,0:3:0:0:
223,103,219461,37,8,0:3:0:0:
311,140,219604,5,2,3:2:0:0:
256,192,219747,12,2,228747,3:2:0:0:
