osu file format v14

[General]
AudioFilename: audio.mp3
AudioLeadIn: 0
PreviewTime: 16176
Countdown: 0
SampleSet: Soft
StackLeniency: 0.6
Mode: 0
LetterboxInBreaks: 0
WidescreenStoryboard: 1

[Editor]
Bookmarks: 164747,183033,201318,219604
DistanceSpacing: 1.2
BeatDivisor: 4
GridSize: 8
TimelineZoom: 1.2

[Metadata]
Title:Midnight City
TitleUnicode:Midnight City
Artist:M83
ArtistUnicode:M83
Creator:_orange
Version:Hard
Source:
Tags:hurry up we're dreaming anthony gonzalez synthpop electronic huwd mute naive english renumi hewwo ralsei mimari reform kujinn squirrelpascals saturnalize
BeatmapID:2007724
BeatmapSetID:871651

[Difficulty]
HPDrainRate:5
CircleSize:4
OverallDifficulty:6
ApproachRate:7.5
SliderMultiplier:2
SliderTickRate:1

[Events]
//Background and Video events
0,0,"bg.jpg",0,0
//Break Periods
2,128232,136418
//Storyboard Layer 0 (Background)
//Storyboard Layer 1 (Fail)
//Storyboard Layer 2 (Pass)
//Storyboard Layer 3 (Foreground)
//Storyboard Layer 4 (Overlay)
//Storyboard Sound Samples

[TimingPoints]
9319,571.428571428571,4,2,1,50,1,0
9319,-125,4,2,1,50,0,0
16176,-100,4,2,1,80,0,0
18461,-100,4,2,1,80,0,1
18604,-100,4,2,1,80,0,0
36747,-125,4,2,1,50,0,0
52747,-100,4,2,1,80,0,0
55033,-100,4,2,1,80,0,1
55176,-100,4,2,1,80,0,0
73318,-125,4,2,1,60,0,0
91604,-100,4,2,1,60,0,0
107604,-100,4,2,1,80,0,0
109890,-100,4,2,1,80,0,1
110033,-100,4,2,1,80,0,0
128176,-100,4,2,1,50,0,0
156747,-100,4,2,1,50,0,0
162461,-100,4,2,1,80,0,0
164747,-83.3333333333333,4,2,1,80,0,1
219604,-83.3333333333333,4,2,1,70,0,1
221890,-83.3333333333333,4,2,1,60,0,1
224176,-90.9090909090909,4,2,1,50,0,1
226461,-90.9090909090909,4,2,1,40,0,1
228747,-100,4,2,1,30,0,1
231033,-100,4,2,1,25,0,1
233318,-100,4,2,1,20,0,1
235604,-100,4,2,1,15,0,0
240176,-100,4,2,1,5,0,0

[Colours]
Combo1 : 232,146,17
Combo2 : 128,128,128
Combo3 : 192,192,192
Combo4 : 240,54,0

[HitObjects]
260,85,9319,5,2,0:0:0:0:
260,85,9890,2,0,L|252:164,1,80,2|0,0:0|0:0,0:0:0:0:
268,200,10319,2,0,P|318:170|377:175,1,120,2|0,0:0|0:0,0:0:0:0:
438,124,11033,2,0,P|454:160|453:199,1,80,2|0,0:0|0:0,0:0:0:0:
396,255,11604,5,0,0:0:0:0:
396,254,12176,2,0,P|398:294|402:334,1,80,2|0,0:0|0:0,0:0:0:0:
370,359,12604,2,0,P|326:321|267:318,1,120,2|0,0:0|0:0,0:0:0:0:
198,359,13318,2,0,L|118:351,1,80,2|0,0:0|0:0,0:0:0:0:
66,289,13890,37,0,0:0:0:0:
66,288,14461,2,0,P|96:263|124:234,1,80,2|0,0:0|0:0,0:0:0:0:
140,197,14890,2,0,L|129:77,1,120,2|0,0:0|0:0,0:0:0:0:
187,22,15604,2,0,P|217:46|256:53,1,80,2|0,0:0|0:0,0:0:0:0:
318,132,16176,21,4,3:2:0:0:
318,132,16318,1,8,0:3:0:0:
318,132,16461,2,0,L|367:127,1,50,8|0,0:3|3:0,0:0:0:0:
442,101,16747,2,0,P|435:77|433:52,2,50,10|0|0,0:3|3:0|3:0,0:0:0:0:
482,178,17176,1,10,0:3:0:0:
482,178,17318,1,0,3:0:0:0:
421,278,17604,6,0,P|416:302|410:326,1,50,0|0,3:0|3:0,0:0:0:0:
338,346,17890,1,10,0:3:0:0:
318,344,18033,1,8,0:3:0:0:
298,343,18176,2,0,L|248:338,1,50,8|8,0:3|0:3,0:0:0:0:
174,327,18461,38,0,P|122:275|119:202,1,150,0|0,3:2|0:0,0:0:0:0:
79,162,19033,2,0,P|125:145|157:107,1,100,2|0,1:2|0:0,0:0:0:0:
218,15,19604,2,0,B|293:10|293:10|362:44,1,150,0|0,3:0|0:0,0:0:0:0:
393,87,20176,1,2,1:2:0:0:
489,34,20461,1,0,0:0:0:0:
484,144,20747,5,0,3:2:0:0:
429,357,21318,2,0,P|405:355|382:346,1,50,2|2,1:2|0:1,0:0:0:0:
327,331,21604,2,0,P|315:308|313:283,1,50,8|2,0:1|0:2,0:0:0:0:
294,232,21890,1,0,3:2:0:0:
196,291,22176,1,2,0:1:0:0:
196,291,22318,1,2,0:1:0:0:
196,291,22461,2,0,L|97:283,1,100,2|0,1:2|0:0,0:0:0:0:
20,351,23033,38,0,P|46:282|29:210,1,150,0|0,3:0|0:0,0:0:0:0:
3,163,23604,2,0,L|102:153,1,100,2|0,1:2|0:0,0:0:0:0:
153,91,24033,1,2,0:2:0:0:
153,91,24176,2,0,L|252:101,1,100,0|0,3:0|0:0,0:0:0:0:
315,49,24604,1,0,3:0:0:0:
315,49,24747,2,0,P|380:81|393:152,1,150,2|0,1:2|0:0,0:0:0:0:
353,189,25318,5,0,3:0:0:0:
274,265,25604,2,0,P|274:289|277:314,1,50,2|2,0:1|0:1,0:0:0:0:
347,363,25890,1,2,1:2:0:0:
347,363,26033,2,0,P|277:336|203:338,1,150,4|0,0:1|3:0,0:0:0:0:
100,377,26747,2,0,L|50:371,1,50,2|2,0:1|0:1,0:0:0:0:
12,301,27033,1,2,1:2:0:0:
26,286,27176,1,8,0:3:0:0:
36,268,27318,2,0,P|45:245|49:220,1,50,8|8,0:3|0:3,0:0:0:0:
34,143,27604,38,0,B|51:82|122:88|122:88|148:110,1,150,0|0,3:0|0:0,0:0:0:0:
167,164,28176,2,0,P|216:159|261:137,1,100,2|0,1:2|0:0,0:0:0:0:
371,133,28747,2,0,P|299:122|271:56,1,150,0|0,3:0|0:0,0:0:0:0:
310,17,29318,1,2,1:2:0:0:
420,17,29604,1,0,0:0:0:0:
477,110,29890,5,0,3:2:0:0:
310,252,30461,2,0,P|334:246|359:246,1,50,2|2,1:2|0:1,0:0:0:0:
407,273,30747,2,0,L|402:322,1,50,8|2,0:1|0:2,0:0:0:0:
369,367,31033,1,0,3:0:0:0:
213,319,31318,1,2,0:1:0:0:
213,319,31461,1,2,0:1:0:0:
212,319,31604,2,0,P|225:271|224:221,1,100,2|0,1:2|0:0,0:0:0:0:
83,115,32176,38,0,P|115:179|187:180,1,150,0|0,3:0|0:0,0:0:0:0:
224,221,32747,2,0,P|233:172|264:133,1,100,2|0,1:2|0:0,0:0:0:0:
299,60,33176,1,2,0:0:0:0:
299,60,33318,2,0,L|398:52,1,100,0|0,3:0|0:0,0:0:0:0:
477,39,33747,1,0,3:0:0:0:
477,39,33890,2,0,P|492:111|446:167,1,150,2|0,1:2|0:0,0:0:0:0:
392,173,34461,5,0,3:2:0:0:
439,272,34747,2,0,L|389:276,1,50,2|2,0:1|0:1,0:0:0:0:
326,223,35033,1,2,1:2:0:0:
326,223,35176,2,0,P|253:223|212:163,1,150,4|0,0:1|3:0,0:0:0:0:
98,69,35890,2,0,L|103:118,1,50,2|2,0:1|0:1,0:0:0:0:
65,188,36176,1,10,1:2:0:0:
67,207,36318,1,8,0:3:0:0:
68,227,36461,2,0,L|72:276,1,50,8|8,0:3|0:3,0:0:0:0:
75,321,36747,5,0,3:0:0:0:
211,359,37176,1,0,0:0:0:0:
211,359,37318,2,0,P|241:333|279:322,1,80,0|0,1:0|0:0,0:0:0:0:
372,348,37890,2,0,L|365:268,1,80,2|2,3:2|0:2,0:0:0:0:
453,231,38461,2,0,L|459:310,1,80,2|2,1:2|0:2,0:0:0:0:
381,174,39033,6,0,P|358:120|377:64,1,120,2|0,3:2|0:0,0:0:0:0:
420,42,39604,1,0,1:0:0:0:
420,42,40176,2,0,B|341:71|341:11|264:41,1,160,0|0,3:0|1:0,0:0:0:0:
78,85,41318,37,0,3:0:0:0:
216,116,41747,1,0,0:0:0:0:
216,116,41890,2,0,P|196:150|188:189,1,80,0|0,1:0|0:0,0:0:0:0:
93,203,42461,2,0,P|113:237|121:276,1,80,2|2,3:2|0:0,0:0:0:0:
84,348,42890,1,0,3:0:0:0:
84,348,43033,2,0,P|122:357|160:347,1,80,2|2,1:2|0:0,0:0:0:0:
237,289,43604,6,0,L|356:299,1,120,2|0,3:2|0:0,0:0:0:0:
404,305,44176,1,0,1:0:0:0:
479,246,44461,2,0,P|477:227|473:207,1,40,2|2,0:2|0:2,0:0:0:0:
422,143,44747,2,0,P|389:163|349:161,1,80,2|0,3:2|0:0,0:0:0:0:
440,45,45318,1,2,1:2:0:0:
440,45,45461,1,8,0:3:0:0:
440,45,45604,2,8,B|400:41,1,40,10|8,0:3|0:3,0:0:0:0:
358,64,45890,38,0,P|314:25|256:19,1,120,0|0,3:2|0:0,0:0:0:0:
211,37,46461,1,0,1:2:0:0:
226,173,46747,1,2,0:2:0:0:
150,113,47033,1,2,3:2:0:0:
149,112,47604,2,0,P|114:131|76:142,1,80,2|2,1:2|0:2,0:0:0:0:
18,219,48176,6,0,P|75:236|124:270,1,120,2|0,3:2|0:0,0:0:0:0:
142,315,48747,1,0,1:0:0:0:
142,315,49318,2,0,P|213:283|245:212,1,160,0|0,3:0|1:0,0:0:0:0:
417,337,50461,37,0,3:0:0:0:
281,287,50890,1,0,0:0:0:0:
281,287,51033,2,0,P|310:261|348:253,1,80,0|0,1:0|0:0,0:0:0:0:
444,249,51604,2,0,B|437:210|437:210|439:171,1,80,2|2,3:2|0:2,0:0:0:0:
379,113,52033,1,0,3:0:0:0:
379,113,52176,2,0,B|386:73|386:73|384:34,1,80,2|2,1:2|0:2,0:0:0:0:
239,57,52747,21,6,3:2:0:0:
239,57,52890,1,8,0:3:0:0:
239,57,53033,2,0,L|193:78,1,50,8|2,0:3|3:2,0:0:0:0:
73,40,53318,2,0,L|114:69,1,50,8|0,0:3|3:0,0:0:0:0:
148,142,53604,1,2,3:2:0:0:
148,142,53747,2,0,L|143:191,1,50,8|2,0:3|3:2,0:0:0:0:
45,284,54176,6,0,P|69:278|94:278,1,50,0|0,3:3|3:3,0:0:0:0:
134,346,54461,1,14,0:3:0:0:
151,357,54604,1,8,0:3:0:0:
171,362,54747,2,0,L|220:358,1,50,8|8,0:3|0:3,0:0:0:0:
296,330,55033,38,0,B|358:325|358:325|382:336|382:336|443:331,1,150,0|0,3:0|0:0,0:0:0:0:
488,290,55604,1,2,1:2:0:0:
399,225,55890,1,0,0:0:0:0:
399,225,56033,1,2,0:2:0:0:
399,225,56176,2,0,P|448:171|439:99,1,150,0|0,3:0|0:0,0:0:0:0:
449,39,56747,2,0,L|349:30,1,100,2|0,1:2|0:0,0:0:0:0:
188,46,57318,5,0,3:2:0:0:
27,225,57890,2,0,L|32:175,1,50,2|2,1:2|0:1,0:0:0:0:
111,195,58176,2,0,L|105:244,1,50,8|2,0:1|0:2,0:0:0:0:
95,323,58461,1,0,3:0:0:0:
207,280,58747,1,2,0:1:0:0:
207,280,58890,1,2,0:1:0:0:
207,280,59033,2,0,P|252:304|300:313,1,100,10|0,1:2|0:0,0:0:0:0:
407,366,59604,38,0,B|394:265|394:265|412:220,1,150,0|0,3:0|0:0,0:0:0:0:
460,184,60176,2,0,P|472:136|459:88,1,100,2|0,1:2|0:0,0:0:0:0:
503,21,60604,1,2,0:2:0:0:
503,21,60747,2,0,P|456:37|407:28,1,100,0|0,3:0|0:0,0:0:0:0:
335,0,61176,1,0,3:0:0:0:
335,0,61318,1,2,1:2:0:0:
252,136,61604,1,0,3:0:0:0:
362,107,61890,5,0,3:0:0:0:
220,40,62176,2,0,L|171:46,1,50,2|2,0:1|0:1,0:0:0:0:
146,124,62461,1,2,1:2:0:0:
146,124,62604,2,0,P|79:94|17:132,1,150,4|0,0:1|3:0,0:0:0:0:
3,254,63318,2,0,L|7:204,1,50,2|2,0:1|0:1,0:0:0:0:
84,175,63604,1,10,1:2:0:0:
83,195,63747,1,8,0:3:0:0:
83,214,63890,2,0,P|101:230|125:237,1,50,8|8,0:3|0:3,0:0:0:0:
199,211,64176,38,0,B|268:181|268:181|344:192,1,150,0|0,3:0|0:0,0:0:0:0:
402,202,64747,1,2,1:2:0:0:
467,319,65033,1,0,0:0:0:0:
467,319,65176,1,2,0:0:0:0:
467,319,65318,2,0,L|317:305,1,150,0|0,3:0|0:0,0:0:0:0:
267,338,65890,2,0,L|167:346,1,100,2|0,1:2|0:0,0:0:0:0:
47,359,66461,5,0,3:2:0:0:
110,126,67033,2,0,P|86:129|62:137,1,50,2|2,1:2|0:1,0:0:0:0:
11,46,67318,2,0,P|34:53|59:56,1,50,8|2,0:1|0:2,0:0:0:0:
136,31,67604,1,0,3:1:0:0:
251,64,67890,1,2,0:1:0:0:
251,64,68033,1,2,0:1:0:0:
251,64,68176,2,0,L|241:163,1,100,10|0,1:2|0:0,0:0:0:0:
351,38,68747,38,0,L|364:187,1,150,0|0,3:0|0:1,0:0:0:0:
393,135,69318,2,0,P|442:127|481:155,1,100,2|0,1:2|0:0,0:0:0:0:
474,237,69747,1,2,0:2:0:0:
474,237,69890,2,0,P|471:286|476:336,1,100,0|0,3:0|0:0,0:0:0:0:
404,365,70318,1,0,3:0:0:0:
404,365,70461,1,2,1:2:0:0:
335,258,70747,1,0,3:0:0:0:
260,368,71033,5,0,3:0:0:0:
228,229,71318,2,0,L|232:278,1,50,2|2,0:1|0:1,0:0:0:0:
166,327,71604,1,2,1:2:0:0:
166,327,71747,2,0,B|104:315|65:358|65:358|50:322,1,150,4|0,0:1|3:0,0:0:0:0:
109,206,72461,2,0,P|104:230|91:251,1,50,2|2,0:1|0:1,0:0:0:0:
32,198,72747,1,10,1:2:0:0:
34,178,72890,1,8,0:3:0:0:
36,158,73033,2,0,L|41:107,1,50,8|8,0:3|0:3,0:0:0:0:
45,60,73318,5,0,3:0:0:0:
176,26,73747,1,0,0:0:0:0:
176,26,73890,2,0,P|202:55|237:73,1,80,0|0,1:0|0:0,0:0:0:0:
303,143,74461,2,0,P|338:126|378:124,1,80,2|2,3:2|0:2,0:0:0:0:
440,198,75033,2,0,P|404:215|364:217,1,80,2|2,1:2|0:2,0:0:0:0:
361,313,75604,6,0,L|241:323,1,120,2|0,3:2|0:0,0:0:0:0:
193,328,76176,1,0,1:0:0:0:
193,328,76747,2,0,B|210:281|210:281|182:175,1,160,0|0,3:0|1:0,0:0:0:0:
31,294,77890,37,0,3:0:0:0:
99,167,78318,1,0,0:0:0:0:
99,167,78461,2,0,L|105:87,1,80,0|0,1:0|0:0,0:0:0:0:
253,37,79033,2,0,P|214:43|182:65,1,80,2|2,3:2|0:2,0:0:0:0:
248,121,79461,1,0,3:0:0:0:
248,121,79604,2,0,L|327:127,1,80,2|2,1:2|0:2,0:0:0:0:
407,72,80176,6,0,P|383:126|380:186,1,120,2|0,3:2|0:0,0:0:0:0:
414,220,80747,1,0,1:0:0:0:
451,316,81033,2,0,P|433:325|418:338,1,40,2|2,0:2|0:2,0:0:0:0:
392,378,81318,2,0,L|312:371,1,80,2|0,3:2|0:0,0:0:0:0:
315,243,81890,1,2,1:2:0:0:
315,243,82033,1,8,0:3:0:0:
315,243,82176,2,0,B|275:240,1,40,10|8,0:3|0:3,0:0:0:0:
240,273,82461,38,0,P|202:317|144:321,1,120,0|0,3:0|0:0,0:0:0:0:
102,296,83033,2,0,L|108:216,1,80,0|0,1:0|0:0,0:0:0:0:
191,102,83604,2,0,L|198:182,1,80,2|2,3:2|0:2,0:0:0:0:
70,118,84176,1,2,1:2:0:0:
92,25,84461,1,2,0:2:0:0:
191,102,84747,6,0,B|255:83|242:118|308:103,1,120,2|0,3:2|0:0,0:0:0:0:
351,81,85318,1,0,1:0:0:0:
351,80,85890,2,0,P|416:47|462:105,1,160,0|0,3:0|1:0,0:0:0:0:
479,296,87033,37,0,3:0:0:0:
401,175,87461,1,0,0:0:0:0:
401,175,87604,2,0,P|396:214|394:254,1,80,0|0,1:2|0:0,0:0:0:0:
327,324,88176,2,0,P|289:313|251:322,1,80,2|2,3:2|0:2,0:0:0:0:
197,265,88604,1,0,3:0:0:0:
197,265,88747,2,0,P|162:284|140:317,1,80,2|2,1:2|0:2,0:0:0:0:
43,316,89318,6,0,L|53:196,1,120,2|2,3:2|0:2,0:0:0:0:
91,164,89890,1,0,1:0:0:0:
44,38,90176,1,2,0:2:0:0:
129,80,90461,2,0,P|168:82|207:72,1,80,2|0,3:2|0:0,0:0:0:0:
290,20,91033,1,2,1:2:0:0:
290,20,91176,1,8,0:3:0:0:
290,20,91318,2,0,B|330:17,1,40,8|8,0:3|0:3,0:0:0:0:
389,27,91604,38,0,P|417:66|416:115,1,100,0|2,3:0|0:2,0:0:0:0:
341,208,92176,1,0,1:0:0:0:
341,208,92318,1,2,0:2:0:0:
449,333,92747,2,0,P|401:318|352:324,1,100,2|2,3:2|0:2,0:0:0:0:
247,383,93318,1,2,1:2:0:0:
276,277,93604,1,2,0:2:0:0:
150,326,93890,6,0,P|100:329|57:304,1,100,2|2,3:2|0:2,0:0:0:0:
131,205,94461,1,0,1:0:0:0:
131,205,94604,1,2,0:2:0:0:
27,120,95033,2,0,B|81:124|81:124|127:113|127:113|175:116,1,150,2|0,3:2|0:0,0:0:0:0:
234,126,95604,1,2,1:2:0:0:
351,152,95890,1,2,0:2:0:0:
405,46,96176,38,0,P|358:32|309:38,1,100,0|2,3:0|0:2,0:0:0:0:
351,152,96747,1,0,1:0:0:0:
351,152,96890,1,2,0:2:0:0:
499,266,97318,2,0,L|489:365,1,100,2|2,3:2|0:2,0:0:0:0:
439,311,97747,1,0,3:0:0:0:
439,311,97890,1,2,1:2:0:0:
329,262,98176,1,2,0:2:0:0:
251,366,98461,6,0,L|151:353,1,100,2|2,3:2|0:2,0:0:0:0:
184,279,98890,2,0,P|188:255|189:230,2,50,2|0|2,0:2|1:0|0:2,0:0:0:0:
106,289,99318,1,2,0:2:0:0:
23,202,99604,2,0,B|13:85|13:85|26:55,1,150,2|0,3:2|0:0,0:0:0:0:
69,14,100176,1,2,1:2:0:0:
69,14,100318,1,8,0:3:0:0:
69,14,100461,2,0,B|118:17,1,50,8|8,0:3|0:3,0:0:0:0:
156,64,100747,38,0,L|255:72,1,100,0|2,0:0|0:2,0:0:0:0:
355,84,101318,1,8,0:3:0:0:
355,84,101461,1,2,0:2:0:0:
461,15,101890,2,0,P|444:61|444:111,1,100,2|2,0:2|0:2,0:0:0:0:
473,199,102461,2,0,P|489:245|489:295,1,100,10|2,0:3|0:2,0:0:0:0:
415,364,103033,5,2,0:2:0:0:
415,364,103604,2,0,L|315:354,1,100,2|2,1:2|0:2,0:0:0:0:
216,340,104176,2,0,L|116:330,1,100,2|2,0:2|0:2,0:0:0:0:
27,284,104747,2,0,B|-25:229|32:127|99:203|129:152|129:247|232:207,1,300,0|0,1:0|0:0,0:0:0:0:
186,116,105890,1,8,0:3:0:0:
91,81,106176,37,2,0:2:0:0:
186,115,106461,2,0,P|191:66|172:21,1,100,2|2,0:2|0:2,0:0:0:0:
0,46,107033,2,0,P|-5:95|13:140,1,100,2|2,1:2|0:2,0:0:0:0:
103,220,107604,21,6,3:2:0:0:
103,220,107747,1,8,0:3:0:0:
102,220,107890,2,0,P|96:244|92:268,1,50,8|2,0:3|3:2,0:0:0:0:
161,373,108176,2,0,P|154:348|150:324,1,50,8|0,0:3|3:0,0:0:0:0:
201,240,108461,1,2,3:2:0:0:
201,240,108604,2,0,L|250:244,1,50,8|2,0:3|3:2,0:0:0:0:
296,375,109033,6,0,L|345:371,1,50,0|0,3:0|3:2,0:0:0:0:
390,307,109318,1,14,0:3:0:0:
407,317,109461,1,8,0:3:0:0:
426,320,109604,2,0,P|452:318|479:305,1,50,8|8,0:3|0:3,0:0:0:0:
432,240,109890,38,0,P|411:168|432:97,1,150,0|0,3:0|0:0,0:0:0:0:
487,73,110461,1,2,1:2:0:0:
346,23,110747,1,0,0:0:0:0:
346,23,110890,1,2,0:2:0:0:
346,23,111033,2,0,B|331:86|308:132|308:132|279:150,1,150,0|0,3:0|0:0,0:0:0:0:
274,211,111604,2,0,L|174:203,1,100,2|0,1:2|0:0,0:0:0:0:
219,62,112176,5,0,3:2:0:0:
10,122,112747,2,0,P|9:97|17:73,1,50,2|2,1:2|0:1,0:0:0:0:
82,28,113033,2,0,P|106:27|130:35,1,50,8|2,0:1|0:2,0:0:0:0:
93,107,113318,1,0,3:0:0:0:
35,230,113604,1,2,0:1:0:0:
35,230,113747,1,2,0:1:0:0:
35,230,113890,2,0,L|43:329,1,100,10|0,1:2|0:0,0:0:0:0:
159,355,114461,38,0,P|197:294|269:296,1,150,0|0,3:0|0:0,0:0:0:0:
316,333,115033,2,0,P|358:358|407:353,1,100,2|0,1:2|0:0,0:0:0:0:
376,277,115461,1,2,0:2:0:0:
376,277,115604,2,0,B|375:227|375:227|393:181,1,100,0|0,3:0|0:0,0:0:0:0:
471,158,116033,1,0,3:0:0:0:
471,158,116176,1,2,1:2:0:0:
321,84,116461,1,0,3:0:0:0:
429,92,116747,5,0,3:0:0:0:
260,141,117033,2,0,P|247:119|242:95,1,50,2|2,0:1|0:1,0:0:0:0:
258,15,117318,1,2,1:2:0:0:
258,15,117461,2,0,P|218:77|147:95,1,150,4|0,0:1|3:0,0:0:0:0:
60,9,118176,2,0,P|38:0|13:-2,1,50,2|2,0:1|0:1,0:0:0:0:
21,73,118461,1,10,1:2:0:0:
19,93,118604,1,8,0:3:0:0:
17,113,118747,2,0,L|12:162,1,50,8|8,0:3|0:3,0:0:0:0:
37,238,119033,38,0,B|139:264|139:264|177:242,1,150,0|0,3:0|0:0,0:0:0:0:
228,210,119604,1,2,1:2:0:0:
212,336,119890,1,0,0:0:0:0:
212,336,120033,1,2,0:0:0:0:
212,336,120176,2,0,B|270:341|270:341|289:334|289:334|360:341,1,150,0|0,3:0|0:0,0:0:0:0:
419,349,120747,2,0,P|396:304|398:255,1,100,2|0,1:2|0:0,0:0:0:0:
511,214,121318,5,0,3:2:0:0:
366,22,121890,2,0,L|370:71,1,50,2|2,1:2|0:1,0:0:0:0:
427,177,122176,2,0,L|431:127,1,50,8|2,0:1|0:2,0:0:0:0:
451,47,122461,1,0,3:1:0:0:
341,152,122747,1,2,0:1:0:0:
341,152,122890,1,2,0:1:0:0:
341,152,123033,2,0,L|241:143,1,100,10|0,1:2|0:0,0:0:0:0:
168,47,123604,38,0,B|192:93|192:93|177:190,1,150,0|0,3:0|0:1,0:0:0:0:
124,218,124176,2,0,P|79:197|31:206,1,100,2|0,1:2|0:0,0:0:0:0:
74,280,124604,1,2,0:2:0:0:
74,280,124747,2,0,L|66:379,1,100,0|0,3:0|0:0,0:0:0:0:
136,340,125176,1,0,3:0:0:0:
136,340,125318,1,2,1:2:0:0:
234,276,125604,1,0,3:0:0:0:
335,360,125890,5,0,3:0:0:0:
306,209,126176,2,0,L|310:159,1,50,2|2,0:1|0:1,0:0:0:0:
362,98,126461,1,2,1:2:0:0:
362,98,126604,2,0,L|348:247,1,150,4|0,0:1|3:0,0:0:0:0:
461,208,127318,2,0,P|445:189|438:166,1,50,2|2,0:1|0:1,0:0:0:0:
445,89,127604,1,10,1:2:0:0:
442,68,127747,1,8,0:3:0:0:
431,49,127890,2,0,P|413:31|391:20,1,50,8|8,0:3|0:3,0:0:0:0:
120,242,137318,5,0,3:0:0:0:
140,245,137890,1,0,3:0:0:0:
160,248,138461,2,0,L|259:239,1,100,2|2,3:2|0:2,0:0:0:0:
328,312,139033,2,0,L|427:303,1,100,2|2,3:2|0:2,0:0:0:0:
483,219,139604,5,2,3:2:0:0:
480,199,140176,1,0,3:0:0:0:
477,179,140747,1,0,3:0:0:0:
474,159,141318,1,0,3:0:0:0:
471,139,141890,37,0,3:0:0:0:
468,119,142461,1,0,3:0:0:0:
466,99,143033,2,0,P|428:129|379:127,1,100,2|2,3:2|0:2,0:0:0:0:
315,76,143461,1,0,3:0:0:0:
315,76,143604,2,0,P|329:123|331:173,1,100,2|2,3:2|0:2,0:0:0:0:
211,144,144176,5,2,3:2:0:0:
217,125,144747,1,0,3:0:0:0:
162,40,145033,1,2,0:2:0:0:
162,40,145176,1,2,0:2:0:0:
162,40,145318,1,2,3:2:0:0:
29,189,145890,2,0,P|75:172|123:181,1,100,2|2,3:2|0:2,0:0:0:0:
163,273,146461,37,0,3:0:0:0:
182,276,147033,1,0,3:0:0:0:
200,279,147604,2,0,P|250:280|292:255,1,100,2|2,3:2|0:2,0:0:0:0:
362,327,148176,2,0,P|388:285|387:235,1,100,2|2,3:2|0:2,0:0:0:0:
488,235,148747,5,2,3:2:0:0:
485,214,149318,2,0,P|460:170|418:146,1,100,2|2,3:2|0:2,0:0:0:0:
444,50,149890,2,0,P|394:48|351:74,1,100,2|2,3:2|0:2,0:0:0:0:
293,154,150461,1,2,3:2:0:0:
273,152,151033,37,0,3:0:0:0:
253,150,151604,1,0,3:0:0:0:
232,147,152176,2,0,L|225:48,1,100,2|2,3:2|0:2,0:0:0:0:
152,14,152604,1,0,3:0:0:0:
152,14,152747,2,0,P|104:21|68:54,1,100,2|2,3:2|0:2,0:0:0:0:
89,152,153318,5,2,3:2:0:0:
83,171,153890,1,0,3:0:0:0:
167,239,154176,1,2,0:2:0:0:
167,239,154318,1,2,0:2:0:0:
167,239,154461,1,2,3:2:0:0:
366,224,155033,2,0,P|326:194|277:187,1,100,2|2,3:2|0:2,0:0:0:0:
289,287,155604,37,0,0:0:0:0:
289,287,156747,6,0,P|318:325|366:337,1,100,2|2,0:2|0:2,0:0:0:0:
460,302,157318,2,0,P|478:256|465:209,1,100,2|2,0:2|0:2,0:0:0:0:
377,160,157890,38,0,B|355:32|417:1|485:7|519:93|464:156|367:101|367:101|223:54|244:166|133:142|133:142|74:124|51:63|89:22|144:25|162:68,1,800,2|0,0:2|0:0,0:0:0:0:
157,59,161318,6,0,P|146:107|149:157,1,100,2|2,0:2|0:2,0:0:0:0:
57,197,161890,2,0,P|67:245|64:295,1,100,2|2,0:2|0:2,0:0:0:0:
252,296,162461,5,6,3:2:0:0:
252,296,162603,1,8,0:3:0:0:
252,296,162747,2,0,P|277:294|301:299,1,50,8|0,0:3|3:0,0:0:0:0:
407,342,163033,2,0,P|393:321|385:297,1,50,8|0,0:3|3:3,0:0:0:0:
368,187,163318,1,2,3:2:0:0:
368,187,163461,2,0,P|356:209|340:228,1,50,10|2,0:3|3:2,0:0:0:0:
476,137,163890,6,0,L|471:87,1,50,0|0,3:3|3:3,0:0:0:0:
412,37,164176,1,14,0:3:0:0:
392,35,164318,1,8,0:3:0:0:
372,33,164461,2,0,L|322:28,1,50,10|8,0:3|0:3,0:0:0:0:
244,25,164747,38,0,P|222:44|206:69,1,59.9999981689454,2|0,3:2|0:0,0:0:0:0:
124,68,165033,2,0,P|129:97|143:123,1,59.9999981689454,0|0,0:0|0:0,0:0:0:0:
219,151,165318,1,0,1:0:0:0:
81,194,165604,1,0,0:0:0:0:
81,194,165747,1,0,0:0:0:0:
81,194,165890,2,0,L|91:313,1,119.999996337891,2|2,3:2|0:2,0:0:0:0:
215,239,166461,1,2,1:2:0:0:
159,381,166747,1,2,0:2:0:0:
275,309,167033,6,0,B|364:283|361:340|450:313,1,179.999994506836,2|0,3:2|0:0,0:0:0:0:
404,239,167604,2,0,P|397:210|405:181,1,59.9999981689454,0|2,1:2|0:1,0:0:0:0:
360,116,167890,2,0,P|375:90|401:76,1,59.9999981689454,8|4,0:1|0:1,0:0:0:0:
468,123,168176,1,0,3:2:0:0:
321,189,168461,1,2,0:1:0:0:
321,189,168604,1,2,0:1:0:0:
321,189,168747,2,0,L|201:177,1,119.999996337891,8|0,1:2|0:0,0:0:0:0:
283,34,169318,38,0,L|104:49,1,179.999994506836,0|0,3:0|0:0,0:0:0:0:
24,64,169890,2,0,P|44:120|41:179,1,119.999996337891,0|0,1:0|0:0,0:0:0:0:
1,248,170318,1,0,0:0:0:0:
1,248,170461,2,0,P|-2:277|2:307,1,59.9999981689454,2|0,3:2|0:0,0:0:0:0:
86,282,170747,1,2,0:2:0:0:
86,282,170890,1,0,3:0:0:0:
86,282,171033,2,0,L|205:274,1,119.999996337891,2|2,1:2|0:2,0:0:0:0:
326,195,171604,5,2,3:2:0:0:
294,313,171890,2,0,P|324:308|351:295,1,59.9999981689454,2|2,0:1|0:1,0:0:0:0:
416,354,172176,1,8,1:1:0:0:
416,354,172318,2,0,B|396:299|396:299|415:242,1,119.999996337891,4|0,0:1|0:0,0:0:0:0:
482,296,172747,1,0,3:0:0:0:
462,173,173033,2,0,L|457:113,1,59.9999981689454,2|2,0:1|0:1,0:0:0:0:
505,46,173318,1,8,1:2:0:0:
484,35,173460,1,8,0:3:0:0:
458,29,173604,2,0,P|429:32|403:47,1,59.9999981689454,8|8,0:3|0:3,0:0:0:0:
346,109,173890,38,0,B|311:84|316:34|316:34|295:88|248:89,1,179.999994506836,0|0,3:0|0:0,0:0:0:0:
168,73,174461,1,0,1:0:0:0:
35,130,174747,1,0,0:0:0:0:
35,130,174890,1,0,0:0:0:0:
35,130,175033,2,0,L|46:11,1,119.999996337891,2|2,3:2|0:2,0:0:0:0:
168,73,175604,2,0,L|179:192,1,119.999996337891,2|2,1:2|0:2,0:0:0:0:
271,304,176176,6,0,P|218:371|134:355,1,179.999994506836,2|0,3:2|0:0,0:0:0:0:
133,275,176747,2,0,P|162:279|189:292,1,59.9999981689454,0|2,1:2|0:1,0:0:0:0:
271,304,177033,2,0,P|300:299|327:286,1,59.9999981689454,8|4,0:1|0:1,0:0:0:0:
346,210,177318,1,0,3:0:0:0:
476,282,177604,1,2,0:1:0:0:
476,282,177747,1,2,0:1:0:0:
476,282,177890,2,0,P|457:226|457:166,1,119.999996337891,8|0,1:2|0:0,0:0:0:0:
358,77,178461,38,0,P|422:134|500:100,1,179.999994506836,0|0,3:0|0:0,0:0:0:0:
434,55,179033,2,0,L|315:66,1,119.999996337891,0|0,1:0|0:0,0:0:0:0:
260,124,179461,1,0,0:0:0:0:
260,124,179604,2,0,L|200:118,1,59.9999981689454,2|0,3:2|0:0,0:0:0:0:
163,49,179890,1,2,0:2:0:0:
163,49,180033,1,0,3:0:0:0:
163,49,180176,2,0,P|105:52|60:91,1,119.999996337891,2|2,1:2|3:2,0:0:0:0:
186,204,180747,5,6,3:2:0:0:
70,176,181033,2,0,P|79:205|81:235,1,59.9999981689454,2|2,0:1|0:1,0:0:0:0:
32,300,181318,1,8,1:1:0:0:
32,300,181461,2,0,P|91:295|146:317,1,119.999996337891,4|0,0:1|0:0,0:0:0:0:
219,280,181890,2,0,P|248:279|277:270,3,59.9999981689454,0|0|2|2,3:0|0:0|0:1|0:1,0:0:0:0:
306,193,182461,1,8,1:2:0:0:
329,186,182603,1,8,0:3:0:0:
354,187,182747,2,0,P|382:193|404:213,1,59.9999981689454,8|8,0:3|0:3,0:0:0:0:
437,284,183033,38,0,B|400:185|486:215|438:110,1,179.999994506836,2|0,3:2|0:0,0:0:0:0:
472,38,183604,2,0,P|427:75|368:70,1,119.999996337891,0|0,1:0|0:0,0:0:0:0:
303,23,184033,2,0,B|236:21|217:73|217:73|161:25|95:68,1,239.999992675781,2|0,0:2|0:0,0:0:0:0:
154,127,184747,1,0,1:0:0:0:
25,112,185033,2,0,P|45:134|73:147,1,59.9999981689454,2|0,0:2|0:0,0:0:0:0:
77,230,185318,6,0,B|111:278|102:354|102:354|142:320,1,179.999994506836,2|2,3:2|0:2,0:0:0:0:
195,263,185890,1,2,1:2:0:0:
311,347,186176,1,8,0:1:0:0:
311,347,186318,2,0,L|370:341,1,59.9999981689454,2|0,0:2|3:0,0:0:0:0:
275,233,186747,1,2,0:1:0:0:
275,233,186890,1,2,0:1:0:0:
275,233,187033,2,0,L|334:238,1,59.9999981689454,10|0,1:2|0:0,0:0:0:0:
405,273,187318,1,2,0:0:0:0:
481,172,187604,38,0,B|488:108|488:108|372:123,1,179.999994506836,2|2,3:2|0:0,0:0:0:0:
300,150,188176,2,0,P|300:91|341:50,1,119.999996337891,2|2,1:2|0:2,0:0:0:0:
419,40,188604,2,0,L|176:18,1,239.999992675781,2|0,0:2|3:0,0:0:0:0:
101,0,189318,2,0,P|98:29|108:57,1,59.9999981689454,0|2,1:2|0:0,0:0:0:0:
179,96,189604,2,0,L|238:101,2,59.9999981689454,2|2|0,0:2|0:2|3:0,0:0:0:0:
184,233,190176,6,0,L|125:237,1,59.9999981689454,2|2,0:1|0:1,0:0:0:0:
54,271,190461,1,8,1:0:0:0:
54,271,190604,2,0,P|40:298|37:328,2,59.9999981689454,2|2|2,0:2|0:0|0:2,0:0:0:0:
122,317,191033,2,0,B|165:361|239:362|239:362|224:341|225:315,1,179.999994506836,2|2,3:2|0:1,0:0:0:0:
295,271,191604,1,8,1:2:0:0:
304,291,191747,1,10,0:3:0:0:
309,313,191890,2,0,P|336:324|371:324,1,59.9999981689454,10|8,0:3|0:3,0:0:0:0:
434,279,192176,38,0,B|462:252|462:252|448:172,1,119.999996337891,2|2,3:2|0:0,0:0:0:0:
509,16,192747,2,0,P|496:43|472:59,1,59.9999981689454,2|0,1:2|0:0,0:0:0:0:
393,71,193033,2,0,P|363:66|341:46,1,59.9999981689454,2|0,0:2|0:0,0:0:0:0:
273,4,193318,2,0,B|172:-2|212:77|114:69,1,179.999994506836,2|2,3:2|0:2,0:0:0:0:
185,117,193890,2,0,P|195:144|193:174,1,59.9999981689454,2|2,1:2|0:2,0:0:0:0:
117,157,194176,1,2,0:2:0:0:
117,157,194318,1,2,0:2:0:0:
117,157,194461,6,0,L|-2:146,1,119.999996337891,2|0,3:2|0:0,0:0:0:0:
119,240,195033,1,0,1:0:0:0:
123,244,195176,2,0,P|151:254|172:274,1,59.9999981689454,2|8,0:1|0:1,0:0:0:0:
242,240,195461,2,0,P|270:229|291:209,1,59.9999981689454,2|0,0:2|3:0,0:0:0:0:
370,180,195747,1,2,0:2:0:0:
370,180,195890,2,0,L|364:239,1,59.9999981689454,2|2,0:2|0:1,0:0:0:0:
358,319,196176,2,0,B|411:345|411:345|470:332,1,119.999996337891,10|0,1:2|0:0,0:0:0:0:
463,187,196747,37,2,3:2:0:0:
463,187,196890,1,2,0:0:0:0:
463,187,197033,1,2,0:2:0:0:
505,50,197318,2,0,P|451:73|391:72,1,119.999996337891,2|2,1:2|0:2,0:0:0:0:
343,132,197747,2,0,P|356:75|328:23,1,119.999996337891,2|2,0:2|0:2,0:0:0:0:
277,83,198176,2,0,L|217:88,2,59.9999981689454,2|2|2,0:2|3:2|1:2,0:0:0:0:
137,13,198747,1,2,3:2:0:0:
137,13,198889,1,2,0:2:0:0:
137,13,199032,5,6,3:2:0:0:
145,160,199318,1,2,0:2:0:0:
145,160,199461,2,0,P|174:159|199:174,1,59.9999981689454,2|0,0:2|1:0,0:0:0:0:
217,250,199747,2,0,L|97:261,1,119.999996337891,2|2,0:0|0:0,0:0:0:0:
19,269,200176,1,0,3:0:0:0:
151,362,200461,2,0,L|210:367,1,59.9999981689454,2|2,0:1|0:1,0:0:0:0:
292,374,200747,1,10,1:2:0:0:
287,351,200889,1,10,0:3:0:0:
289,325,201033,2,0,P|301:297|323:277,1,59.9999981689454,10|8,0:3|0:3,0:0:0:0:
401,264,201318,38,0,B|428:270|444:287|444:287|421:217|438:159,1,179.999994506836,2|0,3:2|0:0,0:0:0:0:
500,110,201890,1,0,1:0:0:0:
400,21,202176,1,2,0:2:0:0:
400,21,202318,1,2,0:2:0:0:
400,21,202461,2,0,L|459:15,2,59.9999981689454,0|2|2,3:0|0:2|0:2,0:0:0:0:
290,101,203033,2,0,B|238:71|176:76|176:76|166:106|138:122,1,179.999994506836,0|2,1:0|0:2,0:0:0:0:
100,52,203604,5,2,3:2:0:0:
100,52,203747,1,2,0:2:0:0:
100,52,203890,1,2,0:2:0:0:
221,159,204176,2,0,P|208:186|205:216,1,59.9999981689454,2|2,1:2|0:1,0:0:0:0:
127,206,204461,1,2,0:2:0:0:
127,206,204604,2,0,L|67:200,1,59.9999981689454,2|0,0:2|3:0,0:0:0:0:
0,273,204890,2,0,L|60:279,1,59.9999981689454,2|2,0:2|0:1,0:0:0:0:
101,348,205175,1,2,0:2:0:0:
101,348,205319,2,0,B|156:367|156:367|216:357,1,119.999996337891,10|4,1:2|0:1,0:0:0:0:
325,263,205890,38,0,B|381:268|381:268|425:294|425:294|497:303,1,179.999994506836,2|0,3:2|0:0,0:0:0:0:
478,224,206461,2,0,P|476:166|512:120,1,119.999996337891,2|0,1:2|0:0,0:0:0:0:
409,9,207033,1,2,3:2:0:0:
366,134,207318,1,2,0:2:0:0:
366,134,207461,1,2,3:2:0:0:
366,134,207604,1,2,1:2:0:0:
286,23,207890,1,2,0:0:0:0:
215,119,208176,5,2,3:2:0:0:
215,119,208318,2,0,L|211:60,1,59.9999981689454,0|2,0:0|0:2,0:0:0:0:
135,28,208604,1,2,0:1:0:0:
135,28,208747,2,0,P|124:55|103:76,1,59.9999981689454,2|4,1:2|0:1,0:0:0:0:
23,70,209033,1,2,0:2:0:0:
135,154,209318,1,2,3:2:0:0:
0,192,209604,2,0,L|59:197,1,59.9999981689454,2|0,0:1|0:1,0:0:0:0:
68,274,209890,1,10,1:2:0:0:
90,271,210032,1,8,0:3:0:0:
114,269,210176,2,0,L|173:263,1,59.9999981689454,8|10,0:3|0:3,0:0:0:0:
254,261,210461,38,0,B|247:320|247:320|271:377,1,119.999996337891,2|2,3:2|0:2,0:0:0:0:
412,349,211033,2,0,P|412:319|426:293,1,59.9999981689454,2|0,1:2|0:0,0:0:0:0:
380,232,211318,1,2,0:2:0:0:
512,290,211604,2,0,P|498:232|495:173,1,119.999996337891,2|2,3:2|0:2,0:0:0:0:
461,104,212033,1,2,0:2:0:0:
461,104,212176,2,0,L|401:98,1,59.9999981689454,0|0,1:0|0:0,0:0:0:0:
357,35,212461,1,2,0:2:0:0:
220,24,212747,5,2,3:2:0:0:
220,24,212889,1,2,0:2:0:0:
220,24,213032,1,2,0:2:0:0:
74,119,213318,2,0,L|68:60,1,59.9999981689454,2|2,1:2|0:1,0:0:0:0:
158,98,213604,2,0,L|152:157,1,59.9999981689454,2|0,0:2|0:0,0:0:0:0:
84,203,213890,1,2,3:2:0:0:
84,203,214033,1,2,0:2:0:0:
84,203,214176,2,0,P|71:231|68:261,1,59.9999981689454,2|2,0:2|0:2,0:0:0:0:
108,331,214461,1,10,1:2:0:0:
271,361,214747,1,2,0:2:0:0:
188,262,215033,38,0,B|236:239|236:239|360:260,1,179.999994506836,2|2,3:2|0:2,0:0:0:0:
413,321,215604,2,0,B|401:262|401:262|420:205,1,119.999996337891,2|0,1:2|0:0,0:0:0:0:
497,219,216033,2,0,P|497:190|486:162,1,59.9999981689454,2|0,0:2|3:0,0:0:0:0:
512,87,216318,2,0,P|463:53|405:61,1,119.999996337891,2|2,0:2|3:0,0:0:0:0:
333,26,216747,2,0,P|299:73|305:132,1,119.999996337891,2|0,1:2|0:0,0:0:0:0:
189,36,217318,5,4,3:2:0:0:
230,172,217604,2,0,P|203:160|176:149,1,59.9999981689454,2|2,0:1|0:1,0:0:0:0:
120,92,217890,2,0,P|143:175|91:245,1,179.999994506836,8|2,1:1|0:2,0:0:0:0:
15,223,218461,1,2,3:2:0:0:
63,337,218747,2,0,P|92:326|122:326,1,59.9999981689454,2|2,0:1|0:1,0:0:0:0:
194,361,219034,1,10,1:2:0:0:
218,364,219176,1,8,0:3:0:0:
242,362,219318,2,0,P|267:347|287:324,1,59.9999981689454,10|8,0:3|0:3,0:0:0:0:
214,284,219604,38,0,B|236:355|311:429|451:378|479:280|463:193|399:141|343:138|343:138|410:130|429:79,1,599.999981689454,2|0,3:2|0:0,0:0:0:0:
275,21,221318,2,0,P|285:50|283:80,1,59.9999981689454,2|0,1:2|0:0,0:0:0:0:
206,62,221604,2,0,P|192:88|170:108,1,59.9999981689454,0|0,0:0|0:0,0:0:0:0:
125,42,221890,6,0,B|73:82|100:160|100:160|82:218|37:228|-29:204|-23:118|56:87|102:160|102:160|187:246|100:338,1,599.999981689454,2|2,3:2|0:1,0:0:0:0:
241,361,223604,2,0,L|300:355,1,59.9999981689454,10|0,1:2|0:0,0:0:0:0:
346,316,223890,2,0,L|405:321,1,59.9999981689454,0|0,0:0|0:0,0:0:0:0:
461,326,224176,38,0,B|476:280|446:239|446:239|511:138|417:152|474:22|474:22|367:77|367:77|258:53,1,550.000016784668,2|0,3:2|0:0,0:0:0:0:
179,14,225890,2,0,P|152:23|127:34,1,55.0000016784668,2|0,1:2|0:0,0:0:0:0:
102,71,226176,2,0,P|128:79|153:90,1,55.0000016784668,0|0,0:0|0:0,0:0:0:0:
183,122,226461,6,0,B|169:224|251:227|259:317|259:317|238:392|188:396|132:352|149:296|202:265|258:311|258:311|280:338|323:346,1,550.000016784668,2|2,3:2|0:1,0:0:0:0:
416,341,228176,2,0,P|466:319|486:269,1,110.000003356934,10|0,1:2|0:0,0:0:0:0:
457,179,228747,37,2,3:2:0:0:
256,192,228890,12,0,235604,0:0:0:0:
