osu file format v14

[General]
AudioFilename: audio.mp3
AudioLeadIn: 0
PreviewTime: 16005
Countdown: 1
SampleSet: None
StackLeniency: 0.7
Mode: 0
LetterboxInBreaks: 0
WidescreenStoryboard: 0

[Editor]
DistanceSpacing: 0.8
BeatDivisor: 4
GridSize: 4
TimelineZoom: 1

[Metadata]
Title:Midnight City
TitleUnicode:Midnight City
Artist:M83
ArtistUnicode:M83
Creator:Mini Gaunt
Version:Dusk
Source:
Tags:
BeatmapID:1528337
BeatmapSetID:723896

[Difficulty]
HPDrainRate:6
CircleSize:4
OverallDifficulty:9
ApproachRate:9.5
SliderMultiplier:2
SliderTickRate:1

[Events]
//Background and Video events
//Break Periods
//Storyboard Layer 0 (Background)
//Storyboard Layer 1 (Fail)
//Storyboard Layer 2 (Pass)
//Storyboard Layer 3 (Foreground)
//Storyboard Sound Samples

[TimingPoints]
720,571.428571428571,4,1,0,30,1,0
18434,-133.333333333333,4,1,0,30,0,1
19434,-66.6666666666667,4,1,0,30,0,1
19577,-133.333333333333,4,1,0,30,0,1
21862,-66.6666666666667,4,1,0,30,0,1
22005,-133.333333333333,4,1,0,30,0,1
26291,-66.6666666666667,4,1,0,30,0,1
26434,-133.333333333333,4,1,0,30,0,1
36719,-200,4,1,0,30,0,0
52719,-133.333333333333,4,1,0,30,0,1
73291,-200,4,1,0,30,0,0

[HitObjects]
133,135,720,6,0,L|253:159,1,100
371,135,1148,2,0,L|251:159,1,100
223,225,1577,1,0,0:0:0:0:
475,70,1862,2,0,L|355:94,1,100
97,58,2434,1,0,0:0:0:0:
108,341,3005,6,0,L|132:221,1,100
191,228,3433,2,0,L|167:108,1,100
111,109,3862,1,0,0:0:0:0:
108,341,4147,2,0,L|132:221,1,100
97,143,4719,1,0,0:0:0:0:
410,330,5291,6,0,L|434:210,1,100
306,120,5719,2,0,L|330:240,1,100
248,269,6148,1,0,0:0:0:0:
479,352,6433,2,0,L|359:328,1,100
98,224,7005,1,0,0:0:0:0:
366,40,7577,6,0,L|342:160,1,100
283,153,8005,2,0,L|307:273,1,100
356,249,8434,1,0,0:0:0:0:
358,90,8719,2,0,L|374:1,4,50
313,152,9719,5,0,0:0:0:0:
379,135,9862,2,0,L|259:159,1,100
141,135,10290,2,0,L|224:157,1,50
237,187,10577,1,0,0:0:0:0:
289,225,10719,1,0,0:0:0:0:
37,70,11004,2,0,L|157:94,1,100
415,58,11576,1,0,0:0:0:0:
409,339,12005,5,0,0:0:0:0:
405,323,12147,2,0,L|381:203,1,100
321,228,12575,2,0,L|345:108,1,100
401,109,13004,1,0,0:0:0:0:
404,341,13289,2,0,L|380:221,1,100
415,143,13861,1,0,0:0:0:0:
160,249,14291,5,0,0:0:0:0:
102,330,14433,2,0,L|78:210,1,100
206,120,14861,2,0,L|182:240,1,100
264,269,15290,1,0,0:0:0:0:
33,352,15575,2,0,L|153:328,1,100
456,232,16147,5,0,0:0:0:0:
363,170,16291,1,0,0:0:0:0:
343,280,16434,1,0,0:0:0:0:
343,280,16577,1,0,0:0:0:0:
161,225,16719,5,0,0:0:0:0:
129,278,16862,1,0,0:0:0:0:
194,281,17005,1,0,0:0:0:0:
109,95,17148,5,0,0:0:0:0:
124,161,17291,1,2,0:0:0:0:
58,176,17434,1,0,0:0:0:0:
43,110,17577,1,0,0:0:0:0:
448,42,17862,5,0,0:0:0:0:
304,233,18005,1,0,0:0:0:0:
279,71,18148,5,0,0:0:0:0:
470,215,18291,1,0,0:0:0:0:
199,154,18434,6,0,P|161:152|110:164,1,75.0000028610231
461,293,19005,1,0,0:0:0:0:
190,32,19291,5,0,0:0:0:0:
170,228,19434,2,0,L|235:288,1,75.0000028610231
427,52,19862,5,0,0:0:0:0:
461,293,20148,1,0,0:0:0:0:
380,309,20434,1,0,0:0:0:0:
409,229,20719,2,0,P|395:194|368:165,1,75.0000028610231
464,318,21291,5,0,0:0:0:0:
341,208,21434,1,0,0:0:0:0:
436,76,21577,1,0,0:0:0:0:
136,76,21720,1,0,0:0:0:0:
292,126,21862,2,0,L|350:187,1,75.0000028610231
464,318,22148,5,0,0:0:0:0:
388,238,22291,1,0,0:0:0:0:
264,42,22434,1,0,0:0:0:0:
128,177,22577,1,0,0:0:0:0:
336,290,22720,1,0,0:0:0:0:
164,292,23005,6,0,P|199:278|228:251,1,75.0000028610231
51,91,23576,1,0,0:0:0:0:
322,352,23862,5,0,0:0:0:0:
342,156,24005,1,0,0:0:0:0:
244,348,24147,1,0,0:0:0:0:
205,64,24433,5,0,0:0:0:0:
58,54,24719,1,0,0:0:0:0:
64,336,25005,1,0,0:0:0:0:
31,124,25291,6,0,P|37:159|77:196,1,75.0000028610231
193,249,25720,1,0,0:0:0:0:
51,326,25862,1,0,0:0:0:0:
113,183,26005,1,0,0:0:0:0:
156,328,26148,1,0,0:0:0:0:
25,235,26291,2,0,L|104:160,1,75.0000028610231
171,116,26719,5,0,0:0:0:0:
367,262,26862,1,0,0:0:0:0:
180,197,27005,1,0,0:0:0:0:
459,187,27148,1,0,0:0:0:0:
160,67,27291,1,0,0:0:0:0:
373,338,27576,6,0,P|408:324|437:297,1,75.0000028610231
48,66,28148,5,0,0:0:0:0:
171,176,28291,1,0,0:0:0:0:
76,308,28434,1,0,0:0:0:0:
376,308,28577,1,0,0:0:0:0:
220,258,28719,2,0,L|156:190,1,75.0000028610231
294,110,29148,5,0,0:0:0:0:
248,342,29291,1,0,0:0:0:0:
461,266,29434,1,0,0:0:0:0:
140,174,29577,1,0,0:0:0:0:
333,222,29862,6,0,P|319:187|292:158,1,75.0000028610231
132,335,30433,1,0,0:0:0:0:
373,215,30719,5,0,0:0:0:0:
270,38,30862,1,0,0:0:0:0:
178,207,31004,1,0,0:0:0:0:
45,66,31290,5,0,0:0:0:0:
75,330,31576,1,0,0:0:0:0:
297,144,31862,1,0,0:0:0:0:
121,188,32148,6,0,P|135:223|162:252,1,75.0000028610231
363,56,32719,1,0,0:0:0:0:
178,179,33005,5,0,0:0:0:0:
298,347,33148,1,0,0:0:0:0:
55,316,33290,1,0,0:0:0:0:
442,299,33576,5,0,0:0:0:0:
415,40,33862,1,0,0:0:0:0:
104,115,34148,1,0,0:0:0:0:
285,294,34434,6,0,P|320:288|357:248,1,75.0000028610231
252,157,34863,1,0,0:0:0:0:
448,94,35005,1,0,0:0:0:0:
386,237,35148,1,0,0:0:0:0:
343,92,35291,1,0,0:0:0:0:
474,185,35434,2,0,L|395:260,1,75.0000028610231
328,304,35862,5,0,0:0:0:0:
132,158,36005,1,0,0:0:0:0:
319,223,36148,1,0,0:0:0:0:
39,233,36291,1,0,0:0:0:0:
339,353,36434,1,0,0:0:0:0:
248,120,36577,1,0,0:0:0:0:
116,314,36719,6,0,P|84:333|35:338,1,75
41,340,37291,1,0,0:0:0:0:
99,240,37577,1,0,0:0:0:0:
196,333,37862,2,0,P|221:327|249:326,2,50
178,217,38719,1,0,0:0:0:0:
210,105,39005,6,0,P|241:129|268:167,1,75
269,167,39577,1,0,0:0:0:0:
332,238,39862,1,0,0:0:0:0:
380,156,40148,1,0,0:0:0:0:
269,346,40719,1,0,0:0:0:0:
194,160,41291,1,0,0:0:0:0:
48,304,41719,5,0,0:0:0:0:
80,310,41862,1,0,0:0:0:0:
194,337,42148,1,0,0:0:0:0:
148,235,42434,2,0,P|172:220|204:209,1,50
224,201,42862,1,0,0:0:0:0:
254,191,43005,1,0,0:0:0:0:
422,159,43291,1,0,0:0:0:0:
249,299,43577,6,0,P|216:273|187:244,1,75
186,244,44149,1,0,0:0:0:0:
127,129,44434,1,0,0:0:0:0:
91,154,44577,1,0,0:0:0:0:
69,196,44719,2,0,P|61:221|66:252,1,50
205,291,45291,5,0,0:0:0:0:
239,225,45434,1,0,0:0:0:0:
312,239,45577,1,0,0:0:0:0:
317,312,45719,1,0,0:0:0:0:
254,346,45862,6,0,P|222:365|173:370,1,75
77,294,46434,1,0,0:0:0:0:
159,213,46720,1,0,0:0:0:0:
70,136,47005,2,0,P|119:124|181:136,1,100
85,221,47862,1,0,0:0:0:0:
194,86,48148,6,0,P|225:110|252:148,1,75
253,148,48720,1,0,0:0:0:0:
316,219,49005,1,0,0:0:0:0:
303,120,49291,1,0,0:0:0:0:
449,311,49862,1,0,0:0:0:0:
393,83,50434,1,0,0:0:0:0:
112,239,50862,5,0,0:0:0:0:
144,245,51005,1,0,0:0:0:0:
258,272,51291,1,0,0:0:0:0:
212,170,51577,2,0,P|236:155|268:144,1,50
288,136,52005,1,0,0:0:0:0:
318,126,52148,1,0,0:0:0:0:
459,66,52434,1,0,0:0:0:0:
56,152,52719,5,0,0:0:0:0:
149,214,52863,1,0,0:0:0:0:
169,104,53006,1,0,0:0:0:0:
169,104,53149,1,0,0:0:0:0:
351,159,53291,5,0,0:0:0:0:
383,106,53434,1,0,0:0:0:0:
318,103,53577,1,0,0:0:0:0:
403,289,53720,5,0,0:0:0:0:
388,223,53863,1,2,0:0:0:0:
454,208,54006,1,0,0:0:0:0:
469,274,54149,1,0,0:0:0:0:
64,342,54434,5,0,0:0:0:0:
208,151,54577,1,0,0:0:0:0:
233,313,54720,5,0,0:0:0:0:
42,169,54863,1,0,0:0:0:0:
312,230,55006,6,0,P|348:222|401:220,1,75.0000028610231
51,91,55577,1,0,0:0:0:0:
322,352,55863,5,0,0:0:0:0:
342,156,56006,2,0,L|277:96,1,75.0000028610231
276,94,56434,5,0,0:0:0:0:
206,61,56720,1,0,0:0:0:0:
132,75,57006,1,0,0:0:0:0:
76,118,57291,2,0,P|61:150|62:205,1,75.0000028610231
58,35,57863,5,0,0:0:0:0:
214,167,58006,1,0,0:0:0:0:
65,298,58149,1,0,0:0:0:0:
322,260,58292,1,0,0:0:0:0:
160,251,58434,2,0,L|102:190,1,75.0000028610231
287,91,58863,5,0,0:0:0:0:
146,290,59006,1,0,0:0:0:0:
281,333,59149,1,0,0:0:0:0:
201,70,59292,1,0,0:0:0:0:
348,92,59577,6,0,P|313:106|284:133,1,75.0000028610231
461,293,60148,1,0,0:0:0:0:
190,32,60434,5,0,0:0:0:0:
231,237,60577,1,0,0:0:0:0:
45,328,60719,1,0,0:0:0:0:
299,335,61005,5,0,0:0:0:0:
427,331,61291,1,0,0:0:0:0:
355,230,61577,1,0,0:0:0:0:
481,260,61863,6,0,P|475:225|435:188,1,75.0000028610231
319,135,62292,1,0,0:0:0:0:
461,58,62434,1,0,0:0:0:0:
399,201,62577,1,0,0:0:0:0:
356,56,62720,1,0,0:0:0:0:
491,146,62863,2,0,L|412:221,1,75.0000028610231
332,265,63291,5,0,0:0:0:0:
197,77,63434,1,0,0:0:0:0:
160,301,63577,1,0,0:0:0:0:
318,31,63720,1,0,0:0:0:0:
476,192,63863,1,0,0:0:0:0:
139,46,64148,6,0,P|104:60|75:87,1,75.0000028610231
168,123,64720,5,0,0:0:0:0:
375,335,64863,1,0,0:0:0:0:
347,102,65006,1,0,0:0:0:0:
205,317,65149,1,0,0:0:0:0:
244,98,65291,2,0,L|302:159,1,75.0000028610231
100,126,65720,5,0,0:0:0:0:
403,145,65863,1,0,0:0:0:0:
147,262,66006,1,0,0:0:0:0:
372,318,66149,1,0,0:0:0:0:
179,162,66434,6,0,P|193:197|220:226,1,75.0000028610231
380,49,67005,1,0,0:0:0:0:
139,169,67291,5,0,0:0:0:0:
242,346,67434,1,0,0:0:0:0:
197,81,67576,1,0,0:0:0:0:
467,318,67862,5,0,0:0:0:0:
437,54,68148,1,0,0:0:0:0:
215,240,68434,1,0,0:0:0:0:
391,196,68720,6,0,P|377:161|350:132,1,75.0000028610231
149,328,69291,1,0,0:0:0:0:
334,205,69577,5,0,0:0:0:0:
214,37,69720,1,0,0:0:0:0:
457,68,69862,1,0,0:0:0:0:
206,174,70148,5,0,0:0:0:0:
97,344,70434,1,0,0:0:0:0:
34,165,70720,1,0,0:0:0:0:
107,114,71006,6,0,P|113:149|153:186,1,75.0000028610231
244,81,71435,1,0,0:0:0:0:
307,277,71577,1,0,0:0:0:0:
164,215,71720,1,0,0:0:0:0:
309,172,71863,1,0,0:0:0:0:
474,185,72006,2,0,L|395:260,1,75.0000028610231
279,176,72434,5,0,0:0:0:0:
51,236,72577,1,0,0:0:0:0:
254,113,72720,1,0,0:0:0:0:
73,299,72863,1,0,0:0:0:0:
211,57,73006,1,0,0:0:0:0:
130,330,73149,1,0,0:0:0:0:
392,285,73291,6,0,P|424:304|473:309,1,75
467,311,73863,1,0,0:0:0:0:
409,211,74149,1,0,0:0:0:0:
312,304,74434,2,0,P|287:298|259:297,2,50
330,188,75291,1,0,0:0:0:0:
298,76,75577,6,0,P|267:100|240:138,1,75
239,138,76149,1,0,0:0:0:0:
176,209,76434,1,0,0:0:0:0:
128,127,76720,1,0,0:0:0:0:
239,317,77291,1,0,0:0:0:0:
314,131,77863,1,0,0:0:0:0:
460,275,78291,5,0,0:0:0:0:
428,281,78434,1,0,0:0:0:0:
314,308,78720,1,0,0:0:0:0:
360,206,79006,2,0,P|336:191|304:180,1,50
284,172,79434,1,0,0:0:0:0:
254,162,79577,1,0,0:0:0:0:
86,130,79863,1,0,0:0:0:0:
259,270,80149,6,0,P|292:244|321:215,1,75
322,215,80721,1,0,0:0:0:0:
381,100,81006,1,0,0:0:0:0:
417,125,81149,1,0,0:0:0:0:
439,167,81291,2,0,P|447:192|442:223,1,50
303,262,81863,5,0,0:0:0:0:
269,196,82006,1,0,0:0:0:0:
196,210,82149,1,0,0:0:0:0:
191,283,82291,1,0,0:0:0:0:
254,317,82434,6,0,P|286:336|335:341,1,75
431,265,83006,1,0,0:0:0:0:
349,184,83292,1,0,0:0:0:0:
438,107,83577,2,0,P|389:95|327:107,1,100
423,192,84434,1,0,0:0:0:0:
314,57,84720,6,0,P|283:81|256:119,1,75
255,119,85292,1,0,0:0:0:0:
192,190,85577,1,0,0:0:0:0:
205,91,85863,1,0,0:0:0:0:
59,282,86434,1,0,0:0:0:0:
115,54,87006,1,0,0:0:0:0:
396,210,87434,5,0,0:0:0:0:
364,216,87577,1,0,0:0:0:0:
250,243,87863,1,0,0:0:0:0:
