osu file format v14

[General]
AudioFilename: audio.mp3
AudioLeadIn: 0
PreviewTime: 31964
Countdown: 0
SampleSet: Soft
StackLeniency: 0.7
Mode: 3
LetterboxInBreaks: 0
SpecialStyle: 0
WidescreenStoryboard: 0

[Editor]
DistanceSpacing: 0.5
BeatDivisor: 4
GridSize: 32
TimelineZoom: 1.5

[Metadata]
Title:MarbleVirus
TitleUnicode:MarbleVirus
Artist:M4SONIC & Shawn Wasabi
ArtistUnicode:M4SONIC & Shawn Wasabi
Creator:MapleSyrup-
Version:Advanced
Source:
Tags:Marble Soda Virus
BeatmapID:1201543
BeatmapSetID:567260

[Difficulty]
HPDrainRate:7.5
CircleSize:7
OverallDifficulty:7.5
ApproachRate:5
SliderMultiplier:1.4
SliderTickRate:1

[Events]
//Background and Video events
0,0,"bg2.jpeg",0,0
//Break Periods
//Storyboard Layer 0 (Background)
//Storyboard Layer 1 (Fail)
//Storyboard Layer 2 (Pass)
//Storyboard Layer 3 (Foreground)
//Storyboard Sound Samples

[TimingPoints]
982,357.142857142857,4,2,1,50,1,0
9553,-100,4,2,1,50,0,1
20981,-100,4,2,1,50,0,0
32410,-100,4,2,1,50,0,1
43839,-100,4,2,1,50,0,0

[HitObjects]
402,192,982,5,0,0:0:0:50:
109,192,1160,1,0,0:0:0:50:
182,192,1339,1,0,0:0:0:50:
329,192,1517,1,0,0:0:0:50:
402,192,1696,1,0,0:0:0:50:
109,192,1874,1,0,0:0:0:50:
182,192,2053,1,0,0:0:0:50:
329,192,2231,1,0,0:0:0:50:
402,192,2410,1,0,0:0:0:50:
109,192,2589,1,0,0:0:0:50:
182,192,2767,1,0,0:0:0:50:
329,192,2946,1,0,0:0:0:50:
402,192,3124,1,0,0:0:0:50:
109,192,3303,1,0,0:0:0:50:
402,192,3481,1,0,0:0:0:50:
256,192,3660,1,0,0:0:0:50:
475,192,3839,128,0,4017:0:0:0:50:
329,192,4017,1,0,0:0:0:50:
475,192,4196,128,0,4374:0:0:0:50:
256,192,4374,1,0,0:0:0:50:
402,192,4553,128,8,4731:0:0:0:50:
36,192,4553,1,0,0:0:0:50:
182,192,4731,1,0,0:0:0:50:
475,192,4910,128,0,5089:0:0:0:50:
329,192,5089,1,0,0:0:0:50:
475,192,5267,128,0,5446:0:0:0:50:
182,192,5446,1,0,0:0:0:50:
256,192,5535,1,0,0:0:0:50:
329,192,5624,128,8,5803:0:0:0:50:
109,192,5624,1,0,0:0:0:0:
36,192,5803,128,0,5981:0:0:0:50:
182,192,5981,128,0,6160:0:0:0:50:
402,192,5981,1,0,0:0:0:50:
475,192,6160,1,0,0:0:0:50:
329,192,6339,128,0,6517:0:0:0:50:
109,192,6339,1,0,0:0:0:50:
36,192,6696,128,0,6874:0:0:0:50:
182,192,6874,1,0,0:0:0:50:
36,192,7053,128,0,7231:0:0:0:50:
256,192,7231,1,0,0:0:0:50:
109,192,7410,128,8,7589:0:0:0:50:
475,192,7410,1,0,0:0:0:50:
329,192,7589,1,0,0:0:0:50:
36,192,7767,128,0,7946:0:0:0:50:
182,192,7946,1,0,0:0:0:50:
36,192,8124,128,0,8303:0:0:0:50:
329,192,8303,1,0,0:0:0:50:
256,192,8392,1,0,0:0:0:50:
182,192,8481,128,8,8660:0:0:0:50:
402,192,8481,1,0,0:0:0:0:
475,192,8660,128,0,8839:0:0:0:50:
329,192,8839,128,0,9017:0:0:0:50:
109,192,8839,1,0,0:0:0:50:
36,192,9017,1,0,0:0:0:50:
182,192,9196,128,0,9374:0:0:0:50:
402,192,9196,1,0,0:0:0:50:
402,192,9553,128,2,9731:0:0:0:30:
36,192,9553,1,2,0:0:0:30:
256,192,9731,1,0,0:0:0:50:
475,192,9910,128,2,10089:0:0:0:30:
109,192,9910,1,2,0:0:0:30:
329,192,10089,1,0,0:0:0:50:
36,192,10267,128,8,10446:0:0:0:100:
402,192,10267,1,0,0:0:0:50:
475,192,10267,1,0,0:0:0:50:
182,192,10446,1,0,0:0:0:50:
329,192,10624,128,0,10803:0:0:0:50:
475,192,10803,1,2,0:0:0:30:
109,192,10803,1,2,0:0:0:30:
256,192,10981,128,0,11160:0:0:0:50:
329,192,11160,1,0,0:0:0:50:
402,192,11249,1,0,0:0:0:50:
475,192,11339,128,2,11517:0:0:0:30:
109,192,11339,1,2,0:0:0:30:
329,192,11517,128,0,11696:0:0:0:50:
36,192,11696,128,8,11874:0:0:0:50:
402,192,11696,1,8,0:0:0:50:
475,192,11696,1,0,0:0:0:50:
182,192,11874,1,0,0:0:0:50:
329,192,12053,128,0,12231:0:0:0:50:
109,192,12053,1,0,0:0:0:50:
36,192,12410,128,2,12589:0:0:0:30:
402,192,12410,1,2,0:0:0:30:
182,192,12589,1,0,0:0:0:50:
475,192,12767,128,2,12946:0:0:0:30:
109,192,12767,1,2,0:0:0:30:
329,192,12946,1,0,0:0:0:50:
182,192,13124,128,8,13303:0:0:0:100:
402,192,13124,1,0,0:0:0:50:
256,192,13124,1,0,0:0:0:50:
36,192,13303,1,0,0:0:0:50:
329,192,13481,128,0,13660:0:0:0:50:
256,192,13660,1,2,0:0:0:30:
475,192,13660,1,2,0:0:0:30:
36,192,13839,128,0,14017:0:0:0:50:
182,192,14017,1,0,0:0:0:50:
256,192,14106,1,0,0:0:0:50:
329,192,14196,128,2,14374:0:0:0:30:
475,192,14196,1,2,0:0:0:30:
109,192,14374,128,0,14553:0:0:0:50:
475,192,14553,128,8,14731:0:0:0:50:
402,192,14553,1,8,0:0:0:50:
182,192,14553,1,0,0:0:0:50:
329,192,14731,1,0,0:0:0:50:
256,192,14821,1,0,0:0:0:50:
182,192,14910,1,0,0:0:0:50:
36,192,14910,128,0,15089:0:0:0:50:
329,192,15089,1,0,0:0:0:50:
475,192,15267,1,2,0:0:0:30:
109,192,15267,128,2,15446:0:0:0:30:
256,192,15446,1,0,0:0:0:50:
402,192,15624,1,2,0:0:0:30:
36,192,15624,128,2,15803:0:0:0:30:
182,192,15803,1,0,0:0:0:50:
109,192,15981,1,8,0:0:0:100:
475,192,15981,128,0,16160:0:0:0:50:
256,192,15981,1,0,0:0:0:50:
329,192,16160,1,0,0:0:0:50:
182,192,16339,128,0,16517:0:0:0:50:
402,192,16517,1,2,0:0:0:30:
36,192,16517,1,2,0:0:0:30:
256,192,16696,128,0,16874:0:0:0:50:
182,192,16874,1,0,0:0:0:50:
109,192,16964,1,0,0:0:0:50:
402,192,17053,1,2,0:0:0:30:
36,192,17053,128,2,17231:0:0:0:30:
329,192,17231,128,0,17410:0:0:0:50:
109,192,17410,1,8,0:0:0:50:
36,192,17410,1,8,0:0:0:50:
475,192,17410,128,0,17589:0:0:0:50:
256,192,17589,1,0,0:0:0:50:
402,192,17767,1,0,0:0:0:50:
182,192,17767,128,0,17946:0:0:0:50:
109,192,18124,1,2,0:0:0:30:
475,192,18124,128,2,18303:0:0:0:30:
329,192,18303,1,0,0:0:0:50:
402,192,18481,1,2,0:0:0:30:
36,192,18481,128,2,18660:0:0:0:30:
182,192,18660,1,0,0:0:0:50:
109,192,18839,1,8,0:0:0:100:
475,192,18839,128,0,19017:0:0:0:50:
256,192,18839,1,0,0:0:0:50:
329,192,19017,1,0,0:0:0:50:
182,192,19196,128,0,19374:0:0:0:50:
402,192,19374,1,2,0:0:0:30:
256,192,19374,1,2,0:0:0:30:
475,192,19553,128,0,19731:0:0:0:50:
329,192,19731,1,0,0:0:0:50:
256,192,19821,1,0,0:0:0:50:
182,192,19910,128,2,20089:0:0:0:30:
36,192,19910,1,2,0:0:0:30:
402,192,20089,128,0,20267:0:0:0:50:
329,192,20267,1,8,0:0:0:50:
109,192,20267,1,8,0:0:0:50:
36,192,20267,128,0,20446:0:0:0:50:
182,192,20446,1,0,0:0:0:50:
475,192,20624,128,0,20803:0:0:0:50:
329,192,20624,1,0,0:0:0:50:
109,192,20981,1,8,0:0:0:50:
109,192,21160,1,8,0:0:0:50:
402,192,21339,1,0,0:0:0:50:
256,192,21696,1,0,0:0:0:50:
402,192,21696,1,0,0:0:0:50:
475,192,22053,1,2,1:0:0:50:
36,192,22231,1,0,0:0:0:50:
109,192,22321,1,0,0:0:0:50:
182,192,22410,1,0,0:0:0:50:
475,192,22589,1,2,1:0:0:50:
36,192,22767,1,2,1:0:0:50:
329,192,22767,1,0,0:0:0:50:
256,192,23124,1,0,0:0:0:50:
36,192,23303,1,2,1:0:0:50:
475,192,23303,1,0,0:0:0:50:
109,192,23392,1,0,0:0:0:50:
182,192,23481,1,0,0:0:0:50:
475,192,23660,1,2,1:0:0:50:
36,192,23660,1,0,0:0:0:50:
329,192,23839,1,2,1:0:0:50:
182,192,23839,1,0,0:0:0:50:
36,192,24017,1,0,0:0:0:50:
182,192,24196,1,0,0:0:0:50:
475,192,24374,1,2,1:0:0:50:
402,192,24553,1,0,0:0:0:50:
256,192,24553,1,2,1:0:0:50:
36,192,24910,1,2,1:0:0:50:
475,192,24910,1,0,0:0:0:50:
329,192,25267,1,8,1:0:0:100:
402,192,25446,1,8,1:0:0:100:
36,192,25446,1,2,1:0:0:50:
329,192,25624,1,8,1:0:0:100:
182,192,25624,1,2,1:0:0:50:
402,192,25803,1,8,1:0:0:100:
329,192,25981,1,8,1:0:0:100:
109,192,25981,1,0,0:0:0:50:
402,192,26160,1,8,1:0:0:100:
36,192,26160,1,2,1:0:0:50:
256,192,26339,1,0,0:0:0:50:
36,192,26517,1,2,1:0:0:50:
475,192,26696,1,2,1:0:0:50:
109,192,26696,1,0,0:0:0:50:
182,192,26874,1,0,0:0:0:50:
36,192,27053,1,0,0:0:0:50:
475,192,27231,1,2,1:0:0:50:
402,192,27410,1,0,0:0:0:50:
256,192,27410,1,0,0:0:0:50:
475,192,27767,1,2,1:0:0:50:
36,192,27946,1,0,0:0:0:50:
109,192,28035,1,0,0:0:0:50:
182,192,28124,1,0,0:0:0:50:
475,192,28303,1,2,1:0:0:50:
329,192,28481,1,2,1:0:0:50:
36,192,28481,1,0,0:0:0:50:
256,192,28839,1,0,0:0:0:50:
36,192,29017,1,2,1:0:0:50:
475,192,29017,1,0,0:0:0:50:
109,192,29106,1,0,0:0:0:50:
182,192,29196,1,0,0:0:0:50:
36,192,29374,1,2,1:0:0:50:
475,192,29374,1,0,0:0:0:50:
182,192,29553,1,2,1:0:0:50:
329,192,29553,1,0,0:0:0:50:
36,192,29731,1,0,0:0:0:50:
182,192,29910,1,0,0:0:0:50:
475,192,30089,1,2,1:0:0:50:
256,192,30267,1,0,0:0:0:50:
402,192,30267,1,0,0:0:0:50:
475,192,30624,1,2,1:0:0:50:
36,192,30624,1,0,0:0:0:50:
402,192,30981,1,0,0:0:0:50:
329,192,31160,1,2,1:0:0:50:
182,192,31160,1,0,0:0:0:50:
475,192,31339,128,2,31517:1:0:0:50:
109,192,31339,1,0,0:0:0:50:
256,192,31517,128,0,31696:0:0:0:50:
402,192,31696,128,0,31874:0:0:0:50:
182,192,31874,128,2,32053:1:0:0:50:
36,192,31874,1,0,0:0:0:50:
329,192,32053,128,0,32231:0:0:0:50:
36,192,32410,128,2,32589:0:0:0:30:
402,192,32410,1,2,0:0:0:30:
182,192,32589,1,0,0:0:0:50:
109,192,32767,128,2,32946:0:0:0:30:
475,192,32767,1,2,0:0:0:30:
256,192,32946,1,0,0:0:0:50:
475,192,33124,128,8,33303:0:0:0:100:
36,192,33124,1,0,0:0:0:50:
182,192,33124,1,0,0:0:0:50:
329,192,33303,1,0,0:0:0:50:
182,192,33481,128,0,33660:0:0:0:50:
109,192,33660,1,2,0:0:0:30:
402,192,33660,1,2,0:0:0:30:
256,192,33839,128,0,34017:0:0:0:50:
329,192,34017,1,0,0:0:0:50:
402,192,34106,1,0,0:0:0:50:
36,192,34196,1,2,0:0:0:30:
475,192,34196,128,2,34374:0:0:0:30:
109,192,34374,128,0,34553:0:0:0:50:
475,192,34553,128,8,34731:0:0:0:50:
329,192,34553,1,8,0:0:0:50:
182,192,34553,1,0,0:0:0:50:
256,192,34731,1,0,0:0:0:50:
182,192,34910,128,0,35089:0:0:0:50:
36,192,34910,1,0,0:0:0:50:
402,192,35267,128,2,35446:0:0:0:30:
36,192,35267,1,2,0:0:0:30:
182,192,35446,1,0,0:0:0:50:
109,192,35624,128,2,35803:0:0:0:30:
475,192,35624,1,2,0:0:0:30:
329,192,35803,1,0,0:0:0:50:
475,192,35981,128,8,36160:0:0:0:100:
36,192,35981,1,0,0:0:0:50:
182,192,35981,1,0,0:0:0:50:
329,192,36160,1,0,0:0:0:50:
256,192,36339,128,0,36517:0:0:0:50:
109,192,36517,1,2,0:0:0:30:
402,192,36517,1,2,0:0:0:30:
475,192,36696,128,0,36874:0:0:0:50:
329,192,36874,1,0,0:0:0:50:
256,192,36964,1,0,0:0:0:50:
182,192,37053,128,2,37231:0:0:0:30:
36,192,37053,1,2,0:0:0:30:
402,192,37231,128,0,37410:0:0:0:50:
36,192,37410,128,8,37589:0:0:0:50:
109,192,37410,1,8,0:0:0:50:
475,192,37410,1,0,0:0:0:50:
182,192,37589,1,0,0:0:0:50:
256,192,37678,1,0,0:0:0:50:
329,192,37767,1,0,0:0:0:50:
475,192,37767,128,0,37946:0:0:0:50:
182,192,37946,1,0,0:0:0:50:
36,192,38124,128,2,38303:0:0:0:30:
402,192,38124,1,2,0:0:0:30:
256,192,38303,1,0,0:0:0:50:
109,192,38481,128,2,38660:0:0:0:30:
475,192,38481,1,2,0:0:0:30:
329,192,38660,1,0,0:0:0:50:
36,192,38839,128,8,39017:0:0:0:100:
402,192,38839,1,0,0:0:0:50:
475,192,38839,1,0,0:0:0:50:
182,192,39017,1,0,0:0:0:50:
329,192,39196,128,0,39374:0:0:0:50:
475,192,39374,1,2,0:0:0:30:
109,192,39374,1,2,0:0:0:30:
256,192,39553,128,0,39731:0:0:0:50:
182,192,39731,1,0,0:0:0:50:
109,192,39821,1,0,0:0:0:50:
402,192,39910,1,2,0:0:0:30:
36,192,39910,128,2,40089:0:0:0:30:
329,192,40089,128,0,40267:0:0:0:50:
475,192,40267,1,8,0:0:0:50:
109,192,40267,1,8,0:0:0:50:
182,192,40267,128,0,40446:0:0:0:50:
256,192,40446,1,0,0:0:0:50:
402,192,40624,128,0,40803:0:0:0:50:
36,192,40624,1,0,0:0:0:50:
109,192,40981,128,2,41160:0:0:0:30:
329,192,40981,1,2,0:0:0:30:
182,192,41160,1,0,0:0:0:50:
402,192,41339,128,2,41517:0:0:0:30:
36,192,41339,1,2,0:0:0:30:
329,192,41517,1,0,0:0:0:50:
36,192,41696,128,8,41874:0:0:0:100:
475,192,41696,1,0,0:0:0:50:
256,192,41696,1,0,0:0:0:50:
182,192,41874,1,0,0:0:0:50:
329,192,42053,128,0,42231:0:0:0:50:
256,192,42231,1,2,0:0:0:30:
109,192,42231,1,2,0:0:0:30:
36,192,42410,128,0,42589:0:0:0:50:
182,192,42589,1,0,0:0:0:50:
256,192,42678,1,0,0:0:0:50:
329,192,42767,128,2,42946:0:0:0:30:
475,192,42767,1,2,0:0:0:30:
109,192,42946,128,0,43124:0:0:0:50:
475,192,43124,128,8,43303:0:0:0:50:
402,192,43124,1,8,0:0:0:50:
36,192,43124,1,0,0:0:0:50:
329,192,43303,1,0,0:0:0:50:
36,192,43481,128,2,43660:0:0:0:30:
256,192,43481,1,2,0:0:0:30:
109,192,43481,1,0,0:0:0:50:
329,192,43660,1,0,0:0:0:50:
402,192,43839,128,0,44196:0:0:0:50:
109,192,44374,1,0,0:0:0:50:
109,192,44553,1,0,0:0:0:50:
475,192,44910,1,8,0:0:0:50:
329,192,44999,1,0,0:0:0:50:
182,192,45089,1,2,0:0:0:50:
36,192,45089,1,2,0:0:0:50:
