osu file format v14

[General]
AudioFilename: audio.mp3
AudioLeadIn: 0
PreviewTime: 31964
Countdown: 0
SampleSet: Soft
StackLeniency: 0.7
Mode: 3
LetterboxInBreaks: 0
SpecialStyle: 0
WidescreenStoryboard: 0

[Editor]
DistanceSpacing: 0.5
BeatDivisor: 4
GridSize: 32
TimelineZoom: 1.7

[Metadata]
Title:MarbleVirus
TitleUnicode:MarbleVirus
Artist:M4SONIC & Shawn Wasabi
ArtistUnicode:M4SONIC & Shawn Wasabi
Creator:MapleSyrup-
Version:Normal
Source:
Tags:Marble Soda Virus
BeatmapID:1201541
BeatmapSetID:567260

[Difficulty]
HPDrainRate:7
CircleSize:7
OverallDifficulty:7
ApproachRate:5
SliderMultiplier:1.4
SliderTickRate:1

[Events]
//Background and Video events
0,0,"bg1.jpeg",0,0
//Break Periods
//Storyboard Layer 0 (Background)
//Storyboard Layer 1 (Fail)
//Storyboard Layer 2 (Pass)
//Storyboard Layer 3 (Foreground)
//Storyboard Sound Samples

[TimingPoints]
982,357.142857142857,4,2,1,50,1,0
9553,-100,4,2,1,50,0,1
20981,-100,4,2,1,50,0,0
32410,-100,4,2,1,50,0,1
43839,-100,4,2,1,50,0,0

[HitObjects]
329,192,982,5,0,0:0:0:50:
182,192,1517,1,0,0:0:0:50:
329,192,1696,1,0,0:0:0:50:
182,192,2231,1,0,0:0:0:50:
329,192,2410,1,0,0:0:0:50:
182,192,2946,1,0,0:0:0:50:
329,192,3124,1,0,0:0:0:50:
329,192,3481,1,0,0:0:0:50:
182,192,3660,1,0,0:0:0:50:
36,192,3839,1,0,0:0:0:50:
36,192,4196,1,0,0:0:0:50:
329,192,4553,128,8,4731:0:0:0:50:
475,192,4910,1,0,0:0:0:50:
475,192,5267,1,0,0:0:0:50:
109,192,5624,128,8,5803:0:0:0:50:
256,192,5803,1,0,0:0:0:50:
402,192,5981,1,0,0:0:0:50:
182,192,6160,1,0,0:0:0:50:
36,192,6339,128,0,6696:0:0:0:50:
475,192,6696,1,0,0:0:0:50:
475,192,7053,1,0,0:0:0:50:
329,192,7410,128,8,7589:0:0:0:50:
36,192,7767,1,0,0:0:0:50:
36,192,8124,1,0,0:0:0:50:
402,192,8481,128,8,8660:0:0:0:50:
256,192,8660,1,0,0:0:0:50:
109,192,8839,1,0,0:0:0:50:
329,192,9017,1,0,0:0:0:50:
475,192,9196,128,0,9553:0:0:0:50:
36,192,9553,1,2,0:0:0:30:
256,192,9553,1,2,0:0:0:30:
182,192,9731,1,0,0:0:0:50:
36,192,9910,1,2,0:0:0:60:
182,192,10089,1,0,0:0:0:50:
329,192,10267,1,8,0:0:0:100:
475,192,10267,1,0,0:0:0:50:
109,192,10624,1,0,0:0:0:50:
256,192,10803,1,2,0:0:0:30:
402,192,10803,1,2,0:0:0:30:
182,192,11160,1,0,0:0:0:50:
109,192,11339,1,2,0:0:0:60:
36,192,11517,1,0,0:0:0:50:
329,192,11696,1,8,0:0:0:50:
256,192,11696,1,8,0:0:0:50:
402,192,11874,1,0,0:0:0:50:
475,192,12053,128,0,12410:0:0:0:50:
256,192,12410,1,2,0:0:0:60:
109,192,12589,1,0,0:0:0:50:
256,192,12767,1,2,0:0:0:60:
109,192,12946,1,0,0:0:0:50:
329,192,13124,1,8,0:0:0:100:
475,192,13124,1,0,0:0:0:50:
36,192,13481,1,0,0:0:0:50:
109,192,13660,1,2,0:0:0:30:
256,192,13660,1,2,0:0:0:30:
329,192,14017,1,0,0:0:0:50:
402,192,14196,1,2,0:0:0:60:
475,192,14374,1,0,0:0:0:50:
256,192,14553,1,8,0:0:0:50:
182,192,14553,1,8,0:0:0:50:
109,192,14731,1,0,0:0:0:50:
36,192,14910,128,0,15267:0:0:0:50:
329,192,14910,1,0,0:0:0:50:
402,192,15089,1,0,0:0:0:50:
256,192,15267,1,2,0:0:0:60:
475,192,15446,1,0,0:0:0:50:
329,192,15624,1,2,0:0:0:60:
475,192,15803,1,0,0:0:0:50:
109,192,15981,1,8,0:0:0:100:
256,192,15981,1,0,0:0:0:50:
402,192,16339,1,0,0:0:0:50:
329,192,16517,1,2,0:0:0:30:
182,192,16517,1,2,0:0:0:30:
475,192,16874,1,0,0:0:0:50:
402,192,17053,1,2,0:0:0:60:
329,192,17231,1,0,0:0:0:50:
182,192,17410,1,8,0:0:0:50:
36,192,17410,1,8,0:0:0:50:
256,192,17589,1,0,0:0:0:50:
329,192,17767,128,0,18124:0:0:0:50:
109,192,18124,1,2,0:0:0:60:
256,192,18303,1,0,0:0:0:50:
109,192,18481,1,2,0:0:0:60:
256,192,18660,1,0,0:0:0:50:
329,192,18839,1,8,0:0:0:100:
475,192,18839,1,0,0:0:0:50:
256,192,19196,1,0,0:0:0:50:
182,192,19374,1,2,0:0:0:30:
36,192,19374,1,2,0:0:0:30:
109,192,19731,1,0,0:0:0:50:
182,192,19910,1,2,0:0:0:60:
256,192,20089,1,0,0:0:0:50:
475,192,20267,1,8,0:0:0:50:
329,192,20267,1,8,0:0:0:50:
256,192,20446,1,0,0:0:0:50:
182,192,20624,1,0,0:0:0:50:
36,192,20624,128,0,20981:0:0:0:50:
402,192,20981,1,8,0:0:0:50:
402,192,21160,1,8,0:0:0:50:
182,192,21339,1,0,0:0:0:50:
182,192,21696,1,0,0:0:0:50:
36,192,22053,1,2,1:0:0:50:
329,192,22231,128,0,22767:0:0:0:50:
36,192,22589,1,2,1:0:0:50:
182,192,22767,1,2,1:0:0:50:
475,192,22767,1,0,0:0:0:50:
329,192,23124,1,0,0:0:0:50:
36,192,23303,1,2,1:0:0:50:
402,192,23303,128,0,24553:0:0:0:50:
182,192,23660,1,2,1:0:0:50:
36,192,23839,1,2,1:0:0:50:
182,192,24374,1,2,1:0:0:50:
329,192,24553,1,2,1:0:0:50:
36,192,24910,1,2,1:0:0:50:
475,192,24910,1,0,0:0:0:50:
329,192,25267,1,8,1:0:0:100:
475,192,25446,1,8,1:0:0:100:
182,192,25446,1,2,0:0:0:50:
329,192,25624,1,8,1:0:0:100:
36,192,25624,1,2,0:0:0:50:
475,192,25803,1,8,1:0:0:100:
329,192,25981,1,8,1:0:0:100:
182,192,25981,1,0,0:0:0:50:
475,192,26160,1,8,1:0:0:100:
109,192,26160,1,2,0:0:0:50:
256,192,26339,1,0,0:0:0:50:
475,192,26517,1,2,1:0:0:50:
36,192,26696,1,2,1:0:0:50:
329,192,26696,1,0,0:0:0:50:
36,192,26874,1,0,0:0:0:50:
402,192,27053,1,0,0:0:0:50:
182,192,27231,1,2,1:0:0:50:
402,192,27410,1,0,0:0:0:50:
475,192,27767,1,2,1:0:0:50:
182,192,27946,128,0,28481:0:0:0:50:
475,192,28303,1,2,1:0:0:50:
329,192,28481,1,2,1:0:0:50:
36,192,28481,1,0,0:0:0:50:
256,192,28839,1,0,0:0:0:50:
475,192,29017,1,2,1:0:0:50:
109,192,29017,128,0,30267:0:0:0:50:
329,192,29374,1,2,1:0:0:50:
475,192,29553,1,2,1:0:0:50:
329,192,30089,1,2,1:0:0:50:
182,192,30267,1,0,0:0:0:50:
475,192,30624,1,2,1:0:0:50:
36,192,30624,1,0,0:0:0:50:
256,192,30981,1,0,0:0:0:50:
109,192,31160,1,2,1:0:0:50:
329,192,31339,1,2,1:0:0:50:
475,192,31517,1,0,0:0:0:50:
256,192,31696,1,0,0:0:0:50:
402,192,31874,1,2,1:0:0:50:
182,192,32053,1,0,0:0:0:50:
36,192,32410,1,2,0:0:0:30:
475,192,32410,1,2,0:0:0:30:
109,192,32589,1,0,0:0:0:50:
256,192,32767,1,2,0:0:0:60:
109,192,32946,1,0,0:0:0:50:
329,192,33124,1,8,0:0:0:100:
475,192,33124,1,0,0:0:0:50:
402,192,33481,1,0,0:0:0:50:
256,192,33660,1,2,0:0:0:30:
109,192,33660,1,2,0:0:0:30:
329,192,34017,1,0,0:0:0:50:
402,192,34196,1,2,0:0:0:60:
475,192,34374,1,0,0:0:0:50:
182,192,34553,1,8,0:0:0:50:
256,192,34553,1,8,0:0:0:50:
109,192,34731,1,0,0:0:0:50:
36,192,34910,128,0,35267:0:0:0:50:
182,192,35267,1,2,0:0:0:60:
402,192,35446,1,0,0:0:0:50:
256,192,35624,1,2,0:0:0:60:
402,192,35803,1,0,0:0:0:50:
182,192,35981,1,8,0:0:0:100:
36,192,35981,1,0,0:0:0:50:
475,192,36339,1,0,0:0:0:50:
402,192,36517,1,2,0:0:0:30:
256,192,36517,1,2,0:0:0:30:
182,192,36874,1,0,0:0:0:50:
109,192,37053,1,2,0:0:0:60:
36,192,37231,1,0,0:0:0:50:
256,192,37410,1,8,0:0:0:50:
329,192,37410,1,8,0:0:0:50:
402,192,37589,1,0,0:0:0:50:
475,192,37767,128,0,38124:0:0:0:50:
182,192,37767,1,0,0:0:0:50:
109,192,37946,1,0,0:0:0:50:
256,192,38124,1,2,0:0:0:60:
36,192,38303,1,0,0:0:0:50:
182,192,38481,1,2,0:0:0:60:
36,192,38660,1,0,0:0:0:50:
475,192,38839,1,8,0:0:0:100:
329,192,38839,1,0,0:0:0:50:
402,192,39196,1,0,0:0:0:50:
109,192,39374,1,2,0:0:0:30:
256,192,39374,1,2,0:0:0:30:
36,192,39731,1,0,0:0:0:50:
109,192,39910,1,2,0:0:0:60:
182,192,40089,1,0,0:0:0:50:
329,192,40267,1,8,0:0:0:50:
475,192,40267,1,8,0:0:0:50:
256,192,40446,1,0,0:0:0:50:
182,192,40624,128,0,40981:0:0:0:50:
109,192,40981,1,2,0:0:0:60:
402,192,41160,1,0,0:0:0:50:
256,192,41339,1,2,0:0:0:60:
402,192,41517,1,0,0:0:0:50:
182,192,41696,1,8,0:0:0:100:
36,192,41696,1,0,0:0:0:50:
256,192,42053,1,0,0:0:0:50:
329,192,42231,1,2,0:0:0:30:
402,192,42231,1,2,0:0:0:30:
475,192,42589,1,0,0:0:0:50:
402,192,42767,1,2,0:0:0:60:
329,192,42946,1,0,0:0:0:50:
36,192,43124,1,8,0:0:0:50:
182,192,43124,1,8,0:0:0:50:
256,192,43303,1,0,0:0:0:50:
329,192,43481,1,2,0:0:0:30:
109,192,43481,128,2,43839:0:0:0:30:
402,192,43660,1,0,0:0:0:50:
475,192,43839,1,0,0:0:0:50:
402,192,44374,1,0,0:0:0:50:
402,192,44553,1,0,0:0:0:50:
329,192,44910,1,8,0:0:0:50:
182,192,45089,1,2,0:0:0:50:
109,192,45089,1,2,0:0:0:50:
