osu file format v14

[General]
AudioFilename: audio.mp3
AudioLeadIn: 0
PreviewTime: 30822
Countdown: 1
SampleSet: Soft
StackLeniency: 0.7
Mode: 0
LetterboxInBreaks: 0
WidescreenStoryboard: 0

[Editor]
Bookmarks: 28857,40293
DistanceSpacing: 1
BeatDivisor: 4
GridSize: 8
TimelineZoom: 1

[Metadata]
Title:MarbleVirus
TitleUnicode:MarbleVirus
Artist:M4SONIC & Shawn Wasabi
ArtistUnicode:M4SONIC & Shawn Wasabi
Creator:ExKyu
Version:Normal
Source:
Tags:launchpad pika dubstep marble soda KittyAdventure PickklesHD Mentai
BeatmapID:1051877
BeatmapSetID:493966

[Difficulty]
HPDrainRate:5
CircleSize:3.6
OverallDifficulty:5
ApproachRate:5
SliderMultiplier:1
SliderTickRate:1

[Events]
//Background and Video events
0,0,"photographer-anime-girl-beach-1.jpg",0,0
//Break Periods
//Storyboard Layer 0 (Background)
//Storyboard Layer 1 (Fail)
//Storyboard Layer 2 (Pass)
//Storyboard Layer 3 (Foreground)
//Storyboard Sound Samples

[TimingPoints]
980,357.398141529664,4,2,0,5,1,0
3839,-100,4,2,0,30,0,0
9557,-100,4,3,0,50,0,1
20994,-100,4,2,0,30,0,0
31001,-100,4,2,0,50,0,0
32431,-100,4,3,0,50,0,1
43867,-100,4,3,0,5,0,0

[HitObjects]
56,152,980,6,0,P|72:96|120:56,1,100
160,144,1694,2,0,P|144:200|96:240,1,100
24,264,2409,2,0,P|55:302|101:321,1,100
200,328,3124,1,0,0:0:0:0:
296,288,3481,1,0,0:0:0:0:
384,232,3839,6,0,B|408:216|416:192|416:192,2,50
296,184,4553,1,0,0:0:0:0:
192,184,4911,2,0,B|168:168|160:144|160:144,2,50
248,104,5626,1,0,0:0:0:0:
176,32,5983,2,0,P|224:8|280:8,1,100
248,104,6698,6,0,P|272:168|304:200,1,100
376,248,7413,1,0,0:0:0:0:
456,304,7770,2,0,P|472:256|456:192,1,100
408,128,8485,1,0,0:0:0:0:
320,80,8842,1,0,0:0:0:0:
248,144,9200,1,0,0:0:0:0:
152,144,9557,6,0,L|96:144,2,50
152,248,10272,1,0,0:0:0:0:
232,312,10629,2,0,L|280:352,2,50
232,208,11344,1,0,0:0:0:0:
320,248,11701,1,0,0:0:0:0:
416,208,12059,1,0,0:0:0:0:
408,112,12416,6,0,B|360:88|360:88|304:88,1,100
176,112,13131,1,0,0:0:0:0:
176,208,13488,2,0,B|224:232|224:232|270:232,1,100
368,232,14203,1,0,0:0:0:0:
416,320,14561,2,0,P|355:327|301:312,1,100
224,288,15275,5,0,0:0:0:0:
120,288,15633,1,0,0:0:0:0:
32,240,15990,1,0,0:0:0:0:
32,136,16348,2,0,L|32:80,2,50
128,104,17062,1,0,0:0:0:0:
128,0,17420,2,0,P|184:16|225:60,1,100
128,104,18135,5,0,0:0:0:0:
112,200,18492,1,0,0:0:0:0:
208,168,18849,1,0,0:0:0:0:
304,208,19207,2,0,P|270:245|226:266,2,100
360,120,20279,1,0,0:0:0:0:
280,64,20636,1,0,0:0:0:0:
152,56,20994,6,0,L|96:56,2,50
104,144,21709,1,0,0:0:0:0:
24,96,22066,2,0,P|8:160|24:200,1,100
80,272,22781,1,0,0:0:0:0:
176,272,23138,1,0,0:0:0:0:
272,296,23496,2,0,P|272:248|232:192,1,100
152,184,24210,2,0,P|176:144|232:112,1,100
320,104,24925,1,0,0:0:0:0:
256,32,25283,6,0,L|192:32,1,50
152,32,25640,2,0,L|96:32,1,50
64,64,25997,2,0,L|24:96,1,50
0,136,26355,2,0,P|24:184|80:224,1,100
144,272,27070,5,0,0:0:0:0:
232,232,27427,1,0,0:0:0:0:
272,320,27784,2,0,P|320:280|336:232,1,100,0|0,0:3|0:3,0:3:0:0:
352,144,28499,1,0,0:0:0:0:
440,104,28857,2,0,P|400:56|352:40,1,100,0|0,0:3|0:3,0:3:0:0:
264,32,29571,2,0,P|248:32|160:48,2,100
240,128,30644,1,0,0:0:0:0:
240,224,31001,6,0,L|240:288,1,50
288,272,31358,2,0,L|344:272,1,50
392,272,31716,2,0,L|392:216,1,50
392,168,32073,2,0,L|392:112,1,50
392,64,32431,5,0,0:0:0:0:
296,80,32788,1,0,0:0:0:0:
208,128,33145,1,0,0:0:0:0:
136,192,33503,2,0,L|88:232,2,50
216,256,34218,1,0,0:0:0:0:
312,296,34575,1,0,0:0:0:0:
384,232,34932,1,0,0:0:0:0:
464,176,35290,6,0,L|512:144,2,50
368,144,36005,1,0,0:0:0:0:
288,88,36362,2,0,P|336:56|400:56,2,100
216,152,37434,1,0,0:0:0:0:
144,88,37792,1,0,0:0:0:0:
72,152,38149,6,0,B|72:208|72:208|103:239,1,100
184,304,38864,1,0,0:0:0:0:
264,240,39221,2,0,B|295:208|295:208|295:152,1,100
360,80,39936,1,0,0:0:0:0:
424,152,40293,2,0,B|424:208|424:208|455:239,1,100
368,296,41008,5,0,0:0:0:0:
280,336,41365,1,0,0:0:0:0:
184,304,41723,1,0,0:0:0:0:
96,248,42080,2,0,P|136:208|184:200,1,100
280,192,42795,1,0,0:0:0:0:
280,96,43152,1,0,0:0:0:0:
368,144,43510,1,0,0:0:0:0:
368,240,43867,5,0,0:0:0:0:
232,280,44403,2,0,L|176:296,1,50
88,312,44939,2,0,L|56:320,2,25
