osu file format v14

[General]
AudioFilename: audio.mp3
AudioLeadIn: 0
PreviewTime: 30822
Countdown: 1
SampleSet: None
StackLeniency: 0.6
Mode: 0
LetterboxInBreaks: 0
WidescreenStoryboard: 1

[Editor]
Bookmarks: 19207,40293
DistanceSpacing: 1
BeatDivisor: 4
GridSize: 8
TimelineZoom: 1

[Metadata]
Title:MarbleVirus
TitleUnicode:MarbleVirus
Artist:M4SONIC & Shawn Wasabi
ArtistUnicode:M4SONIC & Shawn Wasabi
Creator:ExKyu
Version:Hard
Source:
Tags:launchpad pika dubstep marble soda KittyAdventure PickklesHD Mentai
BeatmapID:1052544
BeatmapSetID:493966

[Difficulty]
HPDrainRate:5
CircleSize:3.6
OverallDifficulty:5
ApproachRate:5
SliderMultiplier:1.6
SliderTickRate:1

[Events]
//Background and Video events
0,0,"photographer-anime-girl-beach-1.jpg",0,0
//Break Periods
//Storyboard Layer 0 (Background)
//Storyboard Layer 1 (Fail)
//Storyboard Layer 2 (Pass)
//Storyboard Layer 3 (Foreground)
//Storyboard Sound Samples

[TimingPoints]
980,357.398141529664,4,2,0,5,1,0
3839,-100,4,2,0,30,0,0
9557,-100,4,3,0,50,0,1
20994,-100,4,2,0,30,0,0
31001,-100,4,2,0,50,0,0
32431,-100,4,2,0,50,0,1
43867,-100,4,3,0,5,0,0

[HitObjects]
176,88,980,6,0,P|144:112|104:120,1,80
40,168,1337,2,0,P|72:192|120:200,1,80
192,200,1694,1,0,0:0:0:0:
264,240,1873,1,0,0:0:0:0:
336,200,2052,1,0,0:0:0:0:
408,240,2230,1,0,0:0:0:0:
408,160,2409,6,0,L|408:80,1,80
328,80,2766,2,0,L|248:80,1,80
168,80,3124,2,0,P|120:72|96:40,3,80
40,104,3839,6,0,P|18:137|8:176,1,80
8,255,4196,2,0,P|41:277|80:287,1,80
160,287,4553,1,0,0:0:0:0:
320,288,4911,6,0,P|359:284|396:268,1,80
456,216,5268,2,0,P|471:179|475:139,1,80
424,80,5626,1,0,0:0:0:0:
344,64,5804,1,0,0:0:0:0:
280,8,5983,2,0,P|256:40|246:78,1,80
304,128,6340,1,0,0:0:0:0:
272,152,6430,1,0,0:0:0:0:
232,160,6519,1,0,0:0:0:0:
168,120,6698,6,0,P|133:85|70:81,1,80
96,152,7055,2,0,P|58:165|32:194,1,80
0,264,7413,1,0,0:0:0:0:
144,264,7770,2,0,L|144:344,4,80
144,192,8664,1,0,0:0:0:0:
168,120,8842,2,0,P|208:152|224:208,1,80
216,248,9200,1,0,0:0:0:0:
248,256,9289,1,0,0:0:0:0:
280,248,9378,1,0,0:0:0:0:
296,176,9557,6,0,B|328:152|328:152|328:104,1,80
336,40,9914,1,0,0:0:0:0:
400,80,10093,1,0,0:0:0:0:
464,128,10272,1,0,0:0:0:0:
296,104,10629,6,0,B|248:112|216:104,1,80
296,176,10987,2,0,B|344:184|376:176,1,80
448,176,11344,1,0,0:0:0:0:
488,240,11523,1,0,0:0:0:0:
424,280,11701,1,0,0:0:0:0:
352,312,11880,1,0,0:0:0:0:
280,328,12059,2,0,L|240:328,2,40
256,256,12416,6,0,P|256:208|240:176,1,80
184,224,12774,2,0,P|184:272|168:302,1,80
112,256,13131,1,0,0:0:0:0:
80,104,13488,2,0,P|48:72|16:72,4,80
88,176,14382,1,0,0:0:0:0:
104,248,14561,1,0,0:0:0:0:
176,240,14739,2,0,L|224:224,2,40
168,168,15097,1,0,0:0:0:0:
224,120,15275,5,0,0:0:0:0:
296,104,15454,1,0,0:0:0:0:
368,80,15633,1,0,0:0:0:0:
400,144,15812,1,0,0:0:0:0:
448,200,15990,1,0,0:0:0:0:
336,288,16348,6,0,P|304:304|248:304,1,80
280,232,16705,2,0,P|244:229|192:251,1,80
176,320,17062,2,0,P|144:295|125:260,1,80
96,184,17420,1,0,0:0:0:0:
128,112,17599,1,0,0:0:0:0:
184,56,17777,1,0,0:0:0:0:
224,48,17867,1,0,0:0:0:0:
264,56,17956,1,0,0:0:0:0:
304,112,18135,6,0,L|392:112,1,80
392,184,18492,1,0,0:0:0:0:
392,256,18671,1,0,0:0:0:0:
464,256,18849,1,0,0:0:0:0:
352,344,19207,2,0,P|389:355|427:346,4,80
296,296,20100,1,0,0:0:0:0:
224,256,20279,1,0,0:0:0:0:
296,216,20458,1,0,0:0:0:0:
224,176,20636,1,0,0:0:0:0:
80,168,20994,6,0,P|101:126|124:102,2,80
80,168,21709,1,0,0:0:0:0:
248,296,22245,2,0,L|296:296,2,40
104,296,22781,1,0,0:0:0:0:
280,176,23317,6,0,L|328:136,2,40
176,248,23674,1,0,0:0:0:0:
280,336,23853,1,0,0:0:0:0:
376,248,24032,1,0,0:0:0:0:
280,176,24210,1,0,0:0:0:0:
160,96,24568,1,0,0:0:0:0:
40,200,24925,1,0,0:0:0:0:
144,304,25283,6,0,P|184:272|224:264,1,80
232,344,25640,2,0,P|269:331|299:304,1,80
304,224,25997,1,0,0:0:0:0:
304,144,26176,1,0,0:0:0:0:
304,64,26355,2,0,P|192:64|152:88,1,160
104,144,26891,5,0,0:0:0:0:
168,200,27070,1,0,0:0:0:0:
48,312,27427,1,0,0:0:0:0:
288,312,27963,1,0,0:0:0:0:
323,287,28052,1,0,0:0:0:0:
349,256,28142,1,0,0:0:0:0:
368,120,28499,1,0,0:0:0:0:
152,120,29035,6,0,L|152:72,2,40
152,192,29393,2,0,P|193:226|232:235,1,80
294,233,29750,2,0,P|331:219|360:192,1,80
248,104,30286,1,0,0:0:0:0:
392,128,30644,1,0,0:0:0:0:
294,233,31001,5,0,0:0:0:0:
248,288,31180,1,0,0:0:0:0:
176,288,31358,1,0,0:0:0:0:
176,216,31537,1,0,0:0:0:0:
176,144,31716,1,0,0:0:0:0:
248,128,31894,1,0,0:0:0:0:
216,56,32073,2,0,P|255:46|304:72,1,80
344,120,32431,6,0,P|360:168|352:208,1,80
400,264,32788,2,0,P|352:280|312:272,1,80
248,288,33145,1,0,0:0:0:0:
104,216,33503,2,0,P|152:192|160:160,1,80
104,112,33860,2,0,P|131:85|170:85,1,80
248,120,34218,1,0,0:0:0:0:
296,64,34396,1,0,0:0:0:0:
344,120,34575,1,0,0:0:0:0:
392,64,34754,1,0,0:0:0:0:
432,120,34932,1,0,0:0:0:0:
464,280,35290,6,0,L|384:280,1,80
304,280,35647,2,0,L|192:280,1,80
144,280,36005,1,0,0:0:0:0:
272,184,36362,5,0,0:0:0:0:
192,184,36541,1,0,0:0:0:0:
192,104,36719,1,0,0:0:0:0:
272,104,36898,1,0,0:0:0:0:
272,24,37077,2,0,P|224:16|184:24,1,80
120,48,37434,1,0,0:0:0:0:
120,120,37613,2,0,L|120:160,2,40
48,120,37970,1,0,0:0:0:0:
48,200,38149,6,0,L|128:240,1,80
192,272,38506,2,0,L|272:304,1,80
296,232,38864,1,0,0:0:0:0:
336,80,39221,2,0,L|256:40,1,80
224,112,39578,2,0,L|304:152,1,80
296,232,39936,1,0,0:0:0:0:
376,232,40115,1,0,0:0:0:0:
448,264,40293,2,0,P|455:219|432:168,1,80
392,120,40651,1,0,0:0:0:0:
240,72,41008,6,0,P|168:48|56:64,2,160
128,184,42080,2,0,P|80:208|24:208,1,80
56,288,42438,1,0,0:0:0:0:
120,328,42616,1,0,0:0:0:0:
192,288,42795,2,0,P|202:337|192:368,2,80
232,224,43331,1,0,0:0:0:0:
280,288,43510,1,0,0:0:0:0:
296,128,43867,5,0,0:0:0:0:
72,48,44403,1,0,0:0:0:0:
184,88,44582,1,0,0:0:0:0:
112,232,44939,1,0,0:0:0:0:
91,266,45029,1,0,0:0:0:0:
70,300,45118,1,0,0:0:0:0:
