osu file format v14

[General]
AudioFilename: audio.mp3
AudioLeadIn: 0
PreviewTime: 59800
Countdown: 1
SampleSet: None
StackLeniency: 0.7
Mode: 0
LetterboxInBreaks: 0
WidescreenStoryboard: 0

[Editor]
DistanceSpacing: 1.4
BeatDivisor: 4
GridSize: 8
TimelineZoom: 2.799999

[Metadata]
Title:Wicked Fate
TitleUnicode:Wicked Fate
Artist:M2Ustudio
ArtistUnicode:M2Ustudio
Creator:-Urushihara-
Version:Insane
Source:
Tags:
BeatmapID:1464906
BeatmapSetID:692300

[Difficulty]
HPDrainRate:6
CircleSize:4.5
OverallDifficulty:8
ApproachRate:9.4
SliderMultiplier:1.4
SliderTickRate:1

[Events]
//Background and Video events
0,0,"bgwicked.jpg",0,0
//Break Periods
//Storyboard Layer 0 (Background)
//Storyboard Layer 1 (Fail)
//Storyboard Layer 2 (Pass)
//Storyboard Layer 3 (Foreground)
//Storyboard Sound Samples

[TimingPoints]
3443,428.571428571429,4,1,0,100,1,0
3443,-50,4,1,0,100,0,0
3764,-100,4,1,0,100,0,0
6764,-50,4,1,0,100,0,0
7193,-100,4,1,0,100,0,0
10085,-66.6666666666667,4,1,0,100,0,0
10514,-100,4,1,0,100,0,0
14478,-50,4,1,0,100,0,0
14907,-100,4,1,0,100,0,0
16300,-100,4,1,0,30,0,0
17050,-117.647058823529,4,1,0,50,0,0
17907,-200,4,1,0,20,0,0
18335,-66.6666666666667,4,1,0,20,0,0
18550,-105.263157894737,4,1,0,20,0,0
18764,-66.6666666666667,4,1,0,20,0,0
19193,-66.6666666666667,4,1,0,20,0,0
19621,-105.263157894737,4,1,0,100,0,0
21335,-100,4,1,0,100,0,0
21550,-100,4,1,0,30,0,0
21576,-100,4,1,0,30,0,0
21764,-100,4,1,0,30,0,0
21871,-100,4,1,0,30,0,0
21925,-100,4,1,0,30,0,0
22032,-100,4,1,0,50,0,0
28621,-100,4,1,0,25,0,0
28728,-83.3333333333333,4,1,0,100,0,1
31835,-83.3333333333333,4,1,0,50,0,1
32478,-83.3333333333333,4,1,0,100,0,1
35264,-83.3333333333333,4,1,0,30,0,1
36014,-100,4,1,0,100,0,0
42131,-100,4,1,0,100,0,1
45550,-50,4,1,0,100,0,1
46300,-100,4,1,0,60,0,0
53050,-66.6666666666667,4,1,0,100,0,0
53371,-100,4,1,0,100,0,0
53907,-133.333333333333,4,1,0,100,0,0
54335,-100,4,1,0,100,0,0
56478,-80,4,1,0,100,0,0
59907,-80,4,1,0,100,0,1
66657,-80,4,1,0,100,0,0
67193,-50,4,1,0,100,0,0
69335,-80,4,1,0,100,0,0
73193,-50,4,1,0,100,0,0
73825,-50,4,1,0,100,0,1
75871,-66.6666666666667,4,1,0,100,0,1
76407,-50,4,1,0,100,0,1
77050,-100,4,1,0,100,0,1
79407,-50,4,1,0,100,0,1
80264,-50,4,1,0,100,0,0
80478,-50,4,1,0,100,0,1
83478,-50,4,1,0,100,0,1
85514,-100,4,1,0,100,0,1
86264,-200,4,1,0,100,0,0
87335,-100,4,1,0,5,0,0
89050,-100,4,1,0,35,0,0
89264,-100,4,1,0,5,0,0
89907,-100,4,1,0,35,0,0
90121,-100,4,1,0,5,0,0
90764,-100,4,1,0,35,0,0
90978,-100,4,1,0,5,0,0
91621,-100,4,1,0,35,0,0
91835,-100,4,1,0,5,0,0
92585,-100,4,1,0,35,0,0
94085,-66.6666666666667,4,1,0,5,0,0
94728,-66.6666666666667,4,1,0,35,0,0
95157,-66.6666666666667,4,1,0,35,0,0
95264,-66.6666666666667,4,1,0,5,0,0
96014,-66.6666666666667,4,1,0,35,0,0
96121,-66.6666666666667,4,1,0,15,0,0
96871,-66.6666666666667,4,1,0,35,0,0
96932,-66.6666666666667,4,1,0,15,0,0
97728,-66.6666666666667,4,1,0,35,0,0
97835,-66.6666666666667,4,1,0,15,0,0
98585,-66.6666666666667,4,1,0,35,0,0
99657,-66.6666666666667,4,1,0,25,0,0

[HitObjects]
136,72,3443,6,0,L|136:264,1,140
160,288,3871,5,0,0:0:0:0:
216,296,3978,1,0,0:0:0:0:
256,264,4085,1,0,0:0:0:0:
280,216,4193,1,0,0:0:0:0:
280,168,4300,2,0,L|232:104,1,70
416,48,4728,5,0,0:0:0:0:
416,112,4835,1,0,0:0:0:0:
368,160,4943,1,0,0:0:0:0:
304,152,5050,1,0,0:0:0:0:
352,96,5157,2,0,L|328:24,1,70
240,232,5585,5,0,0:0:0:0:
200,192,5693,1,0,0:0:0:0:
160,152,5800,1,0,0:0:0:0:
112,120,5907,1,0,0:0:0:0:
96,192,6014,2,0,L|96:272,1,70
192,312,6443,6,0,L|209:276,1,35
312,280,6657,2,0,L|272:304,1,35
256,224,6871,2,0,P|136:144|136:144,1,140
312,168,7300,5,0,0:0:0:0:
336,216,7407,1,0,0:0:0:0:
376,256,7514,1,0,0:0:0:0:
432,272,7621,1,0,0:0:0:0:
424,200,7728,2,0,L|373:137,1,70
304,64,8157,5,0,0:0:0:0:
320,88,8264,1,0,0:0:0:0:
304,224,8371,1,0,0:0:0:0:
288,200,8478,1,0,0:0:0:0:
264,160,8585,2,0,L|224:96,1,70
72,32,9014,5,0,0:0:0:0:
120,48,9121,1,0,0:0:0:0:
144,96,9228,1,0,0:0:0:0:
128,144,9335,1,0,0:0:0:0:
120,192,9443,2,0,L|136:272,1,70
272,296,9871,5,0,0:0:0:0:
264,264,9978,1,0,0:0:0:0:
352,192,10193,1,0,0:0:0:0:
304,168,10300,2,4,P|240:136|240:136,1,52.5000020027161
104,64,10514,1,0,0:0:0:0:
112,112,10621,1,0,0:0:0:0:
200,128,10728,5,0,0:0:0:0:
192,168,10835,1,0,0:0:0:0:
112,216,10943,5,0,0:0:0:0:
136,248,11050,1,0,0:0:0:0:
208,272,11157,2,8,L|256:272,1,35
320,288,11371,5,0,0:0:0:0:
368,264,11478,1,0,0:0:0:0:
416,240,11585,1,0,0:0:0:0:
456,224,11692,1,0,0:0:0:0:
312,160,11800,5,0,0:0:0:0:
272,136,11907,1,0,0:0:0:0:
216,136,12014,2,4,L|184:152,2,35
120,184,12335,5,0,0:0:0:0:
128,240,12443,1,0,0:0:0:0:
152,280,12550,1,0,0:0:0:0:
240,272,12657,1,0,0:0:0:0:
296,248,12764,1,0,0:0:0:0:
344,256,12871,2,8,L|400:232,1,35
376,160,13085,5,0,0:0:0:0:
352,128,13193,1,0,0:0:0:0:
328,96,13300,1,0,0:0:0:0:
256,128,13407,5,0,0:0:0:0:
208,104,13514,1,0,0:0:0:0:
160,104,13621,1,0,0:0:0:0:
104,168,13728,2,0,L|160:232,1,70
216,192,14050,5,0,0:0:0:0:
208,160,14157,1,0,0:0:0:0:
224,120,14264,1,0,0:0:0:0:
272,96,14371,5,0,0:0:0:0:
328,112,14478,1,0,0:0:0:0:
368,160,14585,6,0,L|392:312,1,140
280,312,15014,2,0,P|240:248|240:240,1,70
256,184,15335,1,0,0:0:0:0:
320,128,15443,6,0,P|336:200|328:208,1,70
240,88,15871,1,0,0:0:0:0:
192,112,15978,1,0,0:0:0:0:
152,152,16085,1,0,0:0:0:0:
128,200,16193,1,0,0:0:0:0:
128,280,16300,5,4,1:0:0:0:
160,264,16407,1,4,1:0:0:0:
192,248,16514,1,4,1:0:0:0:
224,232,16621,1,4,1:0:0:0:
256,216,16728,1,4,1:0:0:0:
288,200,16835,1,4,1:0:0:0:
320,184,16943,1,4,1:0:0:0:
400,144,17157,6,8,P|408:200|400:224,1,59.5000011348725
296,168,17585,2,0,P|280:144|248:112,1,59.5000011348725
168,80,18014,6,0,L|128:112,1,35
104,176,18443,2,8,L|128:240,1,52.5000020027161
152,296,18657,1,4,0:0:0:0:
232,264,18871,2,0,B|264:264|280:232|280:232|312:264|328:256|328:256|344:256,1,105.000004005432
304,344,19300,2,0,B|272:352|272:352|248:328|224:352|224:352|184:344,1,105.000004005432
104,288,19728,6,0,B|80:248|80:248|128:232|144:200|144:200|112:152|136:120,1,199.499994672775
208,128,20585,5,0,0:0:0:0:
280,176,20800,1,0,0:0:0:0:
336,112,21014,2,0,L|400:176,1,66.4999982242585
384,248,21443,2,0,P|336:272|336:272,1,35
304,320,21657,2,0,P|256:312|256:312,1,35
232,248,21871,2,0,B|216:248|216:248|184:256,1,35
120,224,22085,1,0,0:0:0:0:
72,152,22300,1,0,0:0:0:0:
136,72,22514,6,0,L|168:112,1,35
184,128,22728,1,0,0:0:0:0:
200,184,22835,1,0,0:0:0:0:
248,216,22943,1,0,0:0:0:0:
296,184,23050,1,0,0:0:0:0:
328,144,23157,2,0,B|400:96|400:96|464:104|472:96,1,140
128,288,24014,6,0,L|128:200,1,70
360,64,24443,2,0,L|368:136,1,70
344,176,24764,1,0,0:0:0:0:
312,208,24871,2,0,B|280:248|280:248|240:248,1,70
112,80,25300,5,0,0:0:0:0:
112,152,25407,1,0,0:0:0:0:
136,224,25514,1,0,0:0:0:0:
200,264,25621,1,0,0:0:0:0:
208,168,25728,2,0,B|240:120|240:120|272:152|304:128,1,105
384,176,26157,6,0,L|352:256,1,70
272,240,26585,2,0,L|264:160,1,70
256,56,27014,2,0,P|288:56|320:40,1,35
168,136,27228,2,0,P|136:136|104:120,1,35
232,208,27443,2,0,B|280:224|280:224|312:208|328:224,1,70
416,152,27871,5,0,0:0:0:0:
376,128,27978,1,0,0:0:0:0:
328,128,28085,1,0,0:0:0:0:
296,160,28193,1,0,0:0:0:0:
264,192,28300,2,0,P|224:160|200:136,1,70
88,72,28728,5,0,0:0:0:0:
120,152,28835,1,0,0:0:0:0:
184,216,28943,1,0,0:0:0:0:
256,272,29050,1,0,0:0:0:0:
256,192,29157,5,0,0:0:0:0:
336,104,29371,1,0,0:0:0:0:
416,104,29478,1,0,0:0:0:0:
384,176,29585,1,0,0:0:0:0:
256,192,29800,1,0,0:0:0:0:
256,192,30014,5,0,0:0:0:0:
144,232,30228,5,0,0:0:0:0:
88,280,30335,1,0,0:0:0:0:
160,304,30443,1,0,0:0:0:0:
256,192,30657,1,0,0:0:0:0:
376,80,30871,6,0,L|392:168,1,83.9999974365235
384,208,31193,1,0,0:0:0:0:
344,232,31300,1,0,0:0:0:0:
296,208,31407,1,0,0:0:0:0:
296,208,31514,1,0,0:0:0:0:
144,160,31728,1,8,0:0:0:0:
184,256,31943,5,0,0:0:0:0:
208,272,32050,1,0,0:0:0:0:
232,288,32157,1,0,0:0:0:0:
256,304,32264,1,0,0:0:0:0:
280,320,32371,1,0,0:0:0:0:
304,336,32478,1,0,0:0:0:0:
360,288,32585,5,8,0:0:0:0:
240,72,32800,1,0,0:0:0:0:
312,128,32907,1,0,0:0:0:0:
360,200,33014,1,0,0:0:0:0:
360,200,33228,1,0,0:0:0:0:
232,176,33443,5,8,0:0:0:0:
304,216,33657,2,0,L|360:200,1,41.9999987182618
368,128,33871,1,0,0:0:0:0:
136,176,34086,1,0,0:0:0:0:
192,64,34300,5,8,0:0:0:0:
224,88,34407,1,0,0:0:0:0:
256,112,34514,1,0,0:0:0:0:
288,136,34621,1,0,0:0:0:0:
368,144,34728,1,0,0:0:0:0:
344,176,34835,1,0,0:0:0:0:
320,208,34943,1,0,0:0:0:0:
296,240,35050,1,0,0:0:0:0:
272,272,35157,1,0,0:0:0:0:
176,280,35371,5,4,1:0:0:0:
168,264,35478,1,4,1:0:0:0:
160,240,35585,1,4,1:0:0:0:
152,224,35692,1,4,1:0:0:0:
144,200,35800,1,4,1:0:0:0:
136,176,35907,1,4,1:0:0:0:
128,152,36014,1,4,1:0:0:0:
320,80,36228,5,8,0:0:0:0:
368,136,36335,1,0,0:0:0:0:
384,208,36443,1,0,0:0:0:0:
320,80,36657,1,0,0:0:0:0:
256,192,36871,5,0,0:0:0:0:
208,328,37085,5,8,0:0:0:0:
144,280,37193,1,0,0:0:0:0:
112,208,37300,1,0,0:0:0:0:
208,328,37514,1,0,0:0:0:0:
152,80,37728,6,0,L|192:104,1,35
216,120,37943,1,4,0:0:0:0:
248,192,38157,2,0,P|256:232|264:240,1,35
272,256,38371,1,4,0:0:0:0:
352,336,38585,1,0,0:0:0:0:
424,128,38800,5,0,0:0:0:0:
440,88,38907,1,0,0:0:0:0:
400,56,39014,1,0,0:0:0:0:
360,80,39121,1,0,0:0:0:0:
376,128,39228,1,0,0:0:0:0:
392,176,39335,1,0,0:0:0:0:
376,224,39443,1,0,0:0:0:0:
312,272,39657,5,8,0:0:0:0:
264,296,39764,1,0,0:0:0:0:
216,272,39871,1,0,0:0:0:0:
144,184,40085,1,8,0:0:0:0:
144,184,40300,1,0,0:0:0:0:
256,184,40514,5,0,0:0:0:0:
288,160,40621,1,0,0:0:0:0:
320,136,40728,1,0,0:0:0:0:
352,112,40835,1,0,0:0:0:0:
384,88,40943,1,0,0:0:0:0:
144,64,41157,6,0,L|176:104,1,35
168,120,41371,1,0,0:0:0:0:
144,160,41478,1,0,0:0:0:0:
152,200,41585,1,0,0:0:0:0:
120,232,41693,1,0,0:0:0:0:
144,272,41800,1,0,0:0:0:0:
176,304,41907,1,0,0:0:0:0:
216,320,42014,1,0,0:0:0:0:
408,280,42228,5,0,0:0:0:0:
360,288,42335,1,0,0:0:0:0:
328,248,42443,1,0,0:0:0:0:
280,256,42550,1,0,0:0:0:0:
256,208,42657,1,0,0:0:0:0:
232,160,42764,1,0,0:0:0:0:
176,152,42871,1,0,0:0:0:0:
368,72,43085,5,0,0:0:0:0:
360,120,43193,1,0,0:0:0:0:
320,160,43300,1,0,0:0:0:0:
264,160,43407,1,0,0:0:0:0:
224,192,43514,1,0,0:0:0:0:
232,248,43621,1,0,0:0:0:0:
192,288,43728,1,0,0:0:0:0:
440,288,43943,5,0,0:0:0:0:
416,240,44050,1,0,0:0:0:0:
368,264,44157,1,0,0:0:0:0:
328,224,44264,1,0,0:0:0:0:
272,224,44371,1,0,0:0:0:0:
224,192,44478,1,0,0:0:0:0:
192,144,44585,1,0,0:0:0:0:
112,296,44800,6,0,L|104:256,1,35
112,224,45014,1,0,0:0:0:0:
144,176,45121,1,0,0:0:0:0:
192,144,45228,1,0,0:0:0:0:
248,128,45335,1,0,0:0:0:0:
304,136,45443,1,0,0:0:0:0:
408,64,45657,6,8,L|432:176,1,70
376,248,45871,2,8,L|352:168,1,70
248,80,46085,2,8,L|264:152,1,70
224,240,46300,6,0,B|176:216|176:216|176:192|168:184,1,70
160,120,46728,1,0,0:0:0:0:
192,96,46835,1,0,0:0:0:0:
232,88,46943,1,0,0:0:0:0:
272,104,47050,1,0,0:0:0:0:
304,128,47157,2,0,L|376:160,1,70
432,200,47585,5,0,0:0:0:0:
256,272,47800,1,0,0:0:0:0:
288,200,48014,2,0,B|256:176|248:168|248:168|248:152|256:136|256:136|272:128,1,70
320,80,48443,1,0,0:0:0:0:
250,149,48657,1,0,0:0:0:0:
184,88,48871,2,0,B|160:64|160:64|160:88|160:88|152:64|152:64|152:88|152:88|128:64|128:64|104:64,1,140
64,104,49514,5,0,0:0:0:0:
112,168,49728,2,0,P|160:208|192:224,1,70
200,232,50157,1,0,0:0:0:0:
288,216,50371,1,0,0:0:0:0:
328,200,50478,1,0,0:0:0:0:
360,160,50585,2,0,P|368:120|368:88,1,70
232,64,51014,5,0,0:0:0:0:
192,96,51121,1,0,0:0:0:0:
184,144,51228,1,0,0:0:0:0:
216,184,51335,1,0,0:0:0:0:
248,216,51443,2,0,L|296:272,2,70
184,144,52085,1,0,0:0:0:0:
96,88,52300,1,0,0:0:0:0:
95,275,52514,5,0,0:0:0:0:
144,260,52621,1,0,0:0:0:0:
197,255,52728,2,0,L|240:254,1,35
277,268,52943,1,0,0:0:0:0:
306,305,53050,1,0,0:0:0:0:
360,300,53157,6,0,L|365:174,1,105
344,160,53585,2,0,P|275:165|251:150,1,70
232,168,54014,2,0,P|208:208|208:216,1,52.5000020027161
192,296,54443,6,0,P|272:304|280:296,1,70
336,312,54871,1,0,0:0:0:0:
352,96,55085,6,0,L|320:152,1,35
312,160,55300,1,4,0:0:0:0:
256,240,55514,1,0,0:0:0:0:
256,240,55728,2,0,B|216:272|216:272|168:272,1,70
112,96,56157,5,0,0:0:0:0:
152,128,56264,1,0,0:0:0:0:
160,176,56371,1,0,0:0:0:0:
184,224,56478,1,0,0:0:0:0:
224,256,56585,2,0,B|272:240|272:240|304:264|352:232|352:232|360:184|352:176,1,175
352,152,57228,5,0,0:0:0:0:
336,113,57335,1,0,0:0:0:0:
304,88,57443,2,0,P|256:80|232:96,1,43.75
224,88,57656,1,0,0:0:0:0:
72,72,57871,5,0,0:0:0:0:
112,112,57978,1,0,0:0:0:0:
128,168,58085,1,0,0:0:0:0:
120,224,58192,1,0,0:0:0:0:
80,264,58300,1,0,0:0:0:0:
216,288,58514,5,0,0:0:0:0:
264,272,58621,1,0,0:0:0:0:
304,240,58728,1,0,0:0:0:0:
368,176,58943,5,0,0:0:0:0:
368,312,59157,1,0,0:0:0:0:
336,48,59585,6,0,L|296:88,1,43.75
344,184,59799,2,0,B|288:168|288:168|296:168,1,43.75
208,128,60014,1,0,0:0:0:0:
96,200,60228,6,4,P|128:208|152:240,1,43.75
168,248,60443,1,4,0:0:0:0:
272,240,60657,1,0,0:0:0:0:
368,232,60871,5,0,0:0:0:0:
320,192,60978,1,0,0:0:0:0:
376,160,61085,1,0,0:0:0:0:
320,128,61193,1,0,0:0:0:0:
368,88,61300,1,0,0:0:0:0:
312,64,61407,1,0,0:0:0:0:
264,48,61514,2,4,P|216:48|208:56,1,43.75
168,88,61728,5,0,0:0:0:0:
128,152,61943,1,0,0:0:0:0:
136,200,62050,1,0,0:0:0:0:
160,240,62157,1,0,0:0:0:0:
192,280,62264,1,0,0:0:0:0:
232,304,62371,1,0,0:0:0:0:
312,320,62585,5,0,0:0:0:0:
408,256,62800,1,0,0:0:0:0:
424,136,63014,2,0,B|344:112|328:160|248:152|248:152,1,175
256,232,63657,5,0,0:0:0:0:
208,216,63764,1,0,0:0:0:0:
176,176,63871,1,0,0:0:0:0:
208,72,64085,5,0,0:0:0:0:
232,96,64193,1,0,0:0:0:0:
248,120,64300,1,0,0:0:0:0:
272,144,64407,1,0,0:0:0:0:
288,176,64514,5,0,0:0:0:0:
296,216,64621,1,0,0:0:0:0:
280,256,64728,1,0,0:0:0:0:
248,288,64835,1,0,0:0:0:0:
208,288,64943,5,0,0:0:0:0:
160,272,65050,1,0,0:0:0:0:
128,224,65157,1,0,0:0:0:0:
144,136,65371,5,0,0:0:0:0:
176,104,65478,1,0,0:0:0:0:
208,88,65585,1,0,0:0:0:0:
304,104,65800,5,0,0:0:0:0:
312,152,65907,1,0,0:0:0:0:
352,184,66014,1,0,0:0:0:0:
392,216,66121,1,0,0:0:0:0:
360,256,66228,1,0,0:0:0:0:
320,288,66335,1,0,0:0:0:0:
280,312,66443,2,8,P|240:336|184:336,1,87.5
128,288,66871,5,8,0:0:0:0:
184,240,67085,1,0,0:0:0:0:
128,200,67192,1,0,0:0:0:0:
72,160,67300,2,0,B|72:112|72:112|120:104|152:64,1,140
240,80,67728,5,8,0:0:0:0:
272,120,67835,1,0,0:0:0:0:
304,160,67942,1,0,0:0:0:0:
336,200,68049,1,0,0:0:0:0:
368,240,68157,1,0,0:0:0:0:
440,192,68264,5,0,0:0:0:0:
360,168,68371,1,0,0:0:0:0:
296,208,68478,1,0,0:0:0:0:
288,288,68585,1,0,0:0:0:0:
176,296,68800,5,8,0:0:0:0:
176,296,68907,1,0,0:0:0:0:
152,264,69014,1,0,0:0:0:0:
128,232,69121,1,0,0:0:0:0:
104,200,69228,1,0,0:0:0:0:
72,120,69443,5,2,0:0:0:0:
224,64,69657,1,2,0:0:0:0:
270,204,69871,2,2,L|310:260,2,43.75
376,192,70300,5,0,0:0:0:0:
296,240,70514,2,8,L|248:248,1,43.75
216,256,70728,1,4,0:0:0:0:
88,200,70943,5,0,0:0:0:0:
112,152,71050,1,0,0:0:0:0:
152,120,71157,1,0,0:0:0:0:
200,104,71264,1,0,0:0:0:0:
256,96,71371,1,0,0:0:0:0:
288,144,71478,5,0,0:0:0:0:
320,184,71585,1,0,0:0:0:0:
368,208,71693,1,0,0:0:0:0:
416,184,71800,1,0,0:0:0:0:
448,144,71907,1,0,0:0:0:0:
464,96,72014,1,0,0:0:0:0:
128,56,72228,5,0,0:0:0:0:
160,96,72335,1,0,0:0:0:0:
192,136,72443,1,0,0:0:0:0:
256,208,72657,1,0,0:0:0:0:
144,176,72871,5,0,0:0:0:0:
352,288,73085,1,0,0:0:0:0:
408,232,73300,2,4,L|408:88,2,140,4|4|4,0:1|0:1|0:1,0:1:0:0:
336,272,73943,5,0,0:0:0:0:
288,272,74050,1,0,0:0:0:0:
240,256,74157,1,0,0:0:0:0:
160,216,74371,1,0,0:0:0:0:
112,144,74585,5,0,0:0:0:0:
152,120,74693,1,0,0:0:0:0:
192,96,74800,1,0,0:0:0:0:
232,72,74907,1,0,0:0:0:0:
272,48,75014,2,0,L|336:16,1,70
360,48,75228,5,0,0:0:0:0:
384,80,75335,1,0,0:0:0:0:
408,112,75443,1,0,0:0:0:0:
408,112,75657,5,0,0:0:0:0:
384,152,75764,1,0,0:0:0:0:
360,192,75871,1,0,0:0:0:0:
336,232,75979,1,0,0:0:0:0:
312,272,76085,2,0,B|272:304|272:304|240:304|208:288,1,105
144,248,76514,5,8,0:0:0:0:
232,192,76621,1,8,0:0:0:0:
312,152,76728,2,4,B|336:136|336:136|336:152|336:152|352:136|352:136|352:152|352:152|360:136|360:136|360:152|360:152|368:136|368:136|368:152|368:152,1,140
152,96,77157,5,0,0:0:0:0:
176,176,77371,1,0,0:0:0:0:
208,216,77478,1,0,0:0:0:0:
256,232,77585,1,0,0:0:0:0:
264,320,77800,5,0,0:0:0:0:
296,296,77907,1,0,0:0:0:0:
328,264,78014,1,0,0:0:0:0:
360,232,78121,1,0,0:0:0:0:
432,192,78228,5,0,0:0:0:0:
400,168,78335,1,0,0:0:0:0:
368,144,78443,1,0,0:0:0:0:
336,120,78550,1,0,0:0:0:0:
304,96,78657,5,0,0:0:0:0:
272,72,78764,1,0,0:0:0:0:
232,56,78871,2,0,B|192:56|192:56|160:72,1,70
128,112,79193,1,0,0:0:0:0:
112,152,79300,1,0,0:0:0:0:
208,192,79514,5,0,0:0:0:0:
240,176,79621,1,0,0:0:0:0:
272,184,79728,1,0,0:0:0:0:
296,208,79835,1,0,0:0:0:0:
312,240,79943,1,0,0:0:0:0:
344,264,80050,1,0,0:0:0:0:
376,280,80157,2,8,B|432:304|432:304|464:280|448:184,1,140
424,120,80585,5,0,0:0:0:0:
344,168,80800,1,0,0:0:0:0:
296,192,80907,1,0,0:0:0:0:
256,160,81014,1,0,0:0:0:0:
192,104,81228,1,0,0:0:0:0:
192,168,81443,5,0,0:0:0:0:
136,192,81550,1,0,0:0:0:0:
128,248,81657,1,0,0:0:0:0:
168,288,81764,1,0,0:0:0:0:
224,296,81872,1,0,0:0:0:0:
256,248,81979,1,0,0:0:0:0:
224,200,82086,1,0,0:0:0:0:
176,160,82193,1,0,0:0:0:0:
168,104,82300,1,0,0:0:0:0:
192,48,82514,6,2,L|304:88,1,70
288,80,82728,1,2,0:0:0:0:
328,112,82835,1,2,0:0:0:0:
352,160,82943,1,4,0:0:0:0:
288,232,83157,6,0,P|352:264|368:264,1,70
392,272,83371,1,4,0:0:0:0:
462,343,83585,2,0,P|366:271|302:247,1,140
120,136,84014,5,0,0:0:0:0:
200,72,84228,1,0,0:0:0:0:
232,48,84335,1,0,0:0:0:0:
264,24,84443,1,0,0:0:0:0:
352,48,84657,2,0,L|432:120,1,70
416,128,84871,5,0,0:0:0:0:
392,160,84978,1,0,0:0:0:0:
360,176,85085,1,0,0:0:0:0:
320,184,85193,1,0,0:0:0:0:
280,192,85300,1,0,0:0:0:0:
240,208,85407,1,0,0:0:0:0:
208,232,85514,1,0,0:0:0:0:
176,256,85621,1,0,0:0:0:0:
144,280,85728,2,0,P|64:296|48:304,1,70
56,208,86050,5,0,0:0:0:0:
56,168,86157,1,0,0:0:0:0:
208,128,86371,2,0,L|208:64,1,35
288,64,86800,5,8,0:0:0:0:
328,96,87014,1,8,0:0:0:0:
368,128,87228,1,8,0:0:0:0:
312,216,87443,6,8,L|328:264,1,35
232,208,87657,2,4,L|224:160,1,35
152,224,87871,2,8,L|120:264,1,35
128,144,88085,2,4,L|176:152,1,35
216,64,88300,2,8,L|232:112,1,35
272,176,88514,2,4,L|336:176,1,35
384,176,88728,1,0,0:0:0:0:
400,216,88835,1,0,0:0:0:0:
248,272,88943,2,0,P|216:256|208:256,1,35
136,264,89157,1,2,3:0:0:0:
160,128,89371,5,0,0:0:0:0:
192,152,89478,1,0,0:0:0:0:
224,176,89585,1,0,0:0:0:0:
256,200,89693,1,0,0:0:0:0:
288,224,89800,2,0,P|328:248|336:256,1,35
384,304,90014,1,0,0:0:0:0:
392,208,90228,6,0,L|336:208,1,35
264,256,90443,2,0,L|288:216,1,35
232,168,90657,2,0,L|192:192,1,35
144,232,90871,1,0,0:0:0:0:
128,320,91085,6,0,L|176:280,1,35
184,264,91300,1,0,0:0:0:0:
216,232,91407,1,0,0:0:0:0:
240,192,91514,2,0,P|248:152|248:144,1,35
248,80,91728,1,0,0:0:0:0:
400,64,91943,5,0,0:0:0:0:
376,88,92050,1,0,0:0:0:0:
360,112,92157,1,0,0:0:0:0:
344,136,92264,1,0,0:0:0:0:
320,160,92371,1,0,0:0:0:0:
264,224,92585,5,0,0:0:0:0:
216,280,93014,5,0,0:0:0:0:
208,168,93443,5,0,0:0:0:0:
320,288,93871,5,0,0:0:0:0:
136,304,94300,5,0,0:0:0:0:
160,280,94407,1,0,0:0:0:0:
184,256,94514,1,0,0:0:0:0:
208,232,94621,1,0,0:0:0:0:
232,208,94728,1,0,0:0:0:0:
256,184,94835,1,0,0:0:0:0:
280,160,94943,1,0,0:0:0:0:
304,136,95050,1,0,0:0:0:0:
328,112,95157,1,0,0:0:0:0:
368,88,95371,5,0,0:0:0:0:
408,112,95478,1,0,0:0:0:0:
416,160,95585,1,0,0:0:0:0:
392,200,95693,1,0,0:0:0:0:
352,224,95800,1,0,0:0:0:0:
304,240,95907,1,0,0:0:0:0:
256,240,96014,1,0,0:0:0:0:
136,120,96228,5,0,0:0:0:0:
152,160,96335,1,0,0:0:0:0:
176,192,96443,1,0,0:0:0:0:
208,224,96550,1,0,0:0:0:0:
248,248,96657,1,0,0:0:0:0:
288,272,96764,1,0,0:0:0:0:
328,288,96871,1,0,0:0:0:0:
400,96,97085,5,0,0:0:0:0:
352,96,97193,1,0,0:0:0:0:
312,120,97300,1,0,0:0:0:0:
272,152,97407,1,0,0:0:0:0:
232,184,97514,1,0,0:0:0:0:
200,224,97621,1,0,0:0:0:0:
176,272,97728,1,0,0:0:0:0:
104,88,97943,2,0,L|104:152,1,52.5000020027161
112,216,98157,5,0,0:0:0:0:
152,192,98264,1,0,0:0:0:0:
192,168,98371,1,0,0:0:0:0:
232,144,98478,1,0,0:0:0:0:
272,120,98585,2,0,B|304:72|304:72|344:120|376:112,1,105.000004005432
400,160,99014,5,0,0:0:0:0:
416,200,99121,1,0,0:0:0:0:
368,288,99443,2,0,L|328:240,1,52.5000020027161
304,184,99657,5,2,1:0:0:0:
288,200,99764,1,2,1:0:0:0:
272,216,99871,1,2,1:0:0:0:
256,232,99978,1,2,1:0:0:0:
240,248,100085,5,2,1:0:0:0:
224,264,100193,1,2,1:0:0:0:
208,280,100300,1,2,1:0:0:0:
192,296,100407,1,2,1:0:0:0:
176,312,100514,1,2,1:0:0:0:
160,328,100621,1,2,1:0:0:0:
144,344,100728,1,2,1:0:0:0:
256,192,100943,12,0,104585,0:0:0:0:
