osu file format v14

[General]
AudioFilename: audio.mp3
AudioLeadIn: 0
PreviewTime: 21942
Countdown: 1
SampleSet: None
StackLeniency: 0.7
Mode: 0
LetterboxInBreaks: 0
WidescreenStoryboard: 0

[Editor]
DistanceSpacing: 0.5
BeatDivisor: 4
GridSize: 16
TimelineZoom: 1

[Metadata]
Title:Lune
TitleUnicode:Lune
Artist:M2U x Nicode
ArtistUnicode:M2U x Nicode
Creator:F4L5EY
Version:Goodbye
Source:Deemo
Tags:deemo, stream, jump, piano, stuff, idk. more tags, too lazy to put more tags :P
BeatmapID:1763397
BeatmapSetID:842782

[Difficulty]
HPDrainRate:8.2
CircleSize:3.6
OverallDifficulty:9.6
ApproachRate:9.8
SliderMultiplier:1.4
SliderTickRate:1

[Events]
//Background and Video events
0,0,"Lune.jpg",0,0
//Break Periods
2,34317,39463
2,50817,54463
2,65442,70963
2,82142,85963
//Storyboard Layer 0 (Background)
//Storyboard Layer 1 (Fail)
//Storyboard Layer 2 (Pass)
//Storyboard Layer 3 (Foreground)
//Storyboard Sound Samples

[TimingPoints]
942,375,4,3,1,60,1,0
21942,-100,4,3,1,90,0,1
31692,-50,4,3,1,80,0,1
32442,-50,4,3,1,60,0,0
33567,-200,4,3,1,60,0,0
44442,-200,4,3,1,90,0,1
46129,-50,4,3,1,90,0,1
50442,-50,4,3,1,75,0,0
75942,-50,4,3,1,80,0,1
81942,-50,4,3,1,75,0,0
93942,-100,4,3,1,100,0,1
96192,-100,4,3,1,60,0,0
102192,-200,4,3,1,60,0,0
103692,-100,4,3,1,60,0,0
106692,-200,4,3,1,60,0,0
110442,-200,4,3,1,50,0,0
111192,-200,4,3,1,40,0,0
111942,-200,4,3,1,30,0,0
112692,-200,4,3,1,20,0,0
113442,-200,4,3,1,10,0,0

[Colours]
Combo1 : 191,60,191
Combo2 : 74,0,37
Combo3 : 66,0,66
Combo4 : 209,107,209

[HitObjects]
64,112,942,6,0,B|192:48|224:176|352:112,1,280,2|8,0:0|0:0,0:0:0:0:
449,245,2442,2,0,B|321:309|289:181|161:245,1,280,2|8,0:0|0:0,0:0:0:0:
126,303,3567,1,0,0:0:0:0:
217,104,3942,6,0,P|291:63|238:163,1,280,2|8,0:0|0:0,0:0:0:0:
416,257,5254,1,0,0:0:0:0:
416,257,5348,1,0,0:0:0:0:
416,257,5442,2,0,P|342:216|395:316,1,280,2|8,0:0|0:0,0:0:0:0:
339,78,6567,1,0,0:0:0:0:
206,134,6754,1,0,0:0:0:0:
118,248,6942,38,0,P|194:261|399:247,1,280,2|8,0:0|0:0,0:0:0:0:
305,118,8442,2,0,P|255:177|165:361,1,280,2|8,0:0|0:0,0:0:0:0:
325,286,9567,1,0,0:0:0:0:
184,185,9942,2,0,P|202:144|192:209,2,280,2|8|2,0:0|0:0|0:0,0:0:0:0:
195,275,11817,5,2,0:0:0:0:
184,185,12192,1,8,0:0:0:0:
285,264,12567,1,0,0:0:0:0:
274,174,12942,38,0,L|245:178,2,17.5,2|0|0,0:0|0:0|0:0,0:0:0:0:
386,159,13317,1,2,0:0:0:0:
184,185,13692,2,0,P|135:223|164:297,1,140,8|0,0:0|0:0,0:0:0:0:
250,326,14254,1,0,0:0:0:0:
174,25,14442,37,4,0:0:0:0:
123,136,15192,2,0,B|226:85|260:176|375:111,1,245,2|0,0:0|0:0,0:0:0:0:
374,104,15942,6,0,P|414:153|266:223,1,280,2|8,0:0|0:0,0:0:0:0:
267,149,17067,1,0,0:0:0:0:
183,240,17442,2,0,P|164:169|161:261,1,280,2|8,0:0|0:0,0:0:0:0:
247,103,18754,1,0,0:0:0:0:
247,103,18848,1,0,0:0:0:0:
247,103,18942,6,0,L|260:262,1,140,2|8,0:0|0:0,0:0:0:0:
270,351,19504,1,0,0:0:0:0:
330,293,19692,1,8,0:0:0:0:
222,348,19879,1,0,0:0:0:0:
297,310,20067,1,8,0:0:0:0:
178,331,20254,1,0,0:0:0:0:
260,317,20442,1,8,0:0:0:0:
256,192,20535,12,4,21567,3:0:0:0:
75,253,21942,5,2,0:0:0:0:
112,277,22035,1,0,0:0:0:0:
156,279,22129,1,0,0:0:0:0:
195,258,22223,1,0,0:0:0:0:
219,221,22317,1,8,0:0:0:0:
243,184,22411,1,0,0:0:0:0:
282,163,22505,1,0,0:0:0:0:
326,165,22599,1,0,0:0:0:0:
363,189,22692,5,2,0:0:0:0:
413,346,22879,1,0,0:0:0:0:
347,135,23067,1,8,0:0:0:0:
468,246,23254,1,0,0:0:0:0:
306,97,23442,1,2,0:0:0:0:
467,133,23629,1,0,0:0:0:0:
253,84,23817,1,8,0:0:0:0:
410,34,24004,1,2,0:0:0:0:
199,100,24192,1,2,0:0:0:0:
310,0,24379,1,0,0:0:0:0:
160,140,24567,1,8,0:0:0:0:
206,0,24754,1,0,0:0:0:0:
147,195,24942,37,2,0:0:0:0:
164,249,25035,1,0,0:0:0:0:
204,287,25129,1,8,0:0:0:0:
259,300,25223,1,0,0:0:0:0:
313,283,25317,1,0,0:0:0:0:
325,228,25410,1,0,0:0:0:0:
309,174,25504,1,0,0:0:0:0:
268,136,25598,1,0,0:0:0:0:
214,123,25692,5,2,0:0:0:0:
230,177,25785,1,0,0:0:0:0:
217,231,25879,1,0,0:0:0:0:
178,272,25973,1,0,0:0:0:0:
124,289,26066,1,8,0:0:0:0:
69,275,26160,1,0,0:0:0:0:
28,237,26254,1,0,0:0:0:0:
12,183,26348,1,0,0:0:0:0:
25,128,26441,5,2,0:0:0:0:
70,95,26535,1,2,0:0:0:0:
125,98,26629,1,0,0:0:0:0:
165,136,26723,1,2,0:0:0:0:
171,191,26817,1,0,0:0:0:0:
140,237,26910,1,2,0:0:0:0:
87,253,27004,1,0,0:0:0:0:
36,231,27098,1,0,0:0:0:0:
12,181,27192,5,10,0:0:0:0:
25,128,27285,1,0,0:0:0:0:
70,95,27379,1,2,0:0:0:0:
125,98,27473,1,0,0:0:0:0:
165,136,27567,1,8,0:0:0:0:
171,191,27661,1,0,0:0:0:0:
140,237,27754,1,0,0:0:0:0:
87,253,27848,1,0,0:0:0:0:
36,231,27942,5,2,0:0:0:0:
83,15,28129,1,0,0:0:0:0:
194,324,28317,1,8,0:0:0:0:
181,119,28504,1,0,0:0:0:0:
221,79,28598,1,0,0:0:0:0:
272,55,28692,1,2,0:0:0:0:
328,50,28785,1,2,0:0:0:0:
382,64,28879,1,0,0:0:0:0:
428,96,28973,1,2,0:0:0:0:
460,142,29067,5,0,0:0:0:0:
475,196,29160,1,2,0:0:0:0:
471,252,29254,1,0,0:0:0:0:
447,303,29348,1,0,0:0:0:0:
240,343,29442,5,10,0:0:0:0:
213,286,29535,1,0,0:0:0:0:
218,223,29629,1,0,0:0:0:0:
253,171,29723,1,0,0:0:0:0:
309,141,29817,1,0,0:0:0:0:
372,148,29910,1,0,0:0:0:0:
425,183,30004,1,0,0:0:0:0:
452,241,30098,1,0,0:0:0:0:
447,303,30192,6,0,P|427:291|403:259,1,35,2|2,0:0|0:0,0:0:0:0:
362,328,30379,2,0,P|350:307|345:267,1,35,0|2,0:0|0:0,0:0:0:0:
275,307,30567,2,0,P|275:283|291:246,1,35,0|2,0:0|0:0,0:0:0:0:
210,245,30754,2,0,P|221:224|254:200,1,35
185,160,30942,5,10,0:0:0:0:
259,117,31035,1,0,0:0:0:0:
343,131,31129,1,2,0:0:0:0:
398,196,31223,1,0,0:0:0:0:
398,281,31317,1,2,0:0:0:0:
343,346,31410,1,0,0:0:0:0:
259,362,31504,1,2,0:0:0:0:
185,320,31598,1,0,0:0:0:0:
156,240,31692,6,0,P|197:238|254:263,1,70,10|0,0:0|0:0,0:0:0:0:
251,167,31879,2,0,P|283:191|311:247,1,70,2|0,0:0|0:0,0:0:0:0:
370,172,32067,2,0,P|379:212|364:272,1,70,2|0,0:0|0:0,0:0:0:0:
457,252,32254,2,0,P|438:288|388:325,1,70,2|0,0:0|0:0,0:0:0:0:
468,367,32442,5,10,0:0:0:0:
477,359,32535,1,0,0:0:0:0:
480,348,32629,1,0,0:0:0:0:
481,336,32723,1,0,0:0:0:0:
480,325,32817,1,0,0:0:0:0:
477,314,32910,1,0,0:0:0:0:
472,303,33004,1,0,0:0:0:0:
465,293,33098,1,0,0:0:0:0:
457,286,33192,5,2,0:0:0:0:
457,286,33567,2,0,P|415:282|384:288,1,70,0|4,0:0|0:0,0:0:0:0:
143,75,39942,37,2,0:0:0:0:
213,157,40317,1,8,2:0:0:0:
205,162,40410,1,0,0:0:0:0:
197,167,40504,1,8,2:0:0:0:
189,172,40598,1,0,0:0:0:0:
181,177,40692,1,2,0:0:0:0:
143,75,40879,5,0,0:0:0:0:
200,228,41066,1,8,2:0:0:0:
212,220,41160,1,0,0:0:0:0:
224,213,41254,1,8,2:0:0:0:
236,205,41348,1,0,0:0:0:0:
248,198,41441,1,2,0:0:0:0:
143,75,41629,37,0,0:0:0:0:
228,304,41816,1,8,0:0:0:0:
300,259,42004,1,8,0:0:0:0:
228,304,42192,1,2,0:0:0:0:
143,75,42379,5,0,0:0:0:0:
355,323,42567,1,8,0:0:0:0:
257,384,42754,1,8,0:0:0:0:
355,323,42942,37,2,0:0:0:0:
439,59,43129,1,0,0:0:0:0:
410,78,43223,1,0,0:0:0:0:
381,97,43317,1,10,0:0:0:0:
352,116,43410,1,0,0:0:0:0:
323,135,43504,1,0,0:0:0:0:
294,154,43598,1,0,0:0:0:0:
265,173,43692,6,0,P|232:207|240:273,1,105,14|0,0:0|0:0,0:0:0:0:
380,370,44442,5,2,0:0:0:0:
423,337,44535,1,0,0:0:0:0:
443,286,44629,1,0,0:0:0:0:
435,232,44723,1,0,0:0:0:0:
401,189,44817,1,8,0:0:0:0:
350,169,44910,1,0,0:0:0:0:
296,176,45004,1,0,0:0:0:0:
253,210,45098,1,0,0:0:0:0:
233,261,45192,5,2,0:0:0:0:
481,353,45379,1,0,0:0:0:0:
290,123,45567,1,8,0:0:0:0:
481,353,45754,1,0,0:0:0:0:
425,19,45942,5,2,0:0:0:0:
259,234,46129,2,0,P|354:234|249:153,1,280,8|2,0:0|0:0,0:0:0:0:
25,227,46692,5,8,0:0:0:0:
343,380,46879,1,2,1:0:0:0:
346,328,46973,1,2,1:0:0:0:
349,276,47067,1,2,1:0:0:0:
360,26,47254,1,2,0:0:0:0:
43,309,47442,5,2,0:0:0:0:
72,256,47535,1,0,0:0:0:0:
123,224,47629,1,0,0:0:0:0:
183,222,47723,1,0,0:0:0:0:
236,250,47817,1,8,0:0:0:0:
289,278,47910,1,0,0:0:0:0:
349,276,48004,1,0,0:0:0:0:
400,244,48098,1,0,0:0:0:0:
429,191,48192,1,2,0:0:0:0:
397,140,48285,1,0,0:0:0:0:
344,111,48379,1,0,0:0:0:0:
283,114,48473,1,0,0:0:0:0:
232,145,48566,5,8,0:0:0:0:
229,159,48660,1,0,0:0:0:0:
226,173,48754,1,0,0:0:0:0:
223,187,48848,1,0,0:0:0:0:
200,341,48942,5,2,0:0:0:0:
283,342,49035,1,0,0:0:0:0:
355,301,49129,1,8,0:0:0:0:
398,230,49223,1,0,0:0:0:0:
398,147,49317,1,0,0:0:0:0:
357,74,49410,1,0,0:0:0:0:
285,32,49504,1,2,0:0:0:0:
202,31,49598,1,0,0:0:0:0:
130,72,49692,1,12,0:0:0:0:
107,318,49879,6,0,L|113:238,2,70,2|2|2,1:0|1:0|1:0,1:0:0:0:
130,72,50254,1,0,0:0:0:0:
113,248,50442,1,8,0:0:0:0:
256,192,54942,12,0,56254,0:0:0:0:
50,211,56442,5,2,0:0:0:0:
62,202,56535,1,0,0:0:0:0:
76,197,56629,1,0,0:0:0:0:
90,197,56723,1,0,0:0:0:0:
104,202,56817,5,8,0:0:0:0:
118,207,56910,1,0,0:0:0:0:
132,207,57004,1,0,0:0:0:0:
146,202,57098,1,0,0:0:0:0:
158,193,57191,5,2,0:0:0:0:
170,184,57285,1,0,0:0:0:0:
184,179,57379,1,2,0:0:0:0:
198,179,57473,1,0,0:0:0:0:
212,184,57567,5,8,0:0:0:0:
226,189,57660,1,0,0:0:0:0:
240,189,57754,1,0,0:0:0:0:
254,184,57848,1,0,0:0:0:0:
323,88,57941,5,2,0:0:0:0:
343,84,58035,1,0,0:0:0:0:
362,90,58129,1,0,0:0:0:0:
375,105,58223,1,0,0:0:0:0:
379,124,58317,5,8,0:0:0:0:
373,143,58410,1,0,0:0:0:0:
377,162,58504,1,0,0:0:0:0:
390,177,58598,1,0,0:0:0:0:
410,184,58692,5,2,0:0:0:0:
423,199,58785,1,0,0:0:0:0:
427,218,58879,1,2,0:0:0:0:
421,237,58973,1,0,0:0:0:0:
406,250,59067,5,8,0:0:0:0:
387,254,59160,1,0,0:0:0:0:
372,267,59254,1,0,0:0:0:0:
366,286,59348,1,0,0:0:0:0:
350,139,59442,5,2,0:0:0:0:
343,102,59535,1,0,0:0:0:0:
318,73,59629,1,0,0:0:0:0:
283,60,59723,1,0,0:0:0:0:
245,67,59817,5,8,0:0:0:0:
217,91,59910,1,0,0:0:0:0:
204,126,60004,1,0,0:0:0:0:
211,162,60098,1,0,0:0:0:0:
236,192,60192,5,2,0:0:0:0:
260,222,60285,1,0,0:0:0:0:
267,258,60379,1,2,0:0:0:0:
254,293,60473,1,0,0:0:0:0:
226,317,60567,5,8,0:0:0:0:
188,323,60660,1,0,0:0:0:0:
153,311,60754,1,0,0:0:0:0:
128,282,60848,1,0,0:0:0:0:
133,117,60942,5,2,0:0:0:0:
190,121,61035,1,0,0:0:0:0:
247,125,61129,1,2,0:0:0:0:
304,129,61223,1,0,0:0:0:0:
361,133,61317,5,8,0:0:0:0:
329,180,61410,1,0,0:0:0:0:
297,227,61504,1,2,0:0:0:0:
265,275,61598,1,0,0:0:0:0:
233,322,61692,5,8,0:0:0:0:
133,117,62067,1,10,0:0:0:0:
256,192,62442,12,0,64692,0:0:0:0:
256,192,65067,5,4,0:0:0:0:
369,84,71442,37,2,0:0:0:0:
289,149,71817,1,8,0:0:0:0:
302,168,71910,1,0,0:0:0:0:
320,181,72004,1,8,0:0:0:0:
342,187,72098,1,0,0:0:0:0:
364,185,72192,1,2,0:0:0:0:
369,84,72567,5,2,0:0:0:0:
360,263,72942,37,8,0:0:0:0:
321,267,73036,1,0,0:0:0:0:
281,256,73130,1,8,0:0:0:0:
249,233,73224,1,0,0:0:0:0:
226,199,73317,1,0,0:0:0:0:
215,161,73410,1,0,0:0:0:0:
219,119,73504,1,8,0:0:0:0:
236,84,73598,1,0,0:0:0:0:
265,55,73691,5,8,0:0:0:0:
304,44,73785,1,0,0:0:0:0:
343,53,73879,1,8,0:0:0:0:
372,81,73973,1,0,0:0:0:0:
383,119,74067,1,0,0:0:0:0:
373,158,74160,1,0,0:0:0:0:
345,187,74254,1,8,0:0:0:0:
306,198,74348,1,0,0:0:0:0:
268,189,74442,5,8,0:0:0:0:
150,55,74629,1,10,0:0:0:0:
203,319,74817,5,8,0:0:0:0:
150,55,75004,1,8,0:0:0:0:
256,192,75192,12,2,75754,0:0:0:0:
180,287,75942,37,2,0:0:0:0:
225,316,76035,1,0,0:0:0:0:
277,327,76129,1,0,0:0:0:0:
330,320,76223,1,0,0:0:0:0:
377,295,76317,1,8,0:0:0:0:
413,255,76410,1,0,0:0:0:0:
433,206,76504,1,0,0:0:0:0:
435,153,76598,1,0,0:0:0:0:
419,102,76692,5,2,0:0:0:0:
366,90,76785,1,0,0:0:0:0:
313,98,76879,1,0,0:0:0:0:
267,122,76973,1,0,0:0:0:0:
230,162,77067,1,8,0:0:0:0:
217,215,77160,1,0,0:0:0:0:
232,267,77254,1,0,0:0:0:0:
271,304,77348,1,0,0:0:0:0:
323,317,77442,5,2,0:0:0:0:
419,145,77629,2,0,P|406:56|378:165,1,280,8|2,0:0|0:0,0:0:0:0:
497,331,78192,5,8,0:0:0:0:
25,163,78379,1,2,1:0:0:0:
25,163,78473,1,2,1:0:0:0:
25,163,78567,2,0,P|60:248|102:273,1,140,2|0,0:0|0:0,0:0:0:0:
265,302,78942,5,2,0:0:0:0:
241,252,79035,1,0,0:0:0:0:
245,196,79129,1,0,0:0:0:0:
276,150,79223,1,0,0:0:0:0:
326,125,79317,1,8,0:0:0:0:
381,129,79410,1,0,0:0:0:0:
427,160,79504,1,0,0:0:0:0:
452,210,79598,1,0,0:0:0:0:
448,266,79692,5,2,0:0:0:0:
425,266,79785,1,0,0:0:0:0:
402,266,79879,1,0,0:0:0:0:
379,266,79973,1,0,0:0:0:0:
356,266,80067,1,8,0:0:0:0:
333,266,80160,1,0,0:0:0:0:
180,260,80254,1,0,0:0:0:0:
103,225,80348,1,0,0:0:0:0:
66,148,80442,5,2,0:0:0:0:
87,66,80535,1,0,0:0:0:0:
156,17,80629,1,8,0:0:0:0:
240,23,80723,1,0,0:0:0:0:
300,82,80817,2,0,L|248:224,1,140,0|2,0:0|0:0,0:0:0:0:
168,381,81192,1,8,0:0:0:0:
320,201,81379,6,0,L|245:213,2,70,2|2|2,1:0|1:0|1:0,0:0:0:0:
507,164,81754,1,2,0:0:0:0:
251,213,81942,1,8,0:0:0:0:
256,192,86442,12,0,87567,0:0:0:0:
135,335,87942,37,10,0:0:0:0:
120,295,88317,1,2,0:0:0:0:
134,254,88692,1,2,0:0:0:0:
171,231,89067,1,2,0:0:0:0:
412,224,89442,5,10,0:0:0:0:
363,219,89817,1,2,0:0:0:0:
314,214,90192,1,2,0:0:0:0:
265,209,90567,1,2,0:0:0:0:
103,85,90942,5,10,0:0:0:0:
113,142,91317,1,2,0:0:0:0:
361,125,91692,5,10,0:0:0:0:
346,210,92067,1,2,0:0:0:0:
256,192,92442,12,8,93567,0:0:0:0:
321,299,93942,5,2,0:0:0:0:
93,325,94129,1,0,0:0:0:0:
184,115,94317,1,10,0:0:0:0:
321,299,94504,5,0,0:0:0:0:
98,246,94691,1,2,0:0:0:0:
255,79,94879,1,0,0:0:0:0:
321,299,95067,5,10,0:0:0:0:
129,173,95254,1,0,0:0:0:0:
334,70,95442,1,2,0:0:0:0:
321,299,95629,5,2,0:0:0:0:
184,115,95816,1,10,0:0:0:0:
411,88,96004,1,2,0:0:0:0:
321,299,96192,5,14,0:0:0:0:
311,299,96942,1,0,0:0:0:0:
301,299,97692,1,0,0:0:0:0:
291,299,98442,1,0,0:0:0:0:
191,299,98817,1,0,0:0:0:0:
241,212,99192,5,0,0:0:0:0:
251,212,99567,1,0,0:0:0:0:
261,212,99942,1,0,0:0:0:0:
338,162,100692,1,0,0:0:0:0:
328,162,101067,1,0,0:0:0:0:
318,162,101442,37,0,0:0:0:0:
218,162,101629,1,0,0:0:0:0:
268,249,101817,1,0,0:0:0:0:
338,162,102004,1,0,0:0:0:0:
238,162,102192,2,0,P|208:143|259:147,1,140
309,313,103692,2,0,P|375:300|278:271,1,280
273,278,104817,1,0,0:0:0:0:
267,301,105192,2,0,P|216:346|252:251,1,280
184,283,106692,2,0,P|209:260|191:307,2,140
174,371,108567,5,0,0:0:0:0:
184,283,108942,1,0,0:0:0:0:
239,135,109317,1,0,0:0:0:0:
263,135,109504,1,0,0:0:0:0:
287,135,109692,6,0,L|291:182,3,35
390,185,110442,2,0,L|385:232,3,35
223,263,111192,2,0,L|270:258,3,35
142,140,111942,6,0,L|189:144,3,35
87,233,112692,2,0,L|134:228,3,35
154,325,113442,1,8,0:0:0:0:
