osu file format v14

[General]
AudioFilename: audio.mp3
AudioLeadIn: 0
PreviewTime: -1
Countdown: 0
SampleSet: None
StackLeniency: 0.2
Mode: 0
LetterboxInBreaks: 0
WidescreenStoryboard: 0

[Editor]
DistanceSpacing: 0.9
BeatDivisor: 8
GridSize: 8
TimelineZoom: 1.8

[Metadata]
Title:Apocalypse (feat. Lucy)
TitleUnicode:Apocalypse (feat. Lucy)
Artist:M2U x NICODE
ArtistUnicode:M2U x NICODE
Creator:P4ndemonium
Version:The End to Everything
Source:RIDE ZERO
Tags:
BeatmapID:1566044
BeatmapSetID:742478

[Difficulty]
HPDrainRate:2
CircleSize:4.2
OverallDifficulty:9.4
ApproachRate:10
SliderMultiplier:2.5
SliderTickRate:1

[Events]
//Background and Video events
0,0,"a.jpg",0,0
//Break Periods
//Storyboard Layer 0 (Background)
//Storyboard Layer 1 (Fail)
//Storyboard Layer 2 (Pass)
//Storyboard Layer 3 (Foreground)
//Storyboard Sound Samples

[TimingPoints]
1757,428.571428571429,4,1,0,50,1,0
1757,-133.333333333333,4,1,0,50,0,0
12471,-86.9565217391304,4,1,0,50,0,0
12899,-105.263157894737,4,1,0,50,0,0
13328,-133.333333333333,4,1,0,50,0,0
13757,-105.263157894737,4,1,0,50,0,0
15471,-200,4,1,0,50,0,0
15899,-79.3650793650794,4,1,0,50,0,0
16328,-200,4,1,0,50,0,0
16757,-100,4,1,0,50,0,0
17185,-200,4,1,0,50,0,0
25757,-133.333333333333,4,1,0,50,0,0
39471,-400,4,1,0,50,0,0
52114,-133.333333333333,4,1,0,50,0,0
52328,-50,4,1,0,50,0,0
53185,-400,4,1,0,50,0,0
65828,-133.333333333333,4,1,0,50,0,0
66042,-400,4,1,0,50,0,0
66899,-200,4,1,0,50,0,0
72899,-50,4,1,0,50,0,0
73542,-200,4,1,0,50,0,0
80614,-33.3333333333333,4,1,0,50,0,1
81042,-100,4,1,0,50,0,1
81471,-50,4,1,0,50,0,1
81899,-66.6666666666667,4,1,0,50,0,1
83185,-66.6666666666667,4,1,0,50,0,1
83614,-50,4,1,0,50,0,1
84042,-33.3333333333333,4,1,0,50,0,1
84471,-100,4,1,0,50,0,1
84899,-50,4,1,0,50,0,1
85328,-66.6666666666667,4,1,0,50,0,1
86614,-50,4,1,0,50,0,1
87042,-50,4,1,0,50,0,1
87471,-33.3333333333333,4,1,0,50,0,1
90257,-100,4,1,0,50,0,1
90899,-33.3333333333333,4,1,0,50,0,1
94328,-33.3333333333333,4,1,0,50,0,1
94756,-100,4,1,0,50,0,1
95185,-50,4,1,0,50,0,1
95613,-66.6666666666667,4,1,0,50,0,1
96899,-66.6666666666667,4,1,0,50,0,1
97328,-50,4,1,0,50,0,1
97756,-33.3333333333333,4,1,0,50,0,1
98185,-100,4,1,0,50,0,1
98613,-50,4,1,0,50,0,1
99042,-66.6666666666667,4,1,0,50,0,1
100328,-50,4,1,0,50,0,1
100756,-50,4,1,0,50,0,1
101185,-33.3333333333333,4,1,0,50,0,1
103971,-100,4,1,0,50,0,1
104613,-33.3333333333333,4,1,0,50,0,1
108042,-1000,4,1,0,50,0,0

[HitObjects]
374,154,1757,6,0,B|412:142|450:155|450:155|421:123|369:117|330:150|330:150|302:177|258:183|219:156,1,328.125012516976
87,45,2614,2,0,B|131:0|131:0|116:171,1,234.375008940697
0,229,3257,2,0,P|22:223|45:224,1,46.8750017881394
146,309,3471,2,0,B|195:354|259:331|280:297|280:297|271:289|271:289|288:287|288:287|322:247|380:241|418:276,1,328.125012516976
512,158,4328,2,0,P|447:136|386:168,1,140.625005364418
240,45,4757,2,0,P|300:77|365:55,1,140.625005364418
126,106,5185,6,0,B|95:97|67:104|44:133|44:133|54:84|106:51|170:64|208:121|193:177|155:207,1,328.125012516976
386,168,6042,2,0,B|417:159|445:166|468:195|468:195|458:146|406:113|342:126|304:183|319:239|357:269,1,328.125012516976
77,279,6899,6,0,B|41:270|21:248|21:248|42:297|91:320|145:326|198:310|231:240,1,328.125012516976
441,347,7757,2,0,B|477:338|497:316|497:316|476:365|427:388|373:394|320:378|287:308,1,328.125012516976
171,85,8614,6,0,B|180:61|173:34|173:34|207:79|193:163|165:188|165:188|188:159|227:146|270:165,1,328.125012516976
346,197,9471,2,0,P|414:201|464:155,1,140.625005364418
334,112,9899,6,0,P|339:89|338:66,1,46.8750017881394
425,278,10114,2,0,P|419:255|420:232,1,46.8750017881394
237,362,10328,2,0,B|278:330|296:254|264:193|215:167|215:167|245:210|244:261,1,328.125012516976
89,246,11185,2,0,B|48:214|30:138|62:77|111:51|111:51|81:94|82:145,1,328.125012516976
40,316,12042,2,0,P|106:329|162:289,1,140.625005364418
262,45,12471,6,0,L|244:260,1,215.625004112721
346,89,12899,2,0,L|331:267,1,178.12499524355
431,134,13328,2,0,L|419:275,1,140.625005364418
6,324,13757,6,0,B|32:313|46:288|50:263|50:263|55:241|72:222|92:219|92:219|59:267|63:339|116:382|179:400|260:369|288:283|250:219|223:192|177:203|177:203|184:231|171:264|155:277,1,653.124982559681
298,367,15042,2,0,P|322:313|326:254,1,118.749996829033
397,133,15471,6,0,L|303:141,1,93.75
274,144,15899,2,0,L|429:130,1,155.625002255917
158,21,16328,6,0,P|200:3|246:13,1,93.75
159,213,16757,2,0,B|145:183|145:150|166:106|207:90|207:90|193:108|185:150,1,187.5
464,346,17185,6,0,P|375:360|318:291,1,187.5
103,285,18042,2,0,P|191:299|248:230,1,187.5
433,196,18899,6,0,B|426:123|469:76|469:76|420:112|371:202|399:291|465:347,1,437.5
77,223,20614,6,0,B|84:150|41:103|41:103|90:139|139:229|111:318|45:374,1,437.5
256,192,22328,12,0,25542,0:0:0:0:
77,143,25757,6,0,P|59:100|68:54,1,93.7500035762788
254,109,26079,1,0,0:0:0:0:
161,161,26186,2,0,P|189:124|233:109,1,93.7500035762788
232,294,26507,1,0,0:0:0:0:
352,203,26614,2,0,B|377:204|400:191|400:191|382:217|328:249|262:235|225:177,1,234.375008940697
432,77,27257,5,0,0:0:0:0:
400,190,27364,1,0,0:0:0:0:
357,116,27471,2,0,P|424:107|476:151,1,140.625005364418
439,332,27899,1,0,0:0:0:0:
400,190,28007,1,0,0:0:0:0:
308,320,28114,1,0,0:0:0:0:
319,218,28221,1,0,0:0:0:0:
205,320,28328,2,0,P|235:235|174:169,1,187.500007152558
87,199,28864,5,0,0:0:0:0:
152,253,28971,1,0,0:0:0:0:
106,111,29078,1,0,0:0:0:0:
59,324,29185,2,0,B|35:332|18:353|18:353|36:297|96:260|163:268|206:320,1,281.250010728836
311,192,29935,1,0,0:0:0:0:
316,278,30042,2,0,B|291:279|268:266|268:266|286:292|340:324|406:310|443:252,1,234.375008940697
512,354,30685,5,0,0:0:0:0:
430,268,30792,1,0,0:0:0:0:
496,170,30899,2,0,B|520:174|545:164|545:164|502:204|431:206|377:165|366:99,1,281.250010728836
311,192,31649,1,0,0:0:0:0:
178,76,31757,5,0,0:0:0:0:
366,100,31899,1,0,0:0:0:0:
252,251,32042,1,0,0:0:0:0:
249,4,32185,5,0,0:0:0:0:
333,273,32327,1,0,0:0:0:0:
57,214,32470,1,0,0:0:0:0:
177,75,32614,6,0,P|207:137|183:201,1,140.625005364418
47,337,33042,2,0,P|75:300|119:285,1,93.7500035762788
275,256,33364,1,0,0:0:0:0:
183,201,33471,2,0,P|228:207|263:237,1,93.7500035762788
367,357,33792,1,0,0:0:0:0:
368,250,33899,2,0,P|385:292|376:338,1,93.7500035762788
482,198,34221,5,0,0:0:0:0:
388,145,34328,2,0,P|416:181|460:196,1,93.7500035762788
239,122,34649,1,0,0:0:0:0:
333,69,34756,2,0,P|304:105|260:120,1,93.7500035762788
77,74,35078,5,0,0:0:0:0:
232,298,35185,2,0,P|213:255|175:229,1,93.7500035762788
2,214,35507,2,0,P|47:219|89:199,1,93.7500035762788
160,96,35828,2,0,L|155:142,1,46.8750017881394
232,298,36042,6,0,P|260:334|304:349,1,93.7500035762788
401,209,36364,1,0,0:0:0:0:
309,264,36471,2,0,P|354:257|389:227,1,93.7500035762788
316,73,36792,1,0,0:0:0:0:
318,180,36899,2,0,P|335:137|326:91,1,93.7500035762788
478,167,37221,2,0,P|453:127|454:81,1,93.7500035762788
405,255,37542,2,0,L|401:209,1,46.8750017881394
280,285,37757,6,0,B|249:276|221:283|198:312|198:312|208:263|260:230|324:243|362:300|347:356|309:386,1,328.125012516976
46,349,38614,2,0,B|10:340|-10:318|-10:318|11:367|60:390|114:396|167:380|200:310,1,328.125012516976
66,191,39471,6,0,L|61:254,1,62.5
184,136,40113,1,0,0:0:0:0:
191,223,40220,1,0,0:0:0:0:
199,311,40328,2,0,L|204:373,1,62.5
356,84,40971,5,0,0:0:0:0:
347,188,41078,1,0,0:0:0:0:
337,293,41185,2,0,L|331:355,1,62.5
512,384,41827,1,0,0:0:0:0:
505,297,41934,1,0,0:0:0:0:
497,209,42042,2,0,L|494:177,1,31.25
493,160,42364,5,0,0:0:0:0:
451,37,42471,1,0,0:0:0:0:
410,121,42578,1,0,0:0:0:0:
325,161,42685,1,0,0:0:0:0:
241,139,42792,1,0,0:0:0:0:
184,72,42899,2,0,L|121:67,1,62.5
0,250,43542,1,0,0:0:0:0:
104,241,43649,1,0,0:0:0:0:
209,231,43756,2,0,L|271:225,1,62.5
507,341,44399,5,0,0:0:0:0:
420,334,44506,1,0,0:0:0:0:
332,326,44614,2,0,L|269:320,1,62.5
201,146,45257,1,0,0:0:0:0:
288,139,45364,1,0,0:0:0:0:
376,131,45471,2,0,L|422:126,1,46.875
473,249,45899,2,0,L|426:244,1,46.875
57,149,46328,6,0,L|51:211,1,62.5
163,45,46971,1,0,0:0:0:0:
172,149,47078,1,0,0:0:0:0:
182,254,47185,2,0,L|188:316,1,62.5
386,7,47828,5,0,0:0:0:0:
376,131,47935,1,0,0:0:0:0:
364,257,48042,2,0,L|359:319,1,62.5
71,384,48685,1,0,0:0:0:0:
78,297,48792,1,0,0:0:0:0:
86,209,48900,2,0,L|88:177,1,31.25
90,160,49222,5,0,0:0:0:0:
132,37,49329,1,0,0:0:0:0:
173,121,49436,1,0,0:0:0:0:
258,161,49543,1,0,0:0:0:0:
342,139,49650,1,0,0:0:0:0:
399,72,49757,2,0,L|462:67,1,62.5
464,333,50399,1,0,0:0:0:0:
377,326,50506,1,0,0:0:0:0:
289,318,50614,2,0,L|226:312,1,62.5
135,190,51257,5,0,0:0:0:0:
259,180,51364,1,0,0:0:0:0:
385,168,51471,2,0,L|447:162,1,62.5
226,79,52114,6,0,L|249:81,3,23.4375008940697
119,167,52328,6,0,B|154:116|143:49|97:25|97:25|54:55|47:122|91:180|91:180|118:224|115:302|53:330|53:330|40:285|12:252|12:252|58:225|103:224|142:257|142:257|177:286|236:282|266:246,1,875
386,21,53185,6,0,P|372:48|370:79,1,62.5
317,146,54042,2,0,P|324:176|343:201,1,62.5
344,286,54899,2,0,P|369:304|399:311,1,62.5
454,375,55757,2,0,P|484:372|512:358,1,62.5
141,79,56614,6,0,P|139:48|126:21,1,62.5
168,201,57471,2,0,P|187:176|195:146,1,62.5
112,311,58328,2,0,P|142:304|168:286,1,62.5
0,358,59186,2,0,P|27:372|58:375,1,62.5
370,79,60042,6,0,P|372:48|386:20,1,62.5
168,201,60899,2,0,P|187:176|195:146,1,62.5
399,311,61757,2,0,P|369:304|344:286,1,62.5
0,358,62614,2,0,P|27:372|58:375,1,62.5
141,79,63471,6,0,P|139:48|126:21,1,62.5
343,201,64221,1,0,0:0:0:0:
343,201,64274,1,0,0:0:0:0:
343,201,64328,2,0,P|324:176|317:146,1,62.5
112,311,65185,2,0,P|142:304|168:286,1,62.5
462,269,65828,6,0,L|464:292,3,23.4375008940697
512,358,66042,2,0,P|484:372|454:375,1,62.5
112,35,66899,6,0,L|205:43,1,93.75
227,46,67328,1,0,0:0:0:0:
352,57,67757,2,0,L|227:46,1,125
351,56,68399,2,0,L|382:58,1,31.25
296,251,68614,6,0,L|358:245,1,62.5
208,258,69042,1,0,0:0:0:0:
445,237,69257,1,0,0:0:0:0:
176,261,69471,2,0,L|51:271,1,125
176,261,70114,2,0,L|207:258,1,31.25
106,123,70328,6,0,L|199:131,1,93.75
221,134,70757,1,0,0:0:0:0:
221,134,70971,1,0,0:0:0:0:
346,145,71186,2,0,L|221:134,1,125
346,145,71828,2,0,L|377:147,1,31.25
301,341,72042,6,0,L|363:335,1,62.5
213,348,72470,1,0,0:0:0:0:
450,327,72685,1,0,0:0:0:0:
56,361,72899,6,0,L|181:351,1,125
181,351,73542,6,0,L|212:348,1,31.25
137,125,73757,6,0,L|106:123,3,31.25
207,258,74185,2,0,L|175:260,3,31.25
240,110,74614,5,0,0:0:0:0:
237,141,74721,1,0,0:0:0:0:
245,171,74829,1,0,0:0:0:0:
264,196,74935,1,0,0:0:0:0:
282,220,75042,1,0,0:0:0:0:
291,250,75149,1,0,0:0:0:0:
288,281,75256,1,0,0:0:0:0:
274,309,75363,1,0,0:0:0:0:
207,258,75471,5,0,0:0:0:0:
250,225,75578,1,0,0:0:0:0:
304,223,75685,1,0,0:0:0:0:
349,252,75792,1,0,0:0:0:0:
370,302,75899,1,0,0:0:0:0:
385,339,76007,1,0,0:0:0:0:
420,360,76114,1,0,0:0:0:0:
460,359,76221,1,0,0:0:0:0:
512,291,76328,5,0,0:0:0:0:
509,260,76435,1,0,0:0:0:0:
506,229,76542,1,0,0:0:0:0:
504,198,76649,1,0,0:0:0:0:
447,135,76757,5,0,0:0:0:0:
449,111,76864,1,0,0:0:0:0:
451,88,76971,1,0,0:0:0:0:
453,65,77078,1,0,0:0:0:0:
396,2,77185,5,0,0:0:0:0:
256,192,77292,12,0,79757,0:0:0:0:
84,112,80614,6,0,B|68:113|68:113|52:122|52:122|69:129|69:129|109:125|109:125|124:116|124:116|141:123|141:123|200:117,1,187.500007152558
316,53,80828,2,0,B|294:26|294:26|283:146|283:146|309:124,1,187.500007152558
387,143,81042,6,0,L|389:174,7,31.25
461,284,81471,6,0,B|487:262|487:262|397:255,1,125
262,335,81685,2,0,B|236:313|236:313|327:306,1,125
389,174,81899,6,0,L|342:169,1,46.8750017881394
236,313,82007,2,0,L|282:308,1,46.8750017881394
443,250,82114,2,0,L|396:254,1,46.8750017881394
182,228,82221,2,0,L|228:232,1,46.8750017881394
219,106,82328,6,0,L|223:152,1,46.8750017881394
92,337,82435,2,0,L|96:290,1,46.8750017881394
64,65,82542,2,0,L|59:111,1,46.8750017881394
186,274,82649,2,0,L|182:228,1,46.8750017881394
223,59,82757,6,0,L|218:105,1,46.8750017881394
96,290,82864,2,0,L|100:243,1,46.8750017881394
140,0,82971,2,0,L|144:46,1,46.8750017881394
282,308,83078,2,0,L|277:261,1,46.8750017881394
35,214,83185,6,0,B|9:236|9:236|99:243,1,125
194,158,83399,2,0,B|215:131|215:131|125:140,1,125
335,240,83614,6,0,P|358:113|364:241,1,375
475,343,84042,6,0,B|491:336|491:336|506:345|506:345|482:351|482:351|459:341|459:341|434:347|434:347|411:337|411:337|386:343|386:343|354:340,1,187.500007152558
203,259,84257,2,0,B|178:253|178:253|201:243|201:243|226:248|226:248|250:246|250:246|273:236|273:236|297:242|297:242|334:239,1,187.500007152558
429,204,84471,6,0,L|427:235,7,31.25
505,104,84899,6,0,B|526:130|526:130|436:121,1,125
248,28,85114,2,0,B|226:54|226:54|316:45,1,125
436,121,85328,6,0,L|389:116,1,46.8750017881394
226,55,85435,2,0,L|273:50,1,46.8750017881394
475,29,85542,2,0,L|428:34,1,46.8750017881394
255,176,85649,2,0,L|302:181,1,46.8750017881394
272,50,85757,6,0,L|267:97,1,46.8750017881394
284,306,85864,2,0,L|289:259,1,46.8750017881394
171,114,85971,2,0,L|176:161,1,46.8750017881394
385,242,86078,2,0,L|380:195,1,46.8750017881394
75,232,86185,6,0,L|122:227,1,46.8750017881394
302,181,86292,2,0,L|255:176,1,46.8750017881394
0,148,86399,2,0,L|47:153,1,46.8750017881394
345,90,86507,2,0,L|298:95,1,46.8750017881394
106,11,86614,6,0,B|80:-10|80:-10|89:80,1,125
175,309,86828,2,0,B|196:334|196:334|203:244,1,125
313,90,87042,6,0,P|331:217|345:90,1,375
465,250,87471,6,0,B|459:225|459:225|479:178|479:178|472:162|472:162|482:147|482:147|470:97|470:97|480:74,1,187.500007152558
353,348,87685,2,0,B|342:324|342:324|356:291|356:291|336:253|336:253|349:211|349:211|339:196|339:196|326:229,1,187.500007152558
41,125,87899,5,0,0:0:0:0:
59,208,88007,1,0,0:0:0:0:
158,97,88113,1,0,0:0:0:0:
136,231,88221,1,0,0:0:0:0:
278,100,88327,1,0,0:0:0:0:
204,273,88435,1,0,0:0:0:0:
393,134,88541,1,0,0:0:0:0:
259,331,88649,1,0,0:0:0:0:
278,100,88757,5,0,0:0:0:0:
425,326,88864,1,0,0:0:0:0:
351,63,88971,1,0,0:0:0:0:
181,349,89078,1,0,0:0:0:0:
166,90,89185,6,0,B|149:96|149:96|172:106|172:106|197:100|197:100|220:110|220:110|244:104|244:104|268:115|268:115|292:109|292:109|277:99,1,187.500007152558
472,225,89399,2,0,B|488:231|488:231|465:241|465:241|440:235|440:235|417:245|417:245|393:239|393:239|369:250|369:250|345:244|345:244|360:234,1,187.500007152558
181,349,89614,5,0,0:0:0:0:
131,173,89721,1,0,0:0:0:0:
288,339,89828,1,0,0:0:0:0:
293,110,89935,1,0,0:0:0:0:
0,254,90042,6,0,B|33:232|33:232|63:259|63:259|89:245|89:245|111:263|111:263|136:257|136:257|159:267,1,187.500007152558
417,121,90257,6,0,P|409:134|405:149,1,31.25
401,321,90364,2,0,P|396:306|395:290,1,31.25
308,83,90471,2,0,P|298:95|292:109,1,31.25
288,339,90578,2,0,P|280:325|276:310,1,31.25
207,28,90685,2,0,P|195:38|186:51,1,31.25
179,376,90792,2,0,P|169:363|163:349,1,31.25
0,158,90899,6,0,P|77:110|162:140,1,187.500007152558
288,339,91114,1,0,0:0:0:0:
264,151,91221,1,0,0:0:0:0:
392,280,91328,1,0,0:0:0:0:
345,153,91435,1,0,0:0:0:0:
480,198,91542,1,0,0:0:0:0:
422,135,91649,1,0,0:0:0:0:
450,356,91757,6,0,P|372:308|287:338,1,187.500007152558
0,192,91971,1,0,0:0:0:0:
9,381,92078,1,0,0:0:0:0:
112,232,92185,1,0,0:0:0:0:
88,365,92292,1,0,0:0:0:0:
213,297,92399,1,0,0:0:0:0:
167,369,92506,1,0,0:0:0:0:
95,125,92614,6,0,B|71:172|-11:176|-51:135|-51:135|-32:78|47:52|107:94|107:94|161:131|242:134|294:73,1,562.500021457673
437,342,93042,2,0,B|461:389|543:393|583:352|583:352|564:295|485:269|425:311|425:311|371:348|290:351|238:290,1,562.500021457673
73,382,93471,6,0,B|2:293|65:202|167:165|258:226|282:332|197:398|197:398|196:358|183:335|144:317,1,562.500021457673
507,51,93899,2,0,B|578:140|515:231|413:268|322:207|298:101|383:35|383:35|384:75|397:98|436:116,1,562.500021457673
428,112,94328,6,0,B|444:113|444:113|460:122|460:122|443:129|443:129|403:125|403:125|388:116|388:116|371:123|371:123|312:117,1,187.500007152558
196,53,94542,2,0,B|218:26|218:26|229:146|229:146|203:124,1,187.500007152558
125,143,94756,6,0,L|123:174,7,31.25
51,284,95185,6,0,B|25:262|25:262|115:255,1,125
250,335,95399,2,0,B|276:313|276:313|185:306,1,125
123,174,95613,6,0,L|170:169,1,46.8750017881394
276,313,95721,2,0,L|230:308,1,46.8750017881394
69,250,95828,2,0,L|116:254,1,46.8750017881394
330,228,95935,2,0,L|284:232,1,46.8750017881394
293,106,96042,6,0,L|289:152,1,46.8750017881394
420,337,96149,2,0,L|416:290,1,46.8750017881394
448,65,96256,2,0,L|453:111,1,46.8750017881394
326,274,96363,2,0,L|330:228,1,46.8750017881394
289,59,96471,6,0,L|294:105,1,46.8750017881394
416,290,96578,2,0,L|412:243,1,46.8750017881394
372,0,96685,2,0,L|368:46,1,46.8750017881394
230,308,96792,2,0,L|235:261,1,46.8750017881394
477,214,96899,6,0,B|503:236|503:236|413:243,1,125
318,158,97113,2,0,B|297:131|297:131|387:140,1,125
177,240,97328,6,0,P|154:113|148:241,1,375
37,343,97756,6,0,B|21:336|21:336|6:345|6:345|30:351|30:351|53:341|53:341|78:347|78:347|101:337|101:337|126:343|126:343|158:340,1,187.500007152558
309,259,97971,2,0,B|334:253|334:253|311:243|311:243|286:248|286:248|262:246|262:246|239:236|239:236|215:242|215:242|178:239,1,187.500007152558
83,204,98185,6,0,L|85:235,7,31.25
7,104,98613,6,0,B|-14:130|-14:130|76:121,1,125
264,28,98828,2,0,B|286:54|286:54|196:45,1,125
76,121,99042,6,0,L|123:116,1,46.8750017881394
286,55,99149,2,0,L|239:50,1,46.8750017881394
37,29,99256,2,0,L|84:34,1,46.8750017881394
257,176,99363,2,0,L|210:181,1,46.8750017881394
240,50,99471,6,0,L|245:97,1,46.8750017881394
228,306,99578,2,0,L|223:259,1,46.8750017881394
341,114,99685,2,0,L|336:161,1,46.8750017881394
127,242,99792,2,0,L|132:195,1,46.8750017881394
437,232,99899,6,0,L|390:227,1,46.8750017881394
210,181,100006,2,0,L|257:176,1,46.8750017881394
512,148,100113,2,0,L|465:153,1,46.8750017881394
167,90,100221,2,0,L|214:95,1,46.8750017881394
406,11,100328,6,0,B|432:-10|432:-10|423:80,1,125
337,309,100542,2,0,B|316:334|316:334|309:244,1,125
199,90,100756,6,0,P|181:217|167:90,1,375
47,250,101185,6,0,B|52:225|52:225|32:178|32:178|39:162|39:162|29:147|29:147|41:97|41:97|31:74,1,187.500007152558
159,348,101399,2,0,B|169:324|169:324|155:291|155:291|175:253|175:253|162:211|162:211|172:196|172:196|185:229,1,187.500007152558
471,125,101613,5,0,0:0:0:0:
453,208,101721,1,0,0:0:0:0:
354,97,101827,1,0,0:0:0:0:
376,231,101935,1,0,0:0:0:0:
234,100,102041,1,0,0:0:0:0:
308,273,102149,1,0,0:0:0:0:
119,134,102255,1,0,0:0:0:0:
253,331,102363,1,0,0:0:0:0:
234,100,102471,5,0,0:0:0:0:
87,326,102578,1,0,0:0:0:0:
161,63,102685,1,0,0:0:0:0:
331,349,102792,1,0,0:0:0:0:
346,90,102899,6,0,B|362:96|362:96|339:106|339:106|314:100|314:100|291:110|291:110|267:104|267:104|243:115|243:115|219:109|219:109|234:99,1,187.500007152558
40,225,103113,2,0,B|23:231|23:231|46:241|46:241|71:235|71:235|94:245|94:245|118:239|118:239|142:250|142:250|166:244|166:244|151:234,1,187.500007152558
331,349,103328,5,0,0:0:0:0:
381,173,103435,1,0,0:0:0:0:
224,339,103542,1,0,0:0:0:0:
219,110,103649,1,0,0:0:0:0:
512,254,103756,6,0,B|478:232|478:232|448:259|448:259|422:245|422:245|400:263|400:263|375:257|375:257|352:267,1,187.500007152558
95,121,103971,6,0,P|102:134|106:149,1,31.25
111,321,104078,2,0,P|115:306|116:290,1,31.25
204,83,104185,2,0,P|213:95|219:109,1,31.25
224,339,104292,2,0,P|231:325|235:310,1,31.25
305,28,104399,2,0,P|316:38|325:51,1,31.25
333,376,104506,2,0,P|342:363|348:349,1,31.25
512,158,104613,6,0,P|434:110|349:140,1,187.500007152558
224,339,104828,1,0,0:0:0:0:
248,151,104935,1,0,0:0:0:0:
120,280,105042,1,0,0:0:0:0:
167,153,105149,1,0,0:0:0:0:
32,198,105256,1,0,0:0:0:0:
90,135,105363,1,0,0:0:0:0:
62,356,105471,6,0,P|139:308|224:338,1,187.500007152558
512,192,105685,1,0,0:0:0:0:
503,381,105792,1,0,0:0:0:0:
400,232,105899,1,0,0:0:0:0:
424,365,106006,1,0,0:0:0:0:
299,297,106113,1,0,0:0:0:0:
345,369,106220,1,0,0:0:0:0:
417,125,106328,6,0,B|441:172|523:176|563:135|563:135|544:78|465:52|405:94|405:94|351:131|270:134|218:73,1,562.500021457673
75,342,106756,2,0,B|51:389|-31:393|-71:352|-71:352|-52:295|27:269|87:311|87:311|141:348|222:351|274:290,1,562.500021457673
439,382,107185,6,0,B|510:293|447:202|345:165|254:226|230:332|315:398|315:398|316:358|329:335|368:317,1,562.500021457673
5,51,107613,2,0,B|-66:140|-3:231|99:268|190:207|214:101|129:35|129:35|128:75|115:98|76:116,1,562.500021457673
222,216,108042,5,0,0:0:0:0:
256,192,108096,12,0,113185,0:0:0:0:
