osu file format v14

[General]
AudioFilename: audio.mp3
AudioLeadIn: 0
PreviewTime: -1
Countdown: 0
SampleSet: Normal
StackLeniency: 0.7
Mode: 3
LetterboxInBreaks: 0
SpecialStyle: 0
WidescreenStoryboard: 1

[Editor]
DistanceSpacing: 1
BeatDivisor: 16
GridSize: 32
TimelineZoom: 2.799999

[Metadata]
Title:Apocalypse (feat. Lucy)
TitleUnicode:Apocalypse (feat. Lucy)
Artist:M2U x NICODE
ArtistUnicode:M2U x NICODE
Creator:[Nery]
Version:4K Normal
Source:
Tags:Stepmania, Pump It Up, Ride Zero, Deemo
BeatmapID:1737755
BeatmapSetID:829437

[Difficulty]
HPDrainRate:7
CircleSize:4
OverallDifficulty:5
ApproachRate:5
SliderMultiplier:1.4
SliderTickRate:1

[Events]
//Background and Video events
0,0,"apocalpyse.jpg",0,0
//Break Periods
//Storyboard Layer 0 (Background)
//Storyboard Layer 1 (Fail)
//Storyboard Layer 2 (Pass)
//Storyboard Layer 3 (Foreground)
//Storyboard Sound Samples

[TimingPoints]
894,428.571428571429,4,1,0,0,1,0

[HitObjects]
64,192,894,128,0,1751:0:0:0:0:
448,192,1751,1,0,0:0:0:0:
192,192,1751,128,0,2608:0:0:0:0:
448,192,2608,128,0,3251:0:0:0:0:
64,192,2608,1,0,0:0:0:0:
320,192,3251,128,0,3465:0:0:0:0:
192,192,3465,1,0,0:0:0:0:
448,192,3465,128,0,4322:0:0:0:0:
64,192,4322,1,0,0:0:0:0:
448,192,4751,128,0,5179:0:0:0:0:
64,192,5179,1,0,0:0:0:0:
192,192,5179,128,0,6036:0:0:0:0:
64,192,6036,1,0,0:0:0:0:
320,192,6036,128,0,7751:0:0:0:0:
64,192,6894,1,0,0:0:0:0:
64,192,7751,128,0,8608:0:0:0:0:
192,192,7751,1,0,0:0:0:0:
192,192,8608,1,0,0:0:0:0:
448,192,8608,128,0,9894:0:0:0:0:
64,192,9465,1,0,0:0:0:0:
192,192,9894,128,0,10108:0:0:0:0:
64,192,10108,128,0,10322:0:0:0:0:
192,192,10322,1,0,0:0:0:0:
320,192,10322,128,0,11179:0:0:0:0:
64,192,11179,1,0,0:0:0:0:
448,192,11179,128,0,12465:0:0:0:0:
192,192,12036,1,0,0:0:0:0:
320,192,12465,128,0,12894:0:0:0:0:
64,192,12894,1,0,0:0:0:0:
192,192,12894,128,0,13322:0:0:0:0:
64,192,13322,128,0,13751:0:0:0:0:
192,192,13751,1,0,0:0:0:0:
448,192,13751,128,0,15036:0:0:0:0:
192,192,14608,1,0,0:0:0:0:
192,192,15036,128,0,15465:0:0:0:0:
320,192,15465,128,0,15894:0:0:0:0:
64,192,15465,128,0,16322:0:0:0:0:
448,192,15894,128,0,16322:0:0:0:0:
320,192,16322,1,0,0:0:0:0:
192,192,16322,128,0,17179:0:0:0:0:
64,192,17179,1,0,0:0:0:0:
320,192,17179,128,0,18036:0:0:0:0:
448,192,18036,128,0,18679:0:0:0:0:
320,192,18679,128,0,19108:0:0:0:0:
64,192,19108,128,0,20608:0:0:0:0:
192,192,19215,128,0,20608:0:0:0:0:
320,192,19322,128,0,20608:0:0:0:0:
448,192,19429,128,0,20608:0:0:0:0:
448,192,20715,128,0,24894:0:0:0:0:
320,192,20822,128,0,25108:0:0:0:0:
192,192,20929,128,0,25322:0:0:0:0:
64,192,21036,128,0,25536:0:0:0:0:
448,192,25777,1,0,0:0:0:0:
320,192,25777,128,0,26420:0:0:0:0:
64,192,25777,1,0,0:0:0:0:
192,192,25777,1,0,0:0:0:0:
448,192,26474,1,0,0:0:0:0:
192,192,26581,1,0,0:0:0:0:
64,192,26688,128,0,27251:0:0:0:0:
448,192,27251,1,0,0:0:0:0:
320,192,27385,1,0,0:0:0:0:
64,192,27492,1,0,0:0:0:0:
448,192,27652,128,0,27867:0:0:0:0:
192,192,27867,1,0,0:0:0:0:
64,192,27974,1,0,0:0:0:0:
192,192,28108,1,0,0:0:0:0:
448,192,28108,1,0,0:0:0:0:
320,192,28242,1,0,0:0:0:0:
64,192,28376,128,0,28804:0:0:0:0:
192,192,28376,1,0,0:0:0:0:
320,192,28804,1,0,0:0:0:0:
448,192,28965,1,0,0:0:0:0:
320,192,29099,1,0,0:0:0:0:
192,192,29233,128,0,29795:0:0:0:0:
320,192,29795,1,0,0:0:0:0:
448,192,29956,1,0,0:0:0:0:
320,192,30090,128,0,30679:0:0:0:0:
192,192,30679,1,0,0:0:0:0:
64,192,30813,1,0,0:0:0:0:
192,192,30947,128,0,31858:0:0:0:0:
64,192,31858,128,0,32635:0:0:0:0:
320,192,32635,128,0,33063:0:0:0:0:
192,192,32635,1,0,0:0:0:0:
448,192,32635,1,0,0:0:0:0:
64,192,33063,1,0,0:0:0:0:
448,192,33063,128,0,35206:0:0:0:0:
192,192,33170,1,0,0:0:0:0:
320,192,33411,1,0,0:0:0:0:
192,192,33519,1,0,0:0:0:0:
192,192,33840,1,0,0:0:0:0:
64,192,33947,1,0,0:0:0:0:
320,192,34269,1,0,0:0:0:0:
192,192,34376,1,0,0:0:0:0:
192,192,34697,1,0,0:0:0:0:
64,192,34804,1,0,0:0:0:0:
192,192,35072,1,0,0:0:0:0:
320,192,35206,128,0,35635:0:0:0:0:
64,192,35206,1,0,0:0:0:0:
64,192,35474,1,0,0:0:0:0:
448,192,35635,128,0,36063:0:0:0:0:
64,192,35769,1,0,0:0:0:0:
64,192,36063,1,0,0:0:0:0:
320,192,36063,128,0,36760:0:0:0:0:
64,192,36813,1,0,0:0:0:0:
320,192,36920,128,0,37831:0:0:0:0:
192,192,37831,128,0,38688:0:0:0:0:
448,192,37831,128,0,38688:0:0:0:0:
64,192,38688,128,0,39492:0:0:0:0:
320,192,38688,128,0,39492:0:0:0:0:
192,192,39492,1,0,0:0:0:0:
448,192,39492,1,0,0:0:0:0:
64,192,39920,1,0,0:0:0:0:
192,192,40027,1,0,0:0:0:0:
320,192,40135,1,0,0:0:0:0:
448,192,40242,1,0,0:0:0:0:
64,192,40349,128,0,41099:0:0:0:0:
320,192,40349,1,0,0:0:0:0:
192,192,40992,1,0,0:0:0:0:
448,192,41099,1,0,0:0:0:0:
320,192,41206,128,0,41849:0:0:0:0:
64,192,41849,1,0,0:0:0:0:
192,192,41956,1,0,0:0:0:0:
64,192,42063,128,0,42385:0:0:0:0:
448,192,42385,1,0,0:0:0:0:
320,192,42492,1,0,0:0:0:0:
192,192,42599,1,0,0:0:0:0:
448,192,42599,1,0,0:0:0:0:
64,192,42706,1,0,0:0:0:0:
192,192,42813,1,0,0:0:0:0:
320,192,42920,128,0,43188:0:0:0:0:
448,192,42920,1,0,0:0:0:0:
192,192,43188,128,0,43402:0:0:0:0:
320,192,43402,128,0,43563:0:0:0:0:
64,192,43563,1,0,0:0:0:0:
448,192,43563,1,0,0:0:0:0:
192,192,43670,1,0,0:0:0:0:
320,192,43670,1,0,0:0:0:0:
64,192,43777,128,0,44313:0:0:0:0:
448,192,43777,128,0,44313:0:0:0:0:
192,192,44420,1,0,0:0:0:0:
320,192,44527,1,0,0:0:0:0:
64,192,44635,128,0,45063:0:0:0:0:
448,192,44635,128,0,45063:0:0:0:0:
192,192,45063,1,0,0:0:0:0:
320,192,45063,1,0,0:0:0:0:
192,192,45277,1,0,0:0:0:0:
320,192,45277,1,0,0:0:0:0:
64,192,45385,1,0,0:0:0:0:
448,192,45385,1,0,0:0:0:0:
192,192,45492,128,0,45920:0:0:0:0:
320,192,45492,128,0,45920:0:0:0:0:
448,192,45920,128,0,46376:0:0:0:0:
192,192,46376,1,0,0:0:0:0:
64,192,46376,1,0,0:0:0:0:
320,192,46590,1,0,0:0:0:0:
192,192,46590,1,0,0:0:0:0:
448,192,46804,1,0,0:0:0:0:
320,192,46804,1,0,0:0:0:0:
64,192,47019,1,0,0:0:0:0:
448,192,47019,1,0,0:0:0:0:
192,192,47126,1,0,0:0:0:0:
320,192,47126,1,0,0:0:0:0:
64,192,47233,128,0,47849:0:0:0:0:
448,192,47233,128,0,47849:0:0:0:0:
192,192,47849,1,0,0:0:0:0:
320,192,47849,1,0,0:0:0:0:
64,192,47956,1,0,0:0:0:0:
448,192,47956,1,0,0:0:0:0:
192,192,48063,128,0,48706:0:0:0:0:
320,192,48063,128,0,48706:0:0:0:0:
64,192,48813,1,0,0:0:0:0:
448,192,48813,1,0,0:0:0:0:
320,192,48920,1,0,0:0:0:0:
192,192,48920,1,0,0:0:0:0:
448,192,49027,1,0,0:0:0:0:
64,192,49027,1,0,0:0:0:0:
192,192,49135,1,0,0:0:0:0:
320,192,49242,1,0,0:0:0:0:
192,192,49349,1,0,0:0:0:0:
64,192,49456,1,0,0:0:0:0:
192,192,49563,1,0,0:0:0:0:
320,192,49670,1,0,0:0:0:0:
192,192,49777,1,0,0:0:0:0:
64,192,49777,128,0,50527:0:0:0:0:
448,192,49777,128,0,50527:0:0:0:0:
192,192,50527,1,0,0:0:0:0:
320,192,50527,1,0,0:0:0:0:
64,192,50635,1,0,0:0:0:0:
448,192,50635,1,0,0:0:0:0:
192,192,50742,128,0,51170:0:0:0:0:
320,192,50742,128,0,51170:0:0:0:0:
64,192,51277,1,0,0:0:0:0:
448,192,51277,1,0,0:0:0:0:
192,192,51385,1,0,0:0:0:0:
320,192,51385,1,0,0:0:0:0:
64,192,51492,128,0,53179:0:0:0:0:
448,192,51492,1,0,0:0:0:0:
320,192,51813,1,0,0:0:0:0:
448,192,52135,1,0,0:0:0:0:
320,192,52188,1,0,0:0:0:0:
192,192,52242,1,0,0:0:0:0:
320,192,52295,1,0,0:0:0:0:
448,192,52349,1,0,0:0:0:0:
448,192,53179,1,0,0:0:0:0:
320,192,53179,1,0,0:0:0:0:
192,192,53179,1,0,0:0:0:0:
192,192,53635,128,0,54063:0:0:0:0:
320,192,54063,128,0,54492:0:0:0:0:
64,192,54063,1,0,0:0:0:0:
448,192,54492,128,0,55349:0:0:0:0:
192,192,55349,1,0,0:0:0:0:
320,192,55349,128,0,56206:0:0:0:0:
64,192,55777,1,0,0:0:0:0:
448,192,56206,128,0,57063:0:0:0:0:
192,192,56635,1,0,0:0:0:0:
320,192,57063,128,0,57492:0:0:0:0:
192,192,57492,128,0,57920:0:0:0:0:
64,192,57492,1,0,0:0:0:0:
320,192,57920,128,0,58777:0:0:0:0:
64,192,58777,128,0,59635:0:0:0:0:
192,192,58777,1,0,0:0:0:0:
320,192,59206,1,0,0:0:0:0:
448,192,59635,128,0,60492:0:0:0:0:
192,192,60063,1,0,0:0:0:0:
320,192,60492,128,0,60920:0:0:0:0:
192,192,60920,128,0,61349:0:0:0:0:
448,192,60920,1,0,0:0:0:0:
64,192,61349,128,0,62206:0:0:0:0:
192,192,62206,1,0,0:0:0:0:
448,192,62206,128,0,62956:0:0:0:0:
64,192,62635,1,0,0:0:0:0:
320,192,62956,128,0,63492:0:0:0:0:
448,192,63492,1,0,0:0:0:0:
192,192,63492,128,0,65206:0:0:0:0:
320,192,64349,1,0,0:0:0:0:
64,192,65206,128,0,66063:0:0:0:0:
320,192,65206,1,0,0:0:0:0:
192,192,65527,1,0,0:0:0:0:
192,192,65849,1,0,0:0:0:0:
320,192,65902,1,0,0:0:0:0:
448,192,65956,1,0,0:0:0:0:
192,192,66063,128,0,66920:0:0:0:0:
448,192,66920,1,0,0:0:0:0:
64,192,67027,1,0,0:0:0:0:
192,192,67135,1,0,0:0:0:0:
448,192,67242,1,0,0:0:0:0:
320,192,67349,1,0,0:0:0:0:
192,192,67456,1,0,0:0:0:0:
64,192,67563,1,0,0:0:0:0:
192,192,67670,1,0,0:0:0:0:
448,192,67777,1,0,0:0:0:0:
320,192,67885,1,0,0:0:0:0:
448,192,67992,1,0,0:0:0:0:
64,192,67992,1,0,0:0:0:0:
192,192,68099,1,0,0:0:0:0:
320,192,68206,1,0,0:0:0:0:
448,192,68313,1,0,0:0:0:0:
192,192,68420,1,0,0:0:0:0:
64,192,68527,1,0,0:0:0:0:
192,192,68635,1,0,0:0:0:0:
448,192,68742,1,0,0:0:0:0:
64,192,68849,1,0,0:0:0:0:
320,192,68956,1,0,0:0:0:0:
64,192,69063,1,0,0:0:0:0:
320,192,69170,1,0,0:0:0:0:
192,192,69277,1,0,0:0:0:0:
320,192,69385,1,0,0:0:0:0:
448,192,69492,1,0,0:0:0:0:
192,192,69599,1,0,0:0:0:0:
64,192,69706,1,0,0:0:0:0:
320,192,69813,1,0,0:0:0:0:
64,192,69920,1,0,0:0:0:0:
448,192,69920,1,0,0:0:0:0:
320,192,70027,1,0,0:0:0:0:
192,192,70135,1,0,0:0:0:0:
320,192,70242,1,0,0:0:0:0:
448,192,70349,1,0,0:0:0:0:
320,192,70456,1,0,0:0:0:0:
192,192,70563,1,0,0:0:0:0:
64,192,70670,1,0,0:0:0:0:
192,192,70777,1,0,0:0:0:0:
320,192,70885,1,0,0:0:0:0:
448,192,70992,1,0,0:0:0:0:
64,192,71099,1,0,0:0:0:0:
192,192,71099,1,0,0:0:0:0:
320,192,71206,1,0,0:0:0:0:
64,192,71313,1,0,0:0:0:0:
448,192,71420,1,0,0:0:0:0:
320,192,71527,1,0,0:0:0:0:
448,192,71635,1,0,0:0:0:0:
64,192,71635,1,0,0:0:0:0:
320,192,71742,1,0,0:0:0:0:
64,192,71849,1,0,0:0:0:0:
320,192,71983,1,0,0:0:0:0:
192,192,72063,1,0,0:0:0:0:
448,192,72170,1,0,0:0:0:0:
192,192,72277,1,0,0:0:0:0:
64,192,72385,1,0,0:0:0:0:
320,192,72492,1,0,0:0:0:0:
448,192,72599,1,0,0:0:0:0:
64,192,72706,1,0,0:0:0:0:
448,192,72813,1,0,0:0:0:0:
192,192,72920,1,0,0:0:0:0:
320,192,72920,1,0,0:0:0:0:
192,192,73777,1,0,0:0:0:0:
448,192,73885,1,0,0:0:0:0:
320,192,73992,1,0,0:0:0:0:
64,192,74099,1,0,0:0:0:0:
192,192,74206,1,0,0:0:0:0:
448,192,74313,1,0,0:0:0:0:
320,192,74420,1,0,0:0:0:0:
64,192,74527,1,0,0:0:0:0:
448,192,74635,1,0,0:0:0:0:
320,192,74742,1,0,0:0:0:0:
192,192,74742,1,0,0:0:0:0:
448,192,74849,1,0,0:0:0:0:
320,192,74956,1,0,0:0:0:0:
64,192,75063,1,0,0:0:0:0:
448,192,75170,1,0,0:0:0:0:
192,192,75277,1,0,0:0:0:0:
448,192,75385,1,0,0:0:0:0:
320,192,75492,1,0,0:0:0:0:
64,192,75599,1,0,0:0:0:0:
192,192,75706,1,0,0:0:0:0:
64,192,75813,1,0,0:0:0:0:
320,192,75920,1,0,0:0:0:0:
448,192,76027,1,0,0:0:0:0:
320,192,76135,1,0,0:0:0:0:
192,192,76242,1,0,0:0:0:0:
448,192,76349,1,0,0:0:0:0:
64,192,76456,1,0,0:0:0:0:
320,192,76456,1,0,0:0:0:0:
448,192,76563,1,0,0:0:0:0:
320,192,76670,1,0,0:0:0:0:
192,192,76777,1,0,0:0:0:0:
64,192,76885,1,0,0:0:0:0:
192,192,76992,1,0,0:0:0:0:
320,192,77099,1,0,0:0:0:0:
448,192,77206,1,0,0:0:0:0:
64,192,77206,128,0,80635:0:0:0:0:
448,192,78063,1,0,0:0:0:0:
320,192,78920,1,0,0:0:0:0:
320,192,79242,1,0,0:0:0:0:
192,192,79563,1,0,0:0:0:0:
320,192,79617,1,0,0:0:0:0:
448,192,79670,1,0,0:0:0:0:
448,192,80635,128,0,80983:0:0:0:0:
320,192,80635,128,0,80983:0:0:0:0:
64,192,81063,128,0,81599:0:0:0:0:
192,192,81170,128,0,81599:0:0:0:0:
448,192,81492,1,0,0:0:0:0:
448,192,81706,1,0,0:0:0:0:
192,192,81920,1,0,0:0:0:0:
64,192,81974,1,0,0:0:0:0:
320,192,82054,1,0,0:0:0:0:
448,192,82135,1,0,0:0:0:0:
192,192,82242,1,0,0:0:0:0:
64,192,82295,1,0,0:0:0:0:
320,192,82376,1,0,0:0:0:0:
448,192,82456,1,0,0:0:0:0:
192,192,82563,1,0,0:0:0:0:
64,192,82617,1,0,0:0:0:0:
320,192,82697,1,0,0:0:0:0:
448,192,82777,1,0,0:0:0:0:
192,192,82885,1,0,0:0:0:0:
64,192,82938,1,0,0:0:0:0:
320,192,83019,1,0,0:0:0:0:
448,192,83099,1,0,0:0:0:0:
192,192,83206,1,0,0:0:0:0:
192,192,83420,1,0,0:0:0:0:
64,192,83635,128,0,84063:0:0:0:0:
320,192,83635,128,0,84063:0:0:0:0:
448,192,84063,128,0,84492:0:0:0:0:
320,192,84492,128,0,85027:0:0:0:0:
64,192,84599,128,0,85027:0:0:0:0:
192,192,84920,1,0,0:0:0:0:
192,192,85135,1,0,0:0:0:0:
448,192,85349,1,0,0:0:0:0:
320,192,85402,1,0,0:0:0:0:
64,192,85483,1,0,0:0:0:0:
192,192,85563,1,0,0:0:0:0:
448,192,85670,1,0,0:0:0:0:
320,192,85724,1,0,0:0:0:0:
64,192,85804,1,0,0:0:0:0:
192,192,85885,1,0,0:0:0:0:
448,192,85992,1,0,0:0:0:0:
320,192,86045,1,0,0:0:0:0:
64,192,86126,1,0,0:0:0:0:
192,192,86206,1,0,0:0:0:0:
448,192,86313,1,0,0:0:0:0:
320,192,86367,1,0,0:0:0:0:
64,192,86447,1,0,0:0:0:0:
192,192,86527,1,0,0:0:0:0:
448,192,86635,1,0,0:0:0:0:
448,192,86795,1,0,0:0:0:0:
192,192,87063,128,0,87492:0:0:0:0:
320,192,87063,128,0,87492:0:0:0:0:
64,192,87492,128,0,87920:0:0:0:0:
192,192,87920,128,0,88349:0:0:0:0:
448,192,88027,128,0,88349:0:0:0:0:
64,192,88349,1,0,0:0:0:0:
64,192,88563,1,0,0:0:0:0:
64,192,88777,1,0,0:0:0:0:
64,192,88992,1,0,0:0:0:0:
192,192,89206,128,0,89635:0:0:0:0:
448,192,89313,128,0,89635:0:0:0:0:
64,192,89635,128,0,90063:0:0:0:0:
320,192,89742,128,0,90063:0:0:0:0:
192,192,90063,1,0,0:0:0:0:
448,192,90063,128,0,90492:0:0:0:0:
320,192,90197,128,0,90492:0:0:0:0:
64,192,90492,128,0,90920:0:0:0:0:
320,192,90626,128,0,90920:0:0:0:0:
192,192,90920,1,0,0:0:0:0:
448,192,90920,128,0,91349:0:0:0:0:
320,192,91054,128,0,91349:0:0:0:0:
192,192,91349,128,0,91777:0:0:0:0:
64,192,91456,128,0,91777:0:0:0:0:
320,192,91777,1,0,0:0:0:0:
448,192,91777,128,0,92206:0:0:0:0:
64,192,91885,128,0,92206:0:0:0:0:
320,192,92206,128,0,92635:0:0:0:0:
192,192,92313,128,0,92635:0:0:0:0:
64,192,92635,1,0,0:0:0:0:
448,192,92635,128,0,93063:0:0:0:0:
64,192,93063,128,0,93492:0:0:0:0:
192,192,93170,128,0,93492:0:0:0:0:
320,192,93492,1,0,0:0:0:0:
448,192,93492,128,0,94349:0:0:0:0:
320,192,94349,128,0,94670:0:0:0:0:
192,192,94349,128,0,94670:0:0:0:0:
64,192,94777,128,0,95313:0:0:0:0:
192,192,94885,128,0,95313:0:0:0:0:
448,192,95206,1,0,0:0:0:0:
448,192,95420,1,0,0:0:0:0:
64,192,95635,1,0,0:0:0:0:
192,192,95688,1,0,0:0:0:0:
320,192,95769,1,0,0:0:0:0:
64,192,95849,1,0,0:0:0:0:
192,192,95956,1,0,0:0:0:0:
320,192,96010,1,0,0:0:0:0:
448,192,96090,1,0,0:0:0:0:
64,192,96117,1,0,0:0:0:0:
192,192,96197,1,0,0:0:0:0:
320,192,96277,1,0,0:0:0:0:
448,192,96385,1,0,0:0:0:0:
192,192,96438,1,0,0:0:0:0:
320,192,96519,1,0,0:0:0:0:
448,192,96599,1,0,0:0:0:0:
64,192,96706,1,0,0:0:0:0:
448,192,96760,1,0,0:0:0:0:
192,192,96840,1,0,0:0:0:0:
192,192,97054,1,0,0:0:0:0:
64,192,97349,128,0,97777:0:0:0:0:
320,192,97349,128,0,97777:0:0:0:0:
448,192,97777,128,0,98206:0:0:0:0:
320,192,98206,128,0,98742:0:0:0:0:
64,192,98313,128,0,98742:0:0:0:0:
192,192,98635,1,0,0:0:0:0:
192,192,98849,1,0,0:0:0:0:
448,192,99063,1,0,0:0:0:0:
320,192,99117,1,0,0:0:0:0:
192,192,99197,1,0,0:0:0:0:
64,192,99277,1,0,0:0:0:0:
448,192,99385,1,0,0:0:0:0:
320,192,99438,1,0,0:0:0:0:
192,192,99519,1,0,0:0:0:0:
64,192,99599,1,0,0:0:0:0:
448,192,99706,1,0,0:0:0:0:
320,192,99760,1,0,0:0:0:0:
192,192,99840,1,0,0:0:0:0:
64,192,99920,1,0,0:0:0:0:
448,192,100027,1,0,0:0:0:0:
192,192,100081,1,0,0:0:0:0:
320,192,100161,1,0,0:0:0:0:
64,192,100242,1,0,0:0:0:0:
192,192,100349,1,0,0:0:0:0:
192,192,100563,1,0,0:0:0:0:
448,192,100777,128,0,101206:0:0:0:0:
320,192,100777,128,0,101206:0:0:0:0:
64,192,101206,128,0,101635:0:0:0:0:
192,192,101635,128,0,102063:0:0:0:0:
448,192,101742,128,0,102063:0:0:0:0:
64,192,102063,1,0,0:0:0:0:
64,192,102277,1,0,0:0:0:0:
64,192,102492,1,0,0:0:0:0:
64,192,102706,1,0,0:0:0:0:
192,192,102920,128,0,103349:0:0:0:0:
448,192,102974,128,0,103349:0:0:0:0:
64,192,103349,128,0,103777:0:0:0:0:
320,192,103456,128,0,103777:0:0:0:0:
192,192,103777,1,0,0:0:0:0:
448,192,103777,128,0,104206:0:0:0:0:
320,192,103885,128,0,104206:0:0:0:0:
64,192,104206,128,0,104635:0:0:0:0:
192,192,104340,128,0,104635:0:0:0:0:
320,192,104635,1,0,0:0:0:0:
448,192,104635,128,0,105063:0:0:0:0:
64,192,104769,128,0,105063:0:0:0:0:
192,192,105063,128,0,105411:0:0:0:0:
320,192,105170,128,0,105411:0:0:0:0:
448,192,105411,128,0,105920:0:0:0:0:
64,192,105411,1,0,0:0:0:0:
192,192,105599,128,0,105920:0:0:0:0:
320,192,105920,128,0,106349:0:0:0:0:
64,192,106027,128,0,106349:0:0:0:0:
448,192,106349,128,0,106777:0:0:0:0:
320,192,106483,128,0,106777:0:0:0:0:
64,192,106777,128,0,107206:0:0:0:0:
192,192,106885,128,0,107206:0:0:0:0:
320,192,107206,1,0,0:0:0:0:
448,192,107206,128,0,108063:0:0:0:0:
320,192,108063,1,0,0:0:0:0:
192,192,108063,1,0,0:0:0:0:
64,192,108063,1,0,0:0:0:0:
