osu file format v14

[General]
AudioFilename: audio.mp3
AudioLeadIn: 0
PreviewTime: -1
Countdown: 0
SampleSet: Normal
StackLeniency: 0.7
Mode: 3
LetterboxInBreaks: 0
SpecialStyle: 0
WidescreenStoryboard: 1

[Editor]
DistanceSpacing: 1
BeatDivisor: 16
GridSize: 32
TimelineZoom: 3.199999

[Metadata]
Title:Apocalypse (feat. Lucy)
TitleUnicode:Apocalypse (feat. Lucy)
Artist:M2U x NICODE
ArtistUnicode:M2U x NICODE
Creator:[Nery]
Version:(3.4*) 4K Hard With SV
Source:
Tags:Stepmania, PumpItUp, RideZero, Deemo
BeatmapID:1737754
BeatmapSetID:829437

[Difficulty]
HPDrainRate:7
CircleSize:4
OverallDifficulty:5
ApproachRate:5
SliderMultiplier:1.4
SliderTickRate:1

[Events]
//Background and Video events
0,0,"apocalpyse.jpg",0,0
//Break Periods
//Storyboard Layer 0 (Background)
//Storyboard Layer 1 (Fail)
//Storyboard Layer 2 (Pass)
//Storyboard Layer 3 (Foreground)
//Storyboard Sound Samples

[TimingPoints]
899,428.571428571429,4,1,0,0,1,0
899,-142.857142857143,4,1,0,0,0,0
23131,-100,4,1,0,0,0,0
53250,-142.857142857143,4,1,0,0,0,0
66149,-133.333333333333,4,1,0,0,0,0
66256,-125,4,1,0,0,0,0
66390,-111.111111111111,4,1,0,0,0,0
66497,-105.263157894737,4,1,0,0,0,0
66604,-100,4,1,0,0,0,0
73071,-250,4,1,0,0,0,0
73515,-100,4,1,0,0,0,0
83720,-166.666666666667,4,1,0,0,0,0
83899,-100,4,1,0,0,0,0
87149,-166.666666666667,4,1,0,0,0,0
87336,-100,4,1,0,0,0,0
89372,-153.846153846154,4,1,0,0,0,0
89532,-100,4,1,0,0,0,0
89827,-153.846153846154,4,1,0,0,0,0
89988,-100,4,1,0,0,0,0
90282,-153.846153846154,4,1,0,0,0,0
90443,-100,4,1,0,0,0,0
90657,-153.846153846154,4,1,0,0,0,0
90791,-100,4,1,0,0,0,0
91113,-153.846153846154,4,1,0,0,0,0
91274,-100,4,1,0,0,0,0
91488,-153.846153846154,4,1,0,0,0,0
91649,-100,4,1,0,0,0,0
91916,-153.846153846154,4,1,0,0,0,0
92077,-100,4,1,0,0,0,0
92372,-153.846153846154,4,1,0,0,0,0
92532,-100,4,1,0,0,0,0
92774,-153.846153846154,4,1,0,0,0,0
92934,-100,4,1,0,0,0,0
93229,-153.846153846154,4,1,0,0,0,0
93390,-100,4,1,0,0,0,0
93642,-250,4,1,0,0,0,0
94000,-100,4,1,0,0,0,0
97434,-166.666666666667,4,1,0,0,0,0
97622,-100,4,1,0,0,0,0
100863,-166.666666666667,4,1,0,0,0,0
101024,-100,4,1,0,0,0,0
103059,-153.846153846154,4,1,0,0,0,0
103220,-100,4,1,0,0,0,0
103515,-153.846153846154,4,1,0,0,0,0
103675,-100,4,1,0,0,0,0
103970,-153.846153846154,4,1,0,0,0,0
104131,-100,4,1,0,0,0,0
104425,-153.846153846154,4,1,0,0,0,0
104586,-100,4,1,0,0,0,0
104800,-153.846153846154,4,1,0,0,0,0
104961,-100,4,1,0,0,0,0
105175,-153.846153846154,4,1,0,0,0,0
105336,-100,4,1,0,0,0,0
105604,-153.846153846154,4,1,0,0,0,0
105765,-100,4,1,0,0,0,0
106059,-153.846153846154,4,1,0,0,0,0
106220,-100,4,1,0,0,0,0
106461,-153.846153846154,4,1,0,0,0,0
106622,-100,4,1,0,0,0,0
106916,-153.846153846154,4,1,0,0,0,0
107077,-100,4,1,0,0,0,0
107357,-250,4,1,0,0,0,0
107714,-100,4,1,0,0,0,0

[HitObjects]
64,192,899,128,0,1756:0:0:0:0:
192,192,1756,128,0,2613:0:0:0:0:
448,192,1756,1,0,0:0:0:0:
64,192,2613,1,0,0:0:0:0:
448,192,2613,128,0,3256:0:0:0:0:
320,192,3256,128,0,3470:0:0:0:0:
448,192,3470,128,0,4327:0:0:0:0:
192,192,3470,1,0,0:0:0:0:
64,192,4327,1,0,0:0:0:0:
448,192,4756,128,0,5184:0:0:0:0:
192,192,5184,128,0,6041:0:0:0:0:
64,192,5184,1,0,0:0:0:0:
320,192,6041,128,0,7756:0:0:0:0:
64,192,6041,1,0,0:0:0:0:
64,192,6899,1,0,0:0:0:0:
192,192,7756,1,0,0:0:0:0:
64,192,7756,128,0,8613:0:0:0:0:
448,192,8613,128,0,9899:0:0:0:0:
192,192,8613,1,0,0:0:0:0:
64,192,9470,1,0,0:0:0:0:
192,192,9899,128,0,10113:0:0:0:0:
64,192,10113,128,0,10327:0:0:0:0:
320,192,10327,128,0,11184:0:0:0:0:
192,192,10327,1,0,0:0:0:0:
448,192,11184,128,0,12470:0:0:0:0:
64,192,11184,1,0,0:0:0:0:
192,192,12041,1,0,0:0:0:0:
320,192,12470,128,0,12899:0:0:0:0:
192,192,12899,128,0,13327:0:0:0:0:
64,192,12899,1,0,0:0:0:0:
64,192,13327,128,0,13756:0:0:0:0:
448,192,13756,128,0,15041:0:0:0:0:
192,192,13756,1,0,0:0:0:0:
192,192,14613,1,0,0:0:0:0:
192,192,15041,128,0,15470:0:0:0:0:
64,192,15470,128,0,16327:0:0:0:0:
320,192,15470,128,0,15899:0:0:0:0:
448,192,15899,128,0,16327:0:0:0:0:
192,192,16327,128,0,17184:0:0:0:0:
320,192,16327,1,0,0:0:0:0:
320,192,17184,128,0,18041:0:0:0:0:
64,192,17184,1,0,0:0:0:0:
448,192,18041,128,0,18684:0:0:0:0:
320,192,18684,128,0,19113:0:0:0:0:
64,192,19113,128,0,20613:0:0:0:0:
192,192,19220,128,0,20613:0:0:0:0:
320,192,19327,128,0,20613:0:0:0:0:
448,192,19434,128,0,20613:0:0:0:0:
448,192,20720,128,0,24899:0:0:0:0:
320,192,20827,128,0,25113:0:0:0:0:
192,192,20934,128,0,25327:0:0:0:0:
64,192,21041,128,0,25541:0:0:0:0:
64,192,25756,1,0,0:0:0:0:
192,192,25756,1,0,0:0:0:0:
448,192,25756,1,0,0:0:0:0:
320,192,25756,128,0,26399:0:0:0:0:
448,192,26452,1,0,0:0:0:0:
192,192,26559,1,0,0:0:0:0:
64,192,26666,128,0,27282:0:0:0:0:
192,192,27282,1,0,0:0:0:0:
320,192,27390,1,0,0:0:0:0:
448,192,27497,1,0,0:0:0:0:
192,192,27604,128,0,27979:0:0:0:0:
448,192,27925,1,0,0:0:0:0:
320,192,27979,1,0,0:0:0:0:
64,192,28086,128,0,28247:0:0:0:0:
448,192,28247,1,0,0:0:0:0:
192,192,28354,128,0,28836:0:0:0:0:
320,192,28354,1,0,0:0:0:0:
320,192,28836,1,0,0:0:0:0:
448,192,28943,1,0,0:0:0:0:
320,192,29050,1,0,0:0:0:0:
64,192,29157,1,0,0:0:0:0:
192,192,29265,128,0,29800:0:0:0:0:
320,192,29800,1,0,0:0:0:0:
448,192,29907,1,0,0:0:0:0:
320,192,30015,128,0,30657:0:0:0:0:
192,192,30657,1,0,0:0:0:0:
64,192,30765,1,0,0:0:0:0:
192,192,30872,128,0,31836:0:0:0:0:
64,192,31836,128,0,33068:0:0:0:0:
448,192,32613,1,0,0:0:0:0:
192,192,32613,1,0,0:0:0:0:
320,192,32613,1,0,0:0:0:0:
192,192,32907,1,0,0:0:0:0:
448,192,33068,128,0,35184:0:0:0:0:
320,192,33068,1,0,0:0:0:0:
320,192,33336,1,0,0:0:0:0:
192,192,33497,1,0,0:0:0:0:
192,192,33765,1,0,0:0:0:0:
64,192,33925,1,0,0:0:0:0:
64,192,34193,1,0,0:0:0:0:
192,192,34354,1,0,0:0:0:0:
192,192,34622,1,0,0:0:0:0:
320,192,34782,1,0,0:0:0:0:
192,192,35050,1,0,0:0:0:0:
320,192,35184,128,0,35640:0:0:0:0:
192,192,35184,1,0,0:0:0:0:
64,192,35184,1,0,0:0:0:0:
64,192,35479,1,0,0:0:0:0:
192,192,35479,1,0,0:0:0:0:
448,192,35640,128,0,36068:0:0:0:0:
192,192,35774,1,0,0:0:0:0:
64,192,35774,1,0,0:0:0:0:
192,192,36068,1,0,0:0:0:0:
64,192,36068,1,0,0:0:0:0:
320,192,36068,128,0,36604:0:0:0:0:
64,192,36791,1,0,0:0:0:0:
320,192,36925,128,0,37836:0:0:0:0:
448,192,37836,128,0,38693:0:0:0:0:
192,192,37836,128,0,38693:0:0:0:0:
320,192,38693,128,0,39497:0:0:0:0:
64,192,38693,128,0,39497:0:0:0:0:
192,192,39497,1,0,0:0:0:0:
448,192,39497,1,0,0:0:0:0:
320,192,39577,1,0,0:0:0:0:
448,192,39657,1,0,0:0:0:0:
320,192,39738,1,0,0:0:0:0:
192,192,39818,1,0,0:0:0:0:
64,192,39925,1,0,0:0:0:0:
192,192,40032,1,0,0:0:0:0:
320,192,40140,1,0,0:0:0:0:
448,192,40247,1,0,0:0:0:0:
320,192,40354,1,0,0:0:0:0:
64,192,40354,1,0,0:0:0:0:
192,192,40461,1,0,0:0:0:0:
320,192,40568,1,0,0:0:0:0:
448,192,40568,1,0,0:0:0:0:
192,192,40675,1,0,0:0:0:0:
64,192,40782,1,0,0:0:0:0:
192,192,40890,1,0,0:0:0:0:
320,192,40997,1,0,0:0:0:0:
192,192,41104,1,0,0:0:0:0:
448,192,41211,1,0,0:0:0:0:
320,192,41211,1,0,0:0:0:0:
192,192,41318,1,0,0:0:0:0:
64,192,41425,1,0,0:0:0:0:
320,192,41425,1,0,0:0:0:0:
448,192,41532,1,0,0:0:0:0:
320,192,41640,1,0,0:0:0:0:
192,192,41747,1,0,0:0:0:0:
320,192,41854,1,0,0:0:0:0:
64,192,41854,1,0,0:0:0:0:
448,192,41961,1,0,0:0:0:0:
192,192,41961,1,0,0:0:0:0:
64,192,42068,1,0,0:0:0:0:
192,192,42175,1,0,0:0:0:0:
320,192,42282,1,0,0:0:0:0:
64,192,42390,1,0,0:0:0:0:
448,192,42390,1,0,0:0:0:0:
192,192,42497,1,0,0:0:0:0:
320,192,42497,1,0,0:0:0:0:
64,192,42604,1,0,0:0:0:0:
448,192,42604,1,0,0:0:0:0:
192,192,42711,1,0,0:0:0:0:
320,192,42711,1,0,0:0:0:0:
64,192,42818,1,0,0:0:0:0:
448,192,42925,1,0,0:0:0:0:
320,192,42925,1,0,0:0:0:0:
192,192,42925,1,0,0:0:0:0:
64,192,43032,1,0,0:0:0:0:
192,192,43140,1,0,0:0:0:0:
448,192,43247,1,0,0:0:0:0:
64,192,43247,1,0,0:0:0:0:
320,192,43354,1,0,0:0:0:0:
192,192,43461,1,0,0:0:0:0:
320,192,43568,1,0,0:0:0:0:
64,192,43675,1,0,0:0:0:0:
448,192,43675,1,0,0:0:0:0:
320,192,43782,1,0,0:0:0:0:
192,192,43890,1,0,0:0:0:0:
448,192,43890,1,0,0:0:0:0:
64,192,43997,1,0,0:0:0:0:
192,192,44104,1,0,0:0:0:0:
320,192,44211,1,0,0:0:0:0:
448,192,44318,1,0,0:0:0:0:
320,192,44425,1,0,0:0:0:0:
448,192,44532,1,0,0:0:0:0:
64,192,44640,1,0,0:0:0:0:
320,192,44640,1,0,0:0:0:0:
192,192,44747,1,0,0:0:0:0:
448,192,44747,1,0,0:0:0:0:
64,192,44854,1,0,0:0:0:0:
320,192,44854,1,0,0:0:0:0:
192,192,44961,1,0,0:0:0:0:
320,192,45068,1,0,0:0:0:0:
448,192,45175,1,0,0:0:0:0:
64,192,45175,1,0,0:0:0:0:
320,192,45282,1,0,0:0:0:0:
192,192,45390,1,0,0:0:0:0:
64,192,45497,1,0,0:0:0:0:
192,192,45604,1,0,0:0:0:0:
448,192,45604,1,0,0:0:0:0:
64,192,45711,1,0,0:0:0:0:
192,192,45818,1,0,0:0:0:0:
320,192,45925,1,0,0:0:0:0:
64,192,45925,1,0,0:0:0:0:
192,192,46032,1,0,0:0:0:0:
320,192,46140,1,0,0:0:0:0:
448,192,46247,1,0,0:0:0:0:
64,192,46354,1,0,0:0:0:0:
192,192,46354,1,0,0:0:0:0:
320,192,46354,1,0,0:0:0:0:
448,192,46461,1,0,0:0:0:0:
192,192,46568,1,0,0:0:0:0:
64,192,46675,1,0,0:0:0:0:
320,192,46782,1,0,0:0:0:0:
192,192,46782,1,0,0:0:0:0:
448,192,46890,1,0,0:0:0:0:
320,192,46997,1,0,0:0:0:0:
64,192,46997,1,0,0:0:0:0:
192,192,47104,1,0,0:0:0:0:
320,192,47211,1,0,0:0:0:0:
192,192,47318,1,0,0:0:0:0:
320,192,47425,1,0,0:0:0:0:
448,192,47532,1,0,0:0:0:0:
64,192,47532,1,0,0:0:0:0:
192,192,47640,1,0,0:0:0:0:
320,192,47747,1,0,0:0:0:0:
448,192,47854,1,0,0:0:0:0:
64,192,47854,1,0,0:0:0:0:
320,192,47961,1,0,0:0:0:0:
64,192,48068,1,0,0:0:0:0:
192,192,48068,1,0,0:0:0:0:
320,192,48175,1,0,0:0:0:0:
192,192,48282,1,0,0:0:0:0:
64,192,48390,1,0,0:0:0:0:
448,192,48390,1,0,0:0:0:0:
192,192,48497,1,0,0:0:0:0:
320,192,48604,1,0,0:0:0:0:
192,192,48711,1,0,0:0:0:0:
320,192,48818,1,0,0:0:0:0:
192,192,48925,1,0,0:0:0:0:
320,192,49032,1,0,0:0:0:0:
192,192,49140,1,0,0:0:0:0:
64,192,49247,1,0,0:0:0:0:
192,192,49354,1,0,0:0:0:0:
320,192,49461,1,0,0:0:0:0:
448,192,49568,1,0,0:0:0:0:
64,192,49568,1,0,0:0:0:0:
192,192,49675,1,0,0:0:0:0:
320,192,49782,1,0,0:0:0:0:
448,192,49890,1,0,0:0:0:0:
64,192,49890,1,0,0:0:0:0:
192,192,49997,1,0,0:0:0:0:
320,192,50104,1,0,0:0:0:0:
192,192,50211,1,0,0:0:0:0:
448,192,50211,1,0,0:0:0:0:
64,192,50318,1,0,0:0:0:0:
192,192,50425,1,0,0:0:0:0:
448,192,50425,1,0,0:0:0:0:
320,192,50532,1,0,0:0:0:0:
64,192,50640,1,0,0:0:0:0:
192,192,50640,1,0,0:0:0:0:
320,192,50747,1,0,0:0:0:0:
448,192,50747,1,0,0:0:0:0:
192,192,50854,1,0,0:0:0:0:
64,192,50961,1,0,0:0:0:0:
448,192,50961,1,0,0:0:0:0:
192,192,51068,1,0,0:0:0:0:
320,192,51175,1,0,0:0:0:0:
448,192,51282,1,0,0:0:0:0:
192,192,51282,1,0,0:0:0:0:
320,192,51390,1,0,0:0:0:0:
64,192,51497,1,0,0:0:0:0:
192,192,51497,1,0,0:0:0:0:
320,192,51604,1,0,0:0:0:0:
448,192,51604,1,0,0:0:0:0:
192,192,51711,1,0,0:0:0:0:
64,192,51818,1,0,0:0:0:0:
320,192,51818,1,0,0:0:0:0:
192,192,51925,1,0,0:0:0:0:
320,192,52032,1,0,0:0:0:0:
64,192,52032,1,0,0:0:0:0:
192,192,52140,1,0,0:0:0:0:
320,192,52193,1,0,0:0:0:0:
448,192,52247,1,0,0:0:0:0:
192,192,52327,1,0,0:0:0:0:
320,192,52434,1,0,0:0:0:0:
64,192,52541,1,0,0:0:0:0:
192,192,52649,1,0,0:0:0:0:
320,192,52756,1,0,0:0:0:0:
64,192,52863,1,0,0:0:0:0:
448,192,52863,1,0,0:0:0:0:
320,192,52970,1,0,0:0:0:0:
192,192,53077,1,0,0:0:0:0:
64,192,53184,1,0,0:0:0:0:
320,192,53184,1,0,0:0:0:0:
448,192,53184,1,0,0:0:0:0:
192,192,53666,128,0,54095:0:0:0:0:
320,192,54095,128,0,54524:0:0:0:0:
64,192,54095,1,0,0:0:0:0:
448,192,54524,128,0,55381:0:0:0:0:
320,192,55381,128,0,56238:0:0:0:0:
192,192,55381,1,0,0:0:0:0:
64,192,55809,1,0,0:0:0:0:
448,192,56238,128,0,57095:0:0:0:0:
192,192,56666,1,0,0:0:0:0:
320,192,57095,128,0,57524:0:0:0:0:
192,192,57524,128,0,57952:0:0:0:0:
64,192,57524,1,0,0:0:0:0:
320,192,57952,128,0,58809:0:0:0:0:
192,192,58809,1,0,0:0:0:0:
64,192,58809,128,0,59666:0:0:0:0:
320,192,59238,1,0,0:0:0:0:
448,192,59666,128,0,60524:0:0:0:0:
192,192,60095,1,0,0:0:0:0:
320,192,60524,128,0,60952:0:0:0:0:
192,192,60952,128,0,61381:0:0:0:0:
448,192,60952,1,0,0:0:0:0:
64,192,61381,128,0,62238:0:0:0:0:
192,192,62238,1,0,0:0:0:0:
448,192,62238,128,0,62881:0:0:0:0:
64,192,62666,1,0,0:0:0:0:
320,192,62881,128,0,63524:0:0:0:0:
192,192,63524,128,0,65238:0:0:0:0:
448,192,63524,1,0,0:0:0:0:
320,192,64381,1,0,0:0:0:0:
64,192,65238,128,0,66095:0:0:0:0:
320,192,65238,1,0,0:0:0:0:
192,192,65559,1,0,0:0:0:0:
192,192,65881,1,0,0:0:0:0:
320,192,65934,1,0,0:0:0:0:
448,192,65988,1,0,0:0:0:0:
320,192,66041,1,0,0:0:0:0:
192,192,66095,128,0,66952:0:0:0:0:
320,192,66952,1,0,0:0:0:0:
448,192,66952,128,0,68238:0:0:0:0:
192,192,67059,1,0,0:0:0:0:
64,192,67140,1,0,0:0:0:0:
192,192,67247,1,0,0:0:0:0:
320,192,67354,1,0,0:0:0:0:
192,192,67461,1,0,0:0:0:0:
320,192,67568,1,0,0:0:0:0:
192,192,67675,1,0,0:0:0:0:
64,192,67782,1,0,0:0:0:0:
192,192,67890,1,0,0:0:0:0:
320,192,67997,1,0,0:0:0:0:
192,192,68104,1,0,0:0:0:0:
64,192,68211,1,0,0:0:0:0:
320,192,68238,128,0,69068:0:0:0:0:
192,192,68318,1,0,0:0:0:0:
448,192,68425,1,0,0:0:0:0:
192,192,68532,1,0,0:0:0:0:
64,192,68640,1,0,0:0:0:0:
192,192,68747,1,0,0:0:0:0:
448,192,68854,1,0,0:0:0:0:
64,192,68961,1,0,0:0:0:0:
448,192,69068,1,0,0:0:0:0:
192,192,69068,128,0,69925:0:0:0:0:
64,192,69175,1,0,0:0:0:0:
320,192,69282,1,0,0:0:0:0:
448,192,69390,1,0,0:0:0:0:
320,192,69497,1,0,0:0:0:0:
448,192,69604,1,0,0:0:0:0:
320,192,69711,1,0,0:0:0:0:
448,192,69818,1,0,0:0:0:0:
320,192,69925,1,0,0:0:0:0:
64,192,69934,128,0,71541:0:0:0:0:
448,192,70006,1,0,0:0:0:0:
320,192,70113,1,0,0:0:0:0:
192,192,70220,1,0,0:0:0:0:
320,192,70327,1,0,0:0:0:0:
448,192,70434,1,0,0:0:0:0:
320,192,70541,1,0,0:0:0:0:
192,192,70649,1,0,0:0:0:0:
320,192,70756,1,0,0:0:0:0:
192,192,70863,1,0,0:0:0:0:
320,192,70970,1,0,0:0:0:0:
448,192,71077,1,0,0:0:0:0:
320,192,71184,1,0,0:0:0:0:
192,192,71291,1,0,0:0:0:0:
320,192,71399,1,0,0:0:0:0:
448,192,71506,1,0,0:0:0:0:
320,192,71613,1,0,0:0:0:0:
64,192,71666,128,0,73809:0:0:0:0:
192,192,71720,1,0,0:0:0:0:
320,192,71827,1,0,0:0:0:0:
448,192,71934,1,0,0:0:0:0:
320,192,72041,1,0,0:0:0:0:
448,192,72149,1,0,0:0:0:0:
320,192,72256,1,0,0:0:0:0:
192,192,72363,1,0,0:0:0:0:
320,192,72470,1,0,0:0:0:0:
448,192,72577,1,0,0:0:0:0:
320,192,72684,1,0,0:0:0:0:
192,192,72791,1,0,0:0:0:0:
320,192,72899,1,0,0:0:0:0:
448,192,72899,1,0,0:0:0:0:
320,192,73809,1,0,0:0:0:0:
192,192,73809,128,0,77238:0:0:0:0:
448,192,73916,1,0,0:0:0:0:
320,192,74024,1,0,0:0:0:0:
64,192,74131,1,0,0:0:0:0:
320,192,74238,1,0,0:0:0:0:
448,192,74345,1,0,0:0:0:0:
320,192,74452,1,0,0:0:0:0:
64,192,74559,1,0,0:0:0:0:
320,192,74666,1,0,0:0:0:0:
448,192,74774,1,0,0:0:0:0:
320,192,74881,1,0,0:0:0:0:
64,192,74988,1,0,0:0:0:0:
320,192,75095,1,0,0:0:0:0:
448,192,75202,1,0,0:0:0:0:
320,192,75309,1,0,0:0:0:0:
448,192,75416,1,0,0:0:0:0:
320,192,75524,1,0,0:0:0:0:
64,192,75631,1,0,0:0:0:0:
320,192,75738,1,0,0:0:0:0:
64,192,75845,1,0,0:0:0:0:
320,192,75952,1,0,0:0:0:0:
448,192,76059,1,0,0:0:0:0:
320,192,76166,1,0,0:0:0:0:
64,192,76274,1,0,0:0:0:0:
320,192,76381,1,0,0:0:0:0:
448,192,76488,1,0,0:0:0:0:
320,192,76595,1,0,0:0:0:0:
64,192,76702,1,0,0:0:0:0:
320,192,76809,1,0,0:0:0:0:
64,192,76916,1,0,0:0:0:0:
320,192,77024,1,0,0:0:0:0:
448,192,77131,1,0,0:0:0:0:
320,192,77238,1,0,0:0:0:0:
64,192,77238,128,0,80666:0:0:0:0:
448,192,78068,1,0,0:0:0:0:
320,192,78925,1,0,0:0:0:0:
320,192,79247,1,0,0:0:0:0:
192,192,79568,1,0,0:0:0:0:
320,192,79622,1,0,0:0:0:0:
448,192,79675,1,0,0:0:0:0:
448,192,80666,128,0,80988:0:0:0:0:
192,192,80666,128,0,80988:0:0:0:0:
320,192,80988,1,0,0:0:0:0:
64,192,80988,1,0,0:0:0:0:
64,192,81095,128,0,81577:0:0:0:0:
192,192,81149,128,0,81577:0:0:0:0:
448,192,81497,1,0,0:0:0:0:
448,192,81711,1,0,0:0:0:0:
192,192,81925,1,0,0:0:0:0:
448,192,82006,1,0,0:0:0:0:
64,192,82086,1,0,0:0:0:0:
320,192,82166,1,0,0:0:0:0:
192,192,82247,1,0,0:0:0:0:
448,192,82327,1,0,0:0:0:0:
64,192,82407,1,0,0:0:0:0:
320,192,82488,1,0,0:0:0:0:
192,192,82568,1,0,0:0:0:0:
448,192,82649,1,0,0:0:0:0:
192,192,82729,1,0,0:0:0:0:
320,192,82809,1,0,0:0:0:0:
64,192,82890,1,0,0:0:0:0:
448,192,82970,1,0,0:0:0:0:
192,192,83050,1,0,0:0:0:0:
64,192,83131,1,0,0:0:0:0:
320,192,83211,1,0,0:0:0:0:
320,192,83425,1,0,0:0:0:0:
64,192,83666,128,0,84095:0:0:0:0:
192,192,83666,128,0,84095:0:0:0:0:
320,192,83666,128,0,84095:0:0:0:0:
448,192,84095,128,0,84524:0:0:0:0:
320,192,84524,128,0,85032:0:0:0:0:
64,192,84604,128,0,85032:0:0:0:0:
448,192,84925,1,0,0:0:0:0:
448,192,85140,1,0,0:0:0:0:
320,192,85354,1,0,0:0:0:0:
64,192,85434,1,0,0:0:0:0:
448,192,85515,1,0,0:0:0:0:
192,192,85595,1,0,0:0:0:0:
320,192,85675,1,0,0:0:0:0:
64,192,85756,1,0,0:0:0:0:
448,192,85836,1,0,0:0:0:0:
320,192,85916,1,0,0:0:0:0:
192,192,85997,1,0,0:0:0:0:
448,192,86077,1,0,0:0:0:0:
64,192,86157,1,0,0:0:0:0:
192,192,86238,1,0,0:0:0:0:
320,192,86318,1,0,0:0:0:0:
192,192,86399,1,0,0:0:0:0:
320,192,86479,1,0,0:0:0:0:
192,192,86559,1,0,0:0:0:0:
320,192,86640,1,0,0:0:0:0:
320,192,86827,1,0,0:0:0:0:
192,192,87095,128,0,87524:0:0:0:0:
320,192,87095,128,0,87524:0:0:0:0:
448,192,87095,128,0,87524:0:0:0:0:
64,192,87524,128,0,87952:0:0:0:0:
192,192,87952,128,0,88381:0:0:0:0:
448,192,88032,128,0,88381:0:0:0:0:
320,192,88381,1,0,0:0:0:0:
64,192,88381,1,0,0:0:0:0:
64,192,88595,1,0,0:0:0:0:
320,192,88595,1,0,0:0:0:0:
64,192,88809,1,0,0:0:0:0:
320,192,88809,1,0,0:0:0:0:
64,192,89024,1,0,0:0:0:0:
320,192,89024,1,0,0:0:0:0:
320,192,89238,128,0,89693:0:0:0:0:
64,192,89345,128,0,89693:0:0:0:0:
192,192,89693,128,0,90095:0:0:0:0:
448,192,89747,128,0,90095:0:0:0:0:
64,192,89800,128,0,90095:0:0:0:0:
320,192,90095,128,0,90524:0:0:0:0:
192,192,90175,128,0,90524:0:0:0:0:
64,192,90256,128,0,90524:0:0:0:0:
448,192,90524,128,0,90952:0:0:0:0:
320,192,90631,128,0,90952:0:0:0:0:
64,192,90711,128,0,90952:0:0:0:0:
192,192,90952,128,0,91407:0:0:0:0:
448,192,91086,128,0,91407:0:0:0:0:
320,192,91407,128,0,91809:0:0:0:0:
64,192,91461,128,0,91809:0:0:0:0:
448,192,91809,128,0,92265:0:0:0:0:
192,192,91809,1,0,0:0:0:0:
320,192,91890,128,0,92265:0:0:0:0:
64,192,92265,128,0,92666:0:0:0:0:
192,192,92345,128,0,92666:0:0:0:0:
448,192,92666,128,0,93122:0:0:0:0:
320,192,92666,1,0,0:0:0:0:
64,192,92747,128,0,93122:0:0:0:0:
192,192,93122,128,0,93524:0:0:0:0:
320,192,93202,128,0,93524:0:0:0:0:
448,192,93524,128,0,94354:0:0:0:0:
64,192,93524,1,0,0:0:0:0:
64,192,94354,1,0,0:0:0:0:
192,192,94354,128,0,94702:0:0:0:0:
320,192,94354,128,0,94702:0:0:0:0:
448,192,94702,1,0,0:0:0:0:
64,192,94702,1,0,0:0:0:0:
64,192,94809,128,0,95291:0:0:0:0:
192,192,94863,128,0,95291:0:0:0:0:
448,192,95211,1,0,0:0:0:0:
448,192,95425,1,0,0:0:0:0:
320,192,95640,1,0,0:0:0:0:
64,192,95720,1,0,0:0:0:0:
448,192,95800,1,0,0:0:0:0:
192,192,95881,1,0,0:0:0:0:
320,192,95961,1,0,0:0:0:0:
64,192,96041,1,0,0:0:0:0:
448,192,96122,1,0,0:0:0:0:
192,192,96202,1,0,0:0:0:0:
320,192,96282,1,0,0:0:0:0:
64,192,96363,1,0,0:0:0:0:
448,192,96443,1,0,0:0:0:0:
320,192,96524,1,0,0:0:0:0:
192,192,96604,1,0,0:0:0:0:
448,192,96684,1,0,0:0:0:0:
320,192,96765,1,0,0:0:0:0:
192,192,96845,1,0,0:0:0:0:
448,192,96925,1,0,0:0:0:0:
448,192,97140,1,0,0:0:0:0:
64,192,97354,128,0,97782:0:0:0:0:
192,192,97354,128,0,97782:0:0:0:0:
320,192,97354,128,0,97782:0:0:0:0:
448,192,97782,128,0,98238:0:0:0:0:
320,192,98238,128,0,98747:0:0:0:0:
64,192,98318,128,0,98747:0:0:0:0:
192,192,98640,1,0,0:0:0:0:
192,192,98854,1,0,0:0:0:0:
320,192,99068,1,0,0:0:0:0:
64,192,99149,1,0,0:0:0:0:
448,192,99229,1,0,0:0:0:0:
192,192,99309,1,0,0:0:0:0:
320,192,99390,1,0,0:0:0:0:
448,192,99470,1,0,0:0:0:0:
64,192,99550,1,0,0:0:0:0:
192,192,99631,1,0,0:0:0:0:
448,192,99684,1,0,0:0:0:0:
320,192,99765,1,0,0:0:0:0:
64,192,99845,1,0,0:0:0:0:
192,192,99925,1,0,0:0:0:0:
320,192,100006,1,0,0:0:0:0:
192,192,100086,1,0,0:0:0:0:
320,192,100166,1,0,0:0:0:0:
192,192,100247,1,0,0:0:0:0:
320,192,100327,1,0,0:0:0:0:
320,192,100541,1,0,0:0:0:0:
192,192,100809,128,0,101238:0:0:0:0:
320,192,100809,128,0,101238:0:0:0:0:
448,192,100809,128,0,101238:0:0:0:0:
64,192,101238,128,0,101666:0:0:0:0:
192,192,101666,128,0,102068:0:0:0:0:
448,192,101747,128,0,102068:0:0:0:0:
64,192,102068,1,0,0:0:0:0:
320,192,102068,1,0,0:0:0:0:
320,192,102282,1,0,0:0:0:0:
64,192,102282,1,0,0:0:0:0:
320,192,102497,1,0,0:0:0:0:
64,192,102497,1,0,0:0:0:0:
320,192,102711,1,0,0:0:0:0:
64,192,102711,1,0,0:0:0:0:
320,192,102925,128,0,103381:0:0:0:0:
64,192,103032,128,0,103381:0:0:0:0:
448,192,103381,128,0,103782:0:0:0:0:
192,192,103434,128,0,103782:0:0:0:0:
64,192,103488,128,0,103782:0:0:0:0:
320,192,103782,128,0,104211:0:0:0:0:
192,192,103863,128,0,104211:0:0:0:0:
64,192,103943,128,0,104211:0:0:0:0:
448,192,104211,128,0,104640:0:0:0:0:
320,192,104318,128,0,104640:0:0:0:0:
64,192,104399,128,0,104640:0:0:0:0:
192,192,104640,128,0,105095:0:0:0:0:
448,192,104774,128,0,105095:0:0:0:0:
64,192,105095,128,0,105497:0:0:0:0:
320,192,105149,128,0,105497:0:0:0:0:
448,192,105497,128,0,105952:0:0:0:0:
192,192,105497,1,0,0:0:0:0:
320,192,105577,128,0,105952:0:0:0:0:
64,192,105952,128,0,106354:0:0:0:0:
192,192,106032,128,0,106354:0:0:0:0:
448,192,106354,128,0,106809:0:0:0:0:
320,192,106354,1,0,0:0:0:0:
64,192,106434,128,0,106809:0:0:0:0:
320,192,106809,128,0,107211:0:0:0:0:
192,192,106890,128,0,107211:0:0:0:0:
448,192,107211,128,0,108095:0:0:0:0:
64,192,107211,1,0,0:0:0:0:
320,192,108095,5,0,0:0:0:0:
192,192,108095,1,0,0:0:0:0:
64,192,108095,1,0,0:0:0:0:
