osu file format v14

[General]
AudioFilename: audio.mp3
AudioLeadIn: 0
PreviewTime: 93791
Countdown: 0
SampleSet: Soft
StackLeniency: 0.3
Mode: 0
LetterboxInBreaks: 0
WidescreenStoryboard: 0

[Editor]
Bookmarks: 13541,19541,25541,37541,45041,55541,58541,60041,61541,73541,85541,93791,95478,97541,108041,109166
DistanceSpacing: 1.35
BeatDivisor: 4
GridSize: 32
TimelineZoom: 2.1

[Metadata]
Title:Breach
TitleUnicode:Breach
Artist:M2U feat. NICODE
ArtistUnicode:M2U feat. NICODE
Creator:Thexo
Version:I own your souls.
Source:RIDE ZERO
Tags:Necho
BeatmapID:2041517
BeatmapSetID:975382

[Difficulty]
HPDrainRate:4.5
CircleSize:4.2
OverallDifficulty:8.2
ApproachRate:9
SliderMultiplier:1.65
SliderTickRate:1

[Events]
//Background and Video events
0,0,"63278410_p0.jpg",0,0
//Break Periods
//Storyboard Layer 0 (Background)
//Storyboard Layer 1 (Fail)
//Storyboard Layer 2 (Pass)
//Storyboard Layer 3 (Foreground)
//Storyboard Sound Samples

[TimingPoints]
791,375,4,2,2,30,1,0
1541,375,4,2,2,50,1,0
1541,-80,4,2,2,50,0,0
1916,-133.333333333333,4,2,2,50,0,0
13541,-80,4,2,2,50,0,0
14291,-133.333333333333,4,2,2,50,0,0
17853,-80,4,2,2,50,0,0
18228,-100,4,2,2,50,0,0
18603,-80,4,2,2,50,0,0
19541,-100,4,2,2,50,0,0
23853,-80,4,2,2,50,0,0
25541,-66.6666666666667,4,2,2,50,0,0
27791,-133.333333333333,4,2,2,50,0,0
28541,-66.6666666666667,4,2,2,50,0,0
30791,-133.333333333333,4,2,2,50,0,0
31541,-66.6666666666667,4,2,2,50,0,0
32291,-62.5,4,2,2,50,0,0
33041,-58.8235294117647,4,2,2,50,0,0
33791,-55.5555555555556,4,2,2,50,0,0
34541,-52.6315789473684,4,2,2,50,0,0
35291,-400,4,2,2,50,0,0
36041,-50,4,2,2,50,0,0
36791,-200,4,2,2,50,0,0
37541,-66.6666666666667,4,2,2,71,0,0
37916,-50,4,2,2,71,0,0
39228,-100,4,2,2,71,0,0
39791,-50,4,2,2,71,0,0
39978,-100,4,2,2,71,0,0
40166,-50,4,2,2,71,0,0
40541,-66.6666666666667,4,2,2,71,0,0
40916,-50,4,2,2,71,0,0
41666,-100,4,2,2,71,0,0
41853,-66.6666666666667,4,2,2,71,0,0
42791,-44.4444444444445,4,2,2,71,0,1
43541,-66.6666666666667,4,2,2,71,0,0
44103,-50,4,2,2,71,0,0
45791,-50,4,2,2,71,0,0
45978,-100,4,2,2,71,0,0
46166,-44.4444444444445,4,2,2,71,0,0
46353,-100,4,2,2,71,0,0
46541,-66.6666666666667,4,2,2,71,0,0
46916,-50,4,2,2,71,0,0
47666,-100,4,2,2,71,0,0
47853,-66.6666666666667,4,2,2,71,0,0
48791,-44.4444444444445,4,2,2,71,0,1
49541,-66.6666666666667,4,2,2,71,0,0
50291,-50,4,2,2,71,0,0
51791,-50,4,2,2,71,0,1
52541,-66.6666666666667,4,2,2,71,0,0
53291,-50,4,2,2,71,0,0
54791,-44.4444444444445,4,2,2,71,0,1
55541,-66.6666666666667,4,2,2,71,0,0
55916,-50,4,2,2,71,0,0
57791,-44.4444444444445,4,2,2,71,0,1
58541,-66.6666666666667,4,2,2,71,0,0
58916,-50,4,2,2,71,0,0
59291,-44.4444444444445,4,2,2,71,0,1
61541,-66.6666666666667,4,2,2,50,0,0
68291,-62.5,4,2,2,50,0,0
69041,-58.8235294117647,4,2,2,50,0,0
69791,-55.5555555555556,4,2,2,50,0,0
70541,-52.6315789473684,4,2,2,50,0,0
71291,-400,4,2,2,50,0,0
72041,-47.6190476190476,4,2,2,50,0,0
72791,-44.4444444444445,4,2,2,50,0,1
73541,-66.6666666666667,4,2,2,71,0,0
75791,-50,4,2,2,71,0,0
75978,-100,4,2,2,71,0,0
76166,-44.4444444444445,4,2,2,71,0,0
76541,-66.6666666666667,4,2,2,71,0,0
78791,-50,4,2,2,71,0,0
79541,-66.6666666666667,4,2,2,71,0,0
80103,-50,4,2,2,71,0,0
80478,-100,4,2,2,71,0,0
80666,-50,4,2,2,71,0,0
82541,-66.6666666666667,4,2,2,71,0,0
84603,-50,4,2,2,71,0,0
84791,-44.4444444444445,4,2,2,71,0,1
85541,-66.6666666666667,4,2,2,71,0,0
87791,-44.4444444444445,4,2,2,71,0,0
88541,-66.6666666666667,4,2,2,71,0,0
90791,-44.4444444444445,4,2,2,71,0,1
91541,-66.6666666666667,4,2,2,71,0,0
91916,-133.333333333333,4,2,2,71,0,0
92291,-40,4,2,2,71,0,0
93041,-50,4,2,2,71,0,0
93791,-44.4444444444445,4,2,2,71,0,1
94541,-66.6666666666667,4,2,2,71,0,0
94916,-133.333333333333,4,2,2,71,0,0
95291,-44.4444444444445,4,2,2,71,0,0
96041,-44.4444444444445,4,2,2,71,0,1
97541,-80,4,2,2,71,0,0
97916,-133.333333333333,4,2,2,50,0,0
108978,-66.6666666666667,4,2,2,50,0,0
109166,-50,4,2,2,50,0,0

[Colours]
Combo1 : 125,121,119
Combo2 : 253,201,170
Combo3 : 255,70,70
Combo4 : 1,29,52

[HitObjects]
14,92,791,5,0,0:0:0:0:
50,18,978,1,0,0:0:0:0:
124,53,1166,1,0,0:0:0:0:
88,128,1353,1,0,0:0:0:0:
88,128,1541,6,0,B|168:111|149:182|229:165,1,154.6875,6|0,0:0|0:0,0:0:0:0:
230,164,1916,2,0,P|238:195|237:237,1,61.875002360344,2|0,0:1|0:0,0:0:0:0:
101,216,2291,1,8,0:0:0:0:
222,79,2478,1,0,0:0:0:0:
159,26,2666,1,2,0:1:0:0:
29,59,2853,2,0,P|3:104|18:186,1,123.750004720688,0|0,0:0|0:0,0:0:0:0:
10,173,3603,5,0,0:0:0:0:
107,290,3791,2,0,P|115:329|112:362,1,61.875002360344,8|0,0:0|0:0,0:0:0:0:
30,334,4166,1,2,0:1:0:0:
204,258,4353,2,0,L|329:267,1,123.750004720688,0|0,0:0|0:0,0:0:0:0:
360,347,4916,1,2,0:1:0:0:
309,177,5103,1,0,0:0:0:0:
466,93,5291,2,0,P|418:97|368:126,1,92.812503540516,8|0,0:0|0:0,0:0:0:0:
378,116,5666,1,2,0:1:0:0:
448,182,5853,2,0,P|458:242|439:302,1,123.750004720688,0|0,0:0|0:0,0:0:0:0:
439,300,6603,5,2,0:0:0:0:
361,199,6791,2,0,P|358:236|370:264,1,61.875002360344,8|0,0:0|0:0,0:0:0:0:
399,125,7166,1,2,0:0:0:0:
339,62,7353,2,0,P|295:62|217:90,1,123.750004720688,0|0,0:0|0:0,0:0:0:0:
196,143,8291,6,0,P|211:97|240:74,1,61.875002360344,8|0,0:0|0:0,0:0:0:0:
339,62,8666,1,2,0:1:0:0:
262,201,8853,2,0,P|212:228|143:213,1,123.750004720688
139,323,9603,2,0,P|84:306|46:247,1,123.750004720688
262,201,10353,6,0,P|315:223|341:286,1,123.750004720688,0|0,0:0|0:0,0:0:0:0:
276,374,11291,2,0,P|278:344|347:279,1,123.750004720688,8|2,0:0|0:1,0:0:0:0:
461,228,12041,5,2,0:0:0:0:
461,228,12228,5,0,0:0:0:0:
372,198,12416,1,2,0:1:0:0:
401,107,12604,1,2,0:0:0:0:
492,138,12791,1,8,0:0:0:0:
321,130,12978,1,0,0:0:0:0:
395,280,13166,1,2,0:0:0:0:
401,107,13353,5,0,0:0:0:0:
401,107,13541,6,0,B|321:124|340:53|260:70,1,154.6875,6|0,0:0|0:0,0:0:0:0:
246,77,13916,1,2,0:1:0:0:
246,77,14103,1,0,0:0:0:0:
208,202,14291,6,0,P|199:165|203:136,1,61.875002360344,8|0,0:0|0:0,0:0:0:0:
280,267,14666,1,2,0:1:0:0:
189,294,14853,6,0,P|127:297|68:280,1,123.750004720688,2|0,0:0|0:0,0:0:0:0:
24,175,15416,1,2,0:1:0:0:
24,175,15603,1,0,0:0:0:0:
123,96,15791,1,8,0:0:0:0:
5,49,15978,1,2,0:0:0:0:
123,96,16166,1,2,0:0:0:0:
24,175,16353,6,0,P|18:236|74:294,1,123.750004720688,2|0,0:0|0:0,0:0:0:0:
177,284,17103,2,0,L|312:271,1,123.750004720688,0|0,0:0|0:0,0:0:0:0:
388,219,17666,1,2,0:1:0:0:
280,22,17853,6,0,L|296:185,1,154.6875,6|0,0:0|0:0,0:0:0:0:
295,175,18228,2,0,P|255:188|205:175,1,82.5,0|0,0:0|0:0,0:0:0:0:
310,22,18603,6,0,L|294:185,1,154.6875,2|0,0:0|0:0,0:0:0:0:
294,175,18978,1,2,0:1:0:0:
437,12,19166,1,2,0:0:0:0:
437,12,19259,1,2,0:1:0:0:
437,12,19353,1,2,0:1:0:0:
437,12,19447,1,2,0:1:0:0:
437,12,19541,6,0,P|450:65|438:116,1,82.5,2|0,0:0|0:0,0:0:0:0:
387,181,19916,1,2,0:1:0:0:
387,181,20103,1,0,0:0:0:0:
347,360,20291,2,0,L|340:278,1,82.5,8|0,0:0|0:0,0:0:0:0:
444,306,20666,1,2,0:1:0:0:
245,232,20853,6,0,P|186:225|117:223,1,123.75,0|0,0:0|0:0,0:0:0:0:
121,222,21228,1,0,0:0:0:0:
53,287,21416,1,2,0:1:0:0:
40,194,21603,1,0,0:0:0:0:
131,94,21791,1,8,0:0:0:0:
245,232,21978,1,2,0:0:0:0:
243,256,22071,1,2,0:1:0:0:
241,281,22165,1,2,0:0:0:0:
239,306,22259,1,2,0:1:0:0:
238,330,22353,1,2,0:0:0:0:
236,355,22446,1,2,0:1:0:0:
232,380,22541,6,0,L|117:368,1,82.5,2|0,0:0|0:0,0:0:0:0:
318,321,22916,2,0,L|433:309,1,82.5,2|0,0:1|0:0,0:0:0:0:
470,243,23291,1,8,0:0:0:0:
384,195,23478,1,0,0:0:0:0:
449,121,23666,1,2,0:1:0:0:
365,69,23853,6,0,L|199:78,1,154.6875,4|0,0:0|0:0,0:0:0:0:
210,77,24228,1,0,0:0:0:0:
123,276,24416,2,0,P|111:253|107:228,1,51.5625,2|0,0:1|0:0,0:0:0:0:
144,160,24603,1,2,0:0:0:0:
235,193,24791,5,8,0:0:0:0:
201,274,24978,1,2,0:1:0:0:
281,308,25165,1,2,0:0:0:0:
315,227,25353,1,2,0:1:0:0:
322,120,25541,6,0,B|420:117|383:197|481:194,1,185.625007081032,6|0,0:0|0:0,0:0:0:0:
482,194,25916,1,2,0:1:0:0:
315,227,26291,5,2,0:1:0:0:
281,308,26479,1,0,0:0:0:0:
201,274,26666,1,2,0:1:0:0:
235,193,26853,1,0,0:0:0:0:
101,114,27791,6,0,L|96:21,1,92.812503540516,2|0,0:0|0:0,0:0:0:0:
84,0,28166,2,0,L|88:92,1,92.812503540516,2|0,0:0|0:0,0:0:0:0:
87,189,28541,6,0,B|185:191|148:111|246:114,1,185.625007081032,6|0,0:0|0:0,0:0:0:0:
247,114,28916,1,2,0:1:0:0:
201,274,29291,5,2,0:1:0:0:
235,193,29478,1,0,0:0:0:0:
315,227,29665,1,2,0:1:0:0:
281,308,29853,1,0,0:0:0:0:
281,308,30228,1,0,0:0:0:0:
50,270,30791,6,0,L|45:362,1,92.812503540516,2|0,0:0|0:0,0:0:0:0:
33,384,31166,2,0,L|37:291,1,92.812503540516,2|0,0:0|0:0,0:0:0:0:
36,195,31541,6,0,B|134:192|97:272|195:269,1,185.625007081032,6|0,0:0|0:0,0:0:0:0:
196,270,31916,1,2,0:0:0:0:
196,270,32103,1,2,0:0:0:0:
36,195,32291,6,0,B|140:192|101:277|206:274,1,198,6|0,0:0|0:0,0:0:0:0:
206,274,32666,1,2,0:0:0:0:
206,274,32853,1,2,0:0:0:0:
36,195,33041,6,0,B|147:191|105:282|216:279,1,210.375004012585,6|0,0:0|0:0,0:0:0:0:
217,279,33416,1,2,0:0:0:0:
217,279,33603,1,2,0:0:0:0:
36,195,33791,6,0,B|154:191|109:287|227:284,1,222.74999320221,6|0,0:0|0:0,0:0:0:0:
228,284,34166,1,2,0:0:0:0:
228,284,34353,1,2,0:0:0:0:
36,195,34541,6,0,B|160:191|113:292|238:289,1,235.124993721485,6|0,0:0|0:0,0:0:0:0:
238,289,34916,1,2,0:0:0:0:
238,289,35103,1,2,0:0:0:0:
36,195,35291,6,0,P|65:197|83:201,1,41.25,6|2,0:0|0:0,0:0:0:0:
249,294,35853,1,0,0:0:0:0:
36,195,36041,6,0,B|167:191|117:297|248:294,1,247.5,6|0,0:0|0:0,0:0:0:0:
249,294,36416,1,2,0:0:0:0:
36,195,36603,6,0,L|146:186,1,82.5
416,102,36791,6,0,L|343:97,1,61.875,2|0,0:0|0:0,0:0:0:0:
452,178,37166,2,0,L|379:173,1,61.875,2|0,0:0|0:0,0:0:0:0:
404,273,37541,6,0,B|305:275|342:195|244:198,1,185.625007081032,6|0,0:0|0:0,0:0:0:0:
182,331,37916,6,0,P|228:297|116:238,1,247.5,0|0,0:0|0:0,0:0:0:0:
0,172,38291,6,0,L|104:158,1,82.5,8|0,0:0|0:0,0:0:0:0:
270,105,38478,2,0,L|166:91,1,82.5,0|0,0:0|0:0,0:0:0:0:
120,243,38666,1,0,0:0:0:0:
152,327,38759,1,0,0:0:0:0:
209,256,38853,6,0,P|262:263|308:281,1,82.5,0|0,0:0|0:0,0:0:0:0:
370,315,39041,2,8,P|402:357|422:402,1,82.5,2|0,0:0|0:0,0:0:0:0:
359,227,39228,6,0,P|372:203|395:190,1,41.25
466,191,39416,1,0,0:0:0:0:
468,202,39510,1,0,0:0:0:0:
488,124,39603,1,0,0:0:0:0:
498,127,39697,1,0,0:0:0:0:
429,79,39791,6,0,L|326:83,1,82.5,8|0,0:0|0:0,0:0:0:0:
306,84,39978,6,0,L|347:82,1,41.25,2|0,0:0|0:0,0:0:0:0:
512,76,40166,6,0,L|409:80,1,82.5,8|0,0:0|0:0,0:0:0:0:
306,84,40353,2,0,L|203:88,1,82.5,2|0,0:0|0:0,0:0:0:0:
68,102,40541,6,0,B|167:100|130:180|228:177,1,185.625007081032,2|0,0:0|0:0,0:0:0:0:
311,130,40916,6,0,P|265:164|377:223,1,247.5,0|0,0:0|0:0,0:0:0:0:
512,280,41291,6,0,L|404:293,1,82.5,4|0,0:0|0:0,0:0:0:0:
335,302,41478,2,0,L|227:315,1,82.5,0|0,0:0|0:0,0:0:0:0:
117,328,41666,6,0,L|158:324,1,41.25,0|0,0:0|0:0,0:0:0:0:
122,182,41853,6,0,P|162:199|197:194,1,61.875002360344,0|0,0:0|0:0,0:0:0:0:
271,86,42041,6,0,P|236:112|223:144,1,61.875002360344,2|0,0:0|0:0,0:0:0:0:
274,264,42228,6,0,P|268:220|246:193,1,61.875002360344,0|0,0:0|0:0,0:0:0:0:
53,124,42416,1,0,0:0:0:0:
45,146,42509,1,0,0:0:0:0:
81,57,42603,1,0,0:0:0:0:
89,36,42696,1,0,0:0:0:0:
34,174,42791,6,0,L|217:198,1,185.625007081032,14|2,0:0|0:0,0:0:0:0:
496,175,43166,2,0,L|312:150,1,185.625007081032,6|2,0:0|0:0,0:0:0:0:
68,368,43541,6,0,B|167:370|130:290|228:293,1,185.625007081032,6|0,0:0|0:0,0:0:0:0:
384,320,43916,1,0,0:0:0:0:
370,315,44009,1,0,0:0:0:0:
303,265,44103,6,0,L|395:269,1,82.5,0|0,0:0|0:0,0:0:0:0:
189,193,44291,2,0,L|281:197,1,82.5,8|0,0:0|0:0,0:0:0:0:
320,88,44478,1,0,0:0:0:0:
334,93,44571,1,0,0:0:0:0:
410,145,44665,6,0,L|318:141,1,82.5,0|0,0:0|0:0,0:0:0:0:
162,53,44853,1,0,0:0:0:0:
176,52,44946,1,0,0:0:0:0:
170,124,45041,1,2,0:0:0:0:
184,123,45134,1,0,0:0:0:0:
189,193,45228,2,0,L|281:197,1,82.5,0|0,0:0|0:0,0:0:0:0:
135,259,45416,1,0,0:0:0:0:
140,273,45509,1,0,0:0:0:0:
165,340,45603,1,0,0:0:0:0:
170,354,45696,1,0,0:0:0:0:
244,330,45791,6,0,B|282:324|282:324|286:327|286:327|330:321,1,82.5,8|0,0:0|0:0,0:0:0:0:
410,337,45978,6,0,P|397:367|394:386,1,41.25,2|0,0:0|0:0,0:0:0:0:
216,245,46166,6,0,P|240:285|243:330,1,92.812503540516,8|0,0:0|0:0,0:0:0:0:
343,212,46353,6,0,P|373:199|392:196,1,41.25,2|0,0:0|0:0,0:0:0:0:
455,249,46541,6,0,B|506:164|418:156|470:72,1,185.625007081032,6|0,0:0|0:0,0:0:0:0:
384,61,46916,6,0,P|350:107|291:-5,1,247.5,0|0,0:0|0:0,0:0:0:0:
187,25,47291,2,0,P|188:84|203:123,1,82.5,8|0,0:0|0:0,0:0:0:0:
248,168,47478,2,0,P|304:187|346:188,1,82.5,0|0,0:0|0:0,0:0:0:0:
171,197,47666,2,0,P|181:218|192:230,1,41.25,0|0,0:0|0:0,0:0:0:0:
369,336,47853,6,0,P|356:363|333:384,1,61.875002360344,0|0,0:0|0:0,0:0:0:0:
292,318,48041,2,0,P|274:293|269:263,1,61.875002360344,2|0,0:0|0:0,0:0:0:0:
347,261,48228,2,0,P|377:258|406:268,1,61.875002360344,0|0,0:0|0:0,0:0:0:0:
369,336,48416,6,0,P|356:363|333:384,1,61.875002360344,0|0,0:0|0:0,0:0:0:0:
292,318,48603,2,0,P|274:293|269:263,1,61.875002360344,0|0,0:0|0:0,0:0:0:0:
321,190,48791,6,0,L|506:166,1,185.625007081032,6|2,0:0|0:0,0:0:0:0:
228,142,49166,2,0,L|44:167,1,185.625007081032,6|2,0:0|0:0,0:0:0:0:
309,84,49541,6,0,B|408:86|371:6|469:9,1,185.625007081032,6|0,0:0|0:0,0:0:0:0:
479,94,49916,1,0,0:0:0:0:
466,92,50009,1,0,0:0:0:0:
461,167,50103,1,0,0:0:0:0:
448,165,50196,1,0,0:0:0:0:
443,240,50291,2,0,L|361:228,1,82.5,8|0,0:0|0:0,0:0:0:0:
223,220,50478,1,0,0:0:0:0:
236,218,50571,1,0,0:0:0:0:
241,293,50665,1,0,0:0:0:0:
254,291,50758,1,0,0:0:0:0:
259,366,50853,2,0,L|341:354,1,82.5,0|0,0:0|0:0,0:0:0:0:
461,167,51041,5,2,0:0:0:0:
448,165,51134,1,0,0:0:0:0:
443,240,51229,2,0,L|361:228,1,82.5,0|0,0:0|0:0,0:0:0:0:
223,145,51416,5,0,0:0:0:0:
226,66,51509,1,0,0:0:0:0:
288,15,51603,1,0,0:0:0:0:
367,28,51697,1,0,0:0:0:0:
403,99,51791,6,0,L|388:184,3,82.5,8|0|2|0,0:0|0:0|0:0|0:0,0:0:0:0:
315,319,52166,2,0,L|329:237,3,82.5,8|0|2|0,0:0|0:0|0:0|0:0,0:0:0:0:
482,231,52541,6,0,B|383:233|420:153|322:156,1,185.625007081032,10|0,0:0|0:0,0:0:0:0:
256,261,52916,1,0,0:0:0:0:
258,274,53009,1,0,0:0:0:0:
183,279,53103,1,0,0:0:0:0:
185,292,53196,1,0,0:0:0:0:
109,297,53291,2,0,L|121:379,1,82.5,8|0,0:0|0:0,0:0:0:0:
20,241,53478,1,0,0:0:0:0:
18,228,53571,1,0,0:0:0:0:
93,223,53665,1,0,0:0:0:0:
91,210,53758,1,0,0:0:0:0:
167,205,53853,2,0,L|161:164,1,41.25,0|0,0:0|0:0,0:0:0:0:
241,187,53947,2,0,L|235:146,1,41.25,0|0,0:0|0:0,0:0:0:0:
315,169,54041,6,0,L|309:128,1,41.25,2|0,0:0|0:0,0:0:0:0:
320,209,54134,6,0,L|314:168,1,41.25,0|0,0:0|0:0,0:0:0:0:
325,249,54228,6,0,L|319:208,1,41.25,0|0,0:0|0:0,0:0:0:0:
330,289,54322,6,0,L|324:248,1,41.25,0|0,0:0|0:0,0:0:0:0:
335,329,54416,6,0,L|329:288,1,41.25,0|0,0:0|0:0,0:0:0:0:
340,369,54509,6,0,L|334:328,1,41.25,0|0,0:0|0:0,0:0:0:0:
357,382,54603,2,0,L|345:300,1,82.5,0|0,0:0|0:0,0:0:0:0:
458,113,54791,6,0,L|452:326,1,185.625007081032,6|2,0:0|0:0,0:0:0:0:
204,384,55166,2,0,L|198:198,1,185.625007081032,6|2,0:0|0:0,0:0:0:0:
45,184,55541,6,0,B|144:186|107:106|205:109,1,185.625007081032,6|0,0:0|0:0,0:0:0:0:
267,242,55916,6,0,P|221:208|333:149,1,247.5,2|0,0:0|0:0,0:0:0:0:
360,244,56291,2,0,P|347:297|311:331,1,82.5,8|0,0:0|0:0,0:0:0:0:
328,142,56478,6,0,P|325:86|396:158,1,247.5,2|0,0:0|0:0,0:0:0:0:
343,227,56853,2,0,P|304:224|262:198,1,82.5,8|0,0:0|0:0,0:0:0:0:
401,155,57041,6,0,P|438:114|435:212,1,247.5,2|0,0:0|0:0,0:0:0:0:
336,205,57416,2,0,P|321:180|323:121,3,82.5,0|0|0|0,0:0|0:0|0:0|0:0,0:0:0:0:
374,53,57791,6,0,L|181:35,1,185.625007081032,6|2,0:0|0:0,0:0:0:0:
0,181,58166,2,0,L|184:163,1,185.625007081032,6|2,0:0|0:0,0:0:0:0:
431,326,58541,6,0,B|332:328|369:248|271:251,1,185.625007081032,6|0,0:0|0:0,0:0:0:0:
209,384,58916,6,0,P|255:350|143:291,1,247.5,2|0,0:0|0:0,0:0:0:0:
0,181,59291,6,0,L|184:163,1,185.625007081032,6|0,0:0|0:0,0:0:0:0:
374,53,59666,2,0,L|181:35,1,185.625007081032,6|2,0:0|0:0,0:0:0:0:
501,353,60041,6,0,B|402:342|448:268|351:259,1,185.625007081032,6|0,0:0|0:0,0:0:0:0:
386,77,60416,6,0,B|426:167|338:164|379:253,1,185.625007081032,6|0,0:0|0:0,0:0:0:0:
191,325,60791,6,0,B|248:244|290:322|347:242,1,185.625007081032,6|2,0:0|0:0,0:0:0:0:
121,65,61166,6,0,P|41:23|66:144,1,278.437510621548,6|0,0:0|0:0,0:0:0:0:
149,146,61541,6,0,B|248:148|211:68|309:71,1,185.625007081032,6|0,0:0|0:0,0:0:0:0:
149,147,64541,6,0,B|248:149|211:69|309:72,1,185.625007081032,6|0,0:0|0:0,0:0:0:0:
321,159,66791,6,0,L|302:157,8,15.468750590086,2|0|0|0|0|0|0|0|2,0:1|0:0|0:0|0:0|0:0|0:0|0:0|0:0|0:1,0:0:0:0:
396,140,67072,1,2,0:1:0:0:
396,140,67166,1,2,0:1:0:0:
342,232,67353,1,2,0:1:0:0:
149,147,67541,6,0,B|248:149|211:69|309:72,1,185.625007081032,6|0,0:0|0:0,0:0:0:0:
308,71,67916,1,2,0:0:0:0:
308,71,68103,1,2,0:0:0:0:
149,147,68291,6,0,B|254:149|214:64|318:67,1,198,6|0,0:0|0:0,0:0:0:0:
319,67,68666,1,2,0:0:0:0:
319,67,68853,1,2,0:0:0:0:
149,147,69041,6,0,B|260:149|218:59|329:62,1,210.375004012585,6|0,0:0|0:0,0:0:0:0:
330,62,69416,1,2,0:0:0:0:
330,62,69603,1,2,0:0:0:0:
149,147,69791,6,0,B|267:149|223:53|340:57,1,222.74999320221,6|0,0:0|0:0,0:0:0:0:
341,57,70166,1,2,0:0:0:0:
341,57,70353,1,2,0:0:0:0:
149,147,70541,6,0,B|273:149|227:48|350:52,1,235.124993721485,6|0,0:0|0:0,0:0:0:0:
351,52,70916,1,2,0:0:0:0:
351,52,71103,1,2,0:0:0:0:
149,147,71291,6,0,P|178:145|196:141,1,41.25,2|2,0:0|0:0,0:0:0:0:
372,42,71853,1,0,0:0:0:0:
149,147,72041,6,0,B|287:149|235:38|372:42,1,259.874992069245,6|0,0:0|0:0,0:0:0:0:
373,42,72416,1,0,0:0:0:0:
351,147,72603,6,0,L|346:178,4,21.6562493391037,2|0|0|0|2,0:0|0:0|0:0|0:0|0:0,0:0:0:0:
444,118,72791,6,0,L|458:316,1,185.625007081032,6|2,0:0|0:0,0:0:0:0:
190,245,73166,2,0,L|176:59,1,185.625007081032,6|2,0:0|0:0,0:0:0:0:
198,330,73541,6,0,B|99:332|136:252|38:255,1,185.625007081032,6|0,0:0|0:0,0:0:0:0:
43,343,73916,1,2,0:0:0:0:
72,275,74009,1,0,0:0:0:0:
73,200,74103,1,0,0:0:0:0:
42,131,74197,1,0,0:0:0:0:
68,61,74291,6,0,L|158:42,1,61.875002360344,2|0,0:0|0:0,0:0:0:0:
292,165,74478,1,0,0:0:0:0:
278,190,74572,1,0,0:0:0:0:
199,251,74666,1,2,0:0:0:0:
175,181,74759,1,0,0:0:0:0:
188,107,74853,2,0,L|278:88,1,61.875002360344,0|0,0:0|0:0,0:0:0:0:
412,251,75041,5,2,0:0:0:0:
443,182,75135,1,0,0:0:0:0:
442,107,75229,1,0,0:0:0:0:
413,39,75322,1,0,0:0:0:0:
362,106,75416,5,2,0:0:0:0:
271,98,75509,1,0,0:0:0:0:
181,92,75603,1,0,0:0:0:0:
90,87,75697,1,0,0:0:0:0:
65,164,75791,6,0,B|66:202|66:202|70:209|70:209|72:258,1,82.5,2|0,0:0|0:0,0:0:0:0:
118,325,75978,6,0,P|142:299|150:278,1,41.25,0|0,0:0|0:0,0:0:0:0:
178,213,76166,6,0,P|238:189|261:297,1,185.625007081032,2|0,0:0|0:0,0:0:0:0:
436,355,76541,6,0,B|338:358|375:278|276:280,1,185.625007081032,6|0,0:0|0:0,0:0:0:0:
284,368,76916,1,2,0:0:0:0:
313,300,77009,1,0,0:0:0:0:
314,225,77103,1,0,0:0:0:0:
283,156,77197,1,0,0:0:0:0:
317,90,77291,6,0,L|394:81,1,61.875002360344,2|0,0:0|0:0,0:0:0:0:
283,156,77478,1,0,0:0:0:0:
215,186,77571,1,0,0:0:0:0:
155,141,77665,1,2,0:0:0:0:
89,177,77759,1,0,0:0:0:0:
19,149,77853,2,0,P|6:113|12:80,1,61.875002360344,0|0,0:0|0:0,0:0:0:0:
185,42,78041,5,2,0:0:0:0:
216,111,78135,1,0,0:0:0:0:
215,186,78229,1,0,0:0:0:0:
186,254,78322,1,0,0:0:0:0:
129,332,78416,5,2,0:0:0:0:
219,338,78509,1,0,0:0:0:0:
310,344,78603,1,0,0:0:0:0:
400,350,78697,1,0,0:0:0:0:
464,285,78791,6,0,B|465:248|465:248|469:241|469:241|470:203,1,82.5,2|0,0:0|0:0,0:0:0:0:
412,15,78978,6,0,L|420:97,1,82.5,0|0,0:0|0:0,0:0:0:0:
257,138,79166,2,0,L|265:220,1,82.5,2|0,0:0|0:0,0:0:0:0:
343,159,79353,2,0,L|335:77,1,82.5,2|0,0:0|0:0,0:0:0:0:
247,38,79541,6,0,B|148:36|185:116|87:113,1,185.625007081032,6|0,0:0|0:0,0:0:0:0:
96,31,79916,1,2,0:0:0:0:
142,99,80009,1,0,0:0:0:0:
106,173,80103,6,0,B|107:209|107:209|111:216|111:216|112:254,1,82.5,0|0,0:0|0:0,0:0:0:0:
168,377,80291,1,2,0:0:0:0:
168,377,80384,1,0,0:0:0:0:
168,377,80478,6,0,L|170:302,1,41.25,0|0,0:0|0:0,0:0:0:0:
106,173,80666,6,0,B|107:209|107:209|111:216|111:216|112:254,1,82.5,2|0,0:0|0:0,0:0:0:0:
227,291,80853,1,0,0:0:0:0:
295,261,80946,1,0,0:0:0:0:
355,306,81040,1,2,0:0:0:0:
421,270,81134,1,0,0:0:0:0:
491,298,81228,2,0,P|504:334|481:378,1,82.5,0|0,0:0|0:0,0:0:0:0:
476,203,81416,6,0,P|483:163|461:129,1,82.5,2|0,0:0|0:0,0:0:0:0:
305,107,81603,2,0,P|335:133|375:131,1,82.5,0|0,0:0|0:0,0:0:0:0:
487,5,81791,2,0,P|448:18|430:54,1,82.5,2|0,0:0|0:0,0:0:0:0:
167,240,81978,2,0,P|206:253|224:289,1,82.5,2|0,0:0|0:0,0:0:0:0:
403,211,82166,2,0,L|221:220,1,165,2|0,0:0|0:0,0:0:0:0:
0,88,82541,6,0,B|99:86|62:166|160:163,1,185.625007081032,6|0,0:0|0:0,0:0:0:0:
237,369,82916,1,0,0:0:0:0:
208,301,83009,1,0,0:0:0:0:
207,226,83103,1,0,0:0:0:0:
238,157,83197,1,0,0:0:0:0:
204,91,83291,6,0,L|127:82,1,61.875002360344,2|0,0:0|0:0,0:0:0:0:
238,157,83478,1,0,0:0:0:0:
306,187,83571,1,0,0:0:0:0:
366,142,83665,1,2,0:0:0:0:
432,178,83759,1,0,0:0:0:0:
502,150,83853,2,0,P|515:114|509:81,1,61.875002360344,0|0,0:0|0:0,0:0:0:0:
490,220,84041,1,2,0:0:0:0:
431,264,84134,1,0,0:0:0:0:
359,285,84228,6,0,L|366:363,1,61.875002360344,0|0,0:0|0:0,0:0:0:0:
293,212,84416,2,0,L|242:272,1,61.875002360344,2|0,0:0|0:0,0:0:0:0:
297,113,84603,6,0,P|256:115|203:152,1,82.5
0,218,84791,6,0,L|197:201,1,185.625007081032,6|2,0:0|0:0,0:0:0:0:
481,128,85166,2,0,L|284:111,1,185.625007081032,6|2,0:0|0:0,0:0:0:0:
79,384,85541,6,0,B|178:386|141:306|239:309,1,185.625007081032,6|0,0:0|0:0,0:0:0:0:
238,308,85916,1,0,0:0:0:0:
367,328,86103,1,0,0:0:0:0:
375,323,86197,1,0,0:0:0:0:
383,320,86291,5,8,0:0:0:0:
417,305,86384,1,0,0:0:0:0:
441,334,86478,1,0,0:0:0:0:
421,365,86572,1,0,0:0:0:0:
386,356,86666,5,0,0:0:0:0:
330,307,86759,1,0,0:0:0:0:
258,285,86853,1,0,0:0:0:0:
188,311,86947,1,0,0:0:0:0:
135,364,87041,6,0,P|103:367|70:360,1,61.875002360344,2|0,0:0|0:0,0:0:0:0:
11,206,87228,2,0,P|43:203|76:210,1,61.875002360344,0|0,0:0|0:0,0:0:0:0:
110,283,87416,1,0,0:0:0:0:
148,220,87509,1,0,0:0:0:0:
130,147,87603,2,0,P|129:117|137:77,1,61.875002360344,0|0,0:0|0:0,0:0:0:0:
271,0,87791,6,0,L|278:205,1,185.625007081032,8|2,0:0|0:0,0:0:0:0:
290,22,88166,2,0,L|297:227,1,185.625007081032,8|2,0:0|0:0,0:0:0:0:
449,219,88541,6,0,B|350:217|387:297|289:294,1,185.625007081032,6|0,0:0|0:0,0:0:0:0:
289,294,88916,1,0,0:0:0:0:
186,330,89103,1,0,0:0:0:0:
183,344,89197,1,0,0:0:0:0:
204,254,89291,2,0,L|126:262,1,61.875002360344,8|0,0:0|0:0,0:0:0:0:
35,178,89478,2,0,L|71:228,1,61.875002360344,0|0,0:0|0:0,0:0:0:0:
52,364,89666,2,0,L|77:307,1,61.875002360344,0|0,0:0|0:0,0:0:0:0:
140,178,89853,1,0,0:0:0:0:
158,105,89947,1,0,0:0:0:0:
120,40,90041,6,0,P|144:21|173:12,1,61.875002360344,2|0,0:0|0:0,0:0:0:0:
328,73,90228,2,0,P|303:91|274:100,1,61.875002360344
388,18,90416,1,0,0:0:0:0:
404,89,90509,1,0,0:0:0:0:
357,147,90603,2,0,P|345:176|345:224,1,61.875002360344,0|0,0:0|0:0,0:0:0:0:
441,284,90791,6,0,L|228:298,1,185.625007081032,6|2,0:0|0:0,0:0:0:0:
0,220,91166,2,0,L|213:206,1,185.625007081032,6|2,0:0|0:0,0:0:0:0:
423,41,91541,6,0,B|324:39|361:119|263:116,1,185.625007081032,6|0,0:0|0:0,0:0:0:0:
203,100,91916,6,0,P|228:110|264:116,1,61.875002360344,0|0,0:0|0:0,0:0:0:0:
413,128,92291,6,0,L|404:230,1,103.125,8|0,0:0|0:0,0:0:0:0:
266,32,92478,1,2,0:0:0:0:
127,259,92666,1,0,0:0:0:0:
127,259,92759,1,0,0:0:0:0:
127,259,92853,2,0,L|118:156,1,103.125,2|0,0:0|0:0,0:0:0:0:
276,302,93041,6,0,L|270:396,1,82.5,8|0,0:0|0:0,0:0:0:0:
288,151,93228,5,2,0:0:0:0:
283,227,93322,1,2,0:0:0:0:
276,302,93416,2,0,L|270:396,1,82.5,8|2,0:0|0:0,0:0:0:0:
288,151,93603,5,2,0:0:0:0:
283,227,93697,1,2,0:0:0:0:
276,302,93791,6,0,L|490:326,1,185.625007081032,6|2,0:0|0:0,0:0:0:0:
203,184,94166,6,0,L|-11:208,1,185.625007081032,6|2,0:0|0:0,0:0:0:0:
324,82,94541,6,0,B|422:85|385:5|484:7,1,185.625007081032,6|0,0:0|0:0,0:0:0:0:
469,120,94916,6,0,P|476:98|474:88,1,30.937501180172,2|0,0:0|0:0,0:0:0:0:
282,304,95103,2,0,P|275:326|277:336,1,30.937501180172,2|0,0:0|0:0,0:0:0:0:
381,169,95291,6,0,L|388:274,1,92.812503540516,6|0,0:0|0:0,0:0:0:0:
372,312,95478,2,0,L|359:118,1,185.625007081032,6|0,0:0|0:0,0:0:0:0:
288,42,95759,1,2,0:0:0:0:
231,82,95853,1,2,0:0:0:0:
162,94,95947,1,2,0:0:0:0:
118,148,96041,6,0,P|126:235|80:345,1,185.625007081032,6|2,0:0|0:0,0:0:0:0:
284,80,96416,6,0,P|212:130|94:145,1,185.625007081032,6|2,0:0|0:0,0:0:0:0:
426,190,96791,6,0,P|346:153|274:58,1,185.625007081032,6|2,0:0|0:0,0:0:0:0:
401,368,97166,6,0,P|393:281|439:171,1,185.625007081032,6|2,0:0|0:0,0:0:0:0:
93,326,97541,6,0,B|173:343|154:272|234:289,1,154.6875,6|0,0:0|0:0,0:0:0:0:
235,289,97916,2,0,P|243:320|242:362,1,61.875002360344,0|0,0:0|0:0,0:0:0:0:
109,234,98291,1,8,0:0:0:0:
158,155,98478,1,0,0:0:0:0:
80,106,98666,1,2,0:1:0:0:
31,186,98853,2,0,P|17:261|23:315,1,123.750004720688,0|0,0:0|0:0,0:0:0:0:
21,307,99603,5,0,0:0:0:0:
233,198,99791,2,0,P|261:190|295:187,1,61.875002360344,8|0,0:0|0:0,0:0:0:0:
405,262,100166,1,2,0:1:0:0:
359,106,100353,2,0,P|335:51|369:3,1,123.750004720688,0|0,0:0|0:0,0:0:0:0:
369,3,100916,1,2,0:1:0:0:
456,62,101103,1,0,0:0:0:0:
249,55,101291,2,0,P|202:58|158:71,1,92.812503540516,8|0,0:0|0:0,0:0:0:0:
158,71,101666,1,2,0:1:0:0:
128,193,101853,2,0,L|134:329,1,123.750004720688,0|0,0:0|0:0,0:0:0:0:
301,267,102603,5,0,0:0:0:0:
338,185,102790,1,8,0:0:0:0:
420,223,102978,1,0,0:0:0:0:
382,304,103166,1,2,0:0:0:0:
255,164,103353,2,0,P|284:114|349:98,1,123.750004720688,0|0,0:0|0:0,0:0:0:0:
345,97,104291,5,8,0:0:0:0:
299,2,104478,1,0,0:0:0:0:
202,45,104666,1,2,0:1:0:0:
248,141,104853,2,0,P|167:165|89:138,1,123.750004720688
119,274,105603,6,0,P|44:233|8:159,1,123.750004720688
299,220,106353,6,0,P|341:280|333:337,1,123.750004720688,0|0,0:0|0:0,0:0:0:0:
413,224,107291,6,0,P|412:163|451:116,1,123.750004720688,8|2,0:0|0:1,0:0:0:0:
483,324,108041,5,2,0:0:0:0:
265,298,108228,1,0,0:0:0:0:
265,298,108322,1,0,0:0:0:0:
265,298,108416,2,0,L|208:290,1,30.937501180172,2|0,0:1|0:0,0:0:0:0:
160,278,108603,2,0,L|103:270,1,30.937501180172,0|0,0:0|0:0,0:0:0:0:
58,261,108791,5,8,0:0:0:0:
115,126,108978,6,0,L|122:206,1,61.875002360344,4|0,0:0|0:0,0:0:0:0:
184,43,109166,6,0,L|273:198,1,165,4|0,0:0|0:0,0:0:0:0:
