osu file format v14

[General]
AudioFilename: audio.mp3
AudioLeadIn: 0
PreviewTime:697
Countdown: 0
SampleSet: Soft
StackLeniency: 0.5
Mode: 0
LetterboxInBreaks: 0
WidescreenStoryboard: 1

[Editor]
Bookmarks: 1541,13541,25541,36041,47666,49541,54250,56478,57041,61541,73166,73541,97541
DistanceSpacing: 0.93
BeatDivisor: 4
GridSize: 8
TimelineZoom: 1.299999

[Metadata]
Title:Breach
TitleUnicode:Breach
Artist:M2U feat. NICODE
ArtistUnicode:M2U feat. NICODE
Creator:Okoratu
Version:Normal
Source:RIDE ZERO
Tags:electronic instrumental okorin neqoo krimek sylvarus English Video Game
BeatmapID:3149547
BeatmapSetID:1529336

[Difficulty]
HPDrainRate:3
CircleSize:3.3
OverallDifficulty:4.5
ApproachRate:6
SliderMultiplier:1.1
SliderTickRate:1

[Events]
//Background and Video events
0,0,"behgeh-soul.jpg",0,0
//Break Periods
//Storyboard Layer 0 (Background)
//Storyboard Layer 1 (Fail)
//Storyboard Layer 2 (Pass)
//Storyboard Layer 3 (Foreground)
//Storyboard Layer 4 (Overlay)
//Storyboard Sound Samples

[TimingPoints]
813,375,4,2,0,75,1,0
813,-133.333333333333,4,2,0,75,0,0
1563,375,4,2,0,75,1,0
25563,-100,4,2,0,60,0,0
32313,-100,4,2,0,65,0,0
33063,-100,4,2,0,70,0,0
33813,-100,4,2,0,60,0,0
34563,-133.333333333333,4,2,0,55,0,0
35313,-133.333333333333,4,2,0,50,0,0
36063,-100,4,2,0,83,0,0
37563,-100,4,2,0,83,0,1
37938,-88.4955752212389,4,2,0,83,0,1
38313,-88.4955752212389,4,2,0,83,0,1
39813,-88.4955752212389,4,2,0,83,0,1
40938,-88.4955752212389,4,2,0,83,0,1
41313,-88.4955752212389,4,2,0,83,0,1
41688,-88.4955752212389,4,2,0,83,0,1
41875,-88.4955752212389,4,2,0,83,0,1
42813,-88.4955752212389,4,2,0,83,0,1
43000,-88.4955752212389,4,2,0,83,0,1
43188,-88.4955752212389,4,2,0,83,0,1
43375,-88.4955752212389,4,2,0,83,0,1
43563,-88.4955752212389,4,2,0,83,0,1
45813,-88.4955752212389,4,2,0,83,0,1
46938,-88.4955752212389,4,2,0,83,0,1
47313,-88.4955752212389,4,2,0,83,0,1
49563,-88.4955752212389,4,2,0,83,0,1
52563,-88.4955752212389,4,2,0,83,0,1
55563,-88.4955752212389,4,2,0,83,0,1
55938,-88.4955752212389,4,2,0,83,0,1
56500,-88.4955752212389,4,2,0,83,0,1
57063,-88.4955752212389,4,2,0,83,0,1
57813,-88.4955752212389,4,2,0,83,0,1
58000,-88.4955752212389,4,2,0,83,0,1
58188,-88.4955752212389,4,2,0,83,0,1
58375,-88.4955752212389,4,2,0,83,0,1
58563,-88.4955752212389,4,2,0,83,0,1
58938,-88.4955752212389,4,2,0,83,0,1
60063,-88.4955752212389,4,2,0,83,0,1
61563,-100,4,2,0,60,0,0
67563,-100,4,2,0,60,0,0
68313,-100,4,2,0,65,0,0
69063,-100,4,2,0,70,0,0
69813,-100,4,2,0,60,0,0
70563,-133.333333333333,4,2,0,55,0,0
71313,-133.333333333333,4,2,0,50,0,0
72063,-88.4955752212389,4,2,0,75,0,0
73563,-88.4955752212389,4,2,0,85,0,1
97563,-100,4,2,0,75,0,0

[Colours]
Combo1 : 255,137,81
Combo2 : 32,255,143
Combo3 : 255,100,100
Combo4 : 0,210,210

[HitObjects]
90,114,813,5,0,0:0:0:0:
174,168,1188,1,0,0:0:0:0:
222,69,1563,2,0,B|251:40|251:40|341:49,2,110,6|0|8,1:2|3:0|1:1,0:3:0:0:
174,168,2688,1,0,3:0:0:0:
174,278,3063,6,0,P|128:309|72:308,1,110,0|0,1:0|3:0,0:0:0:0:
24,330,3625,1,0,3:0:0:0:
24,330,3813,2,0,L|37:203,1,110,8|0,1:0|3:0,0:0:0:0:
40,110,4563,5,0,1:0:0:0:
146,164,4938,1,2,3:3:0:0:
146,164,5125,1,0,3:0:0:0:
146,164,5313,2,0,P|201:176|261:149,1,110,8|2,1:0|3:2,0:0:0:0:
308,64,6063,6,0,P|347:70|378:135,1,110,4|2,1:3|3:0,0:0:0:0:
341,168,6625,1,4,1:3:0:0:
341,168,6813,2,0,L|327:281,1,110,8|4,1:0|1:3,0:0:0:0:
430,316,7563,6,0,L|444:203,1,110,0|2,1:0|3:0,0:0:0:0:
457,97,8313,2,0,L|519:104,2,55,8|0|0,1:0|0:0|3:0,0:0:0:0:
405,115,8875,5,2,3:2:0:0:
310,58,9250,1,0,0:0:0:0:
214,112,9625,2,0,P|205:192|209:237,1,110,0|2,3:0|0:0,0:0:0:0:
183,271,10188,1,2,3:0:0:0:
183,271,10375,6,0,P|134:212|44:237,1,165,0|0,3:0|0:0,0:0:0:0:
7,325,11313,1,8,1:0:0:0:
108,367,11688,1,0,3:0:0:0:
203,312,12063,6,0,L|325:321,1,110,0|2,1:0|3:0,0:0:0:0:
362,343,12625,1,0,1:3:0:0:
362,343,12813,2,0,P|343:277|378:228,1,110,8|4,1:0|1:3,0:0:0:0:
428,156,13563,6,0,P|438:119|438:91,1,55,4|0,1:2|0:0,0:0:0:0:
392,72,13938,2,0,P|334:88|268:77,1,110,2|8,3:0|1:0,0:0:0:0:
184,37,14688,1,0,3:0:0:0:
184,37,14875,6,0,P|147:64|149:137,1,110,4|2,1:3|3:0,0:0:0:0:
182,162,15438,2,0,P|194:202|157:265,1,110,0|8,1:0|1:0,0:0:0:0:
63,303,16188,1,0,1:0:0:0:
63,303,16375,1,0,1:0:0:0:
63,303,16563,6,0,L|55:181,1,110,0|2,1:0|3:0,0:0:0:0:
26,87,17313,2,0,P|59:105|139:89,1,110,8|2,1:0|3:0,0:0:0:0:
150,45,17875,6,0,L|276:62,1,110,4|0,1:2|3:0,0:0:0:0:
313,155,18625,2,0,P|295:205|294:268,1,110,4|2,1:0|3:0,0:0:0:0:
293,316,19188,1,4,1:0:0:0:
400,291,19563,6,0,P|418:241|419:178,1,110,4|2,1:2|3:0,0:0:0:0:
449,137,20125,1,0,3:0:0:0:
449,137,20313,2,0,L|318:123,1,110,8|2,1:0|3:0,0:0:0:0:
233,94,21063,6,0,P|258:147|247:212,1,110,0|2,1:0|3:0,0:0:0:0:
189,286,21813,2,0,P|154:275|132:276,1,55,8|0,1:0|1:0,0:0:0:0:
95,312,22188,2,0,P|60:314|26:304,1,55,0|0,1:0|1:0,0:0:0:0:
13,262,22563,6,0,P|38:209|27:144,1,110,4|2,1:3|3:0,0:0:0:0:
9,51,23313,1,8,1:0:0:0:
111,90,23688,1,0,3:0:0:0:
111,90,23875,6,0,P|160:98|216:80,1,110,4|2,1:0|0:0,0:0:0:0:
294,157,24625,2,0,P|273:192|262:265,1,110,4|2,1:0|3:0,0:0:0:0:
262,314,25188,1,4,1:3:0:0:
368,343,25563,6,0,B|438:262|348:201|434:130,1,220,4|2,1:3|3:0,0:0:0:0:
378,38,26688,1,0,3:0:0:0:
378,38,26875,2,0,P|333:80|226:55,1,165,0|0,0:0|3:0,0:0:0:0:
133,26,27813,1,2,3:2:0:0:
62,110,28188,1,2,3:2:0:0:
118,204,28563,6,0,P|124:249|111:320,1,110,4|0,1:0|3:0,0:0:0:0:
215,354,29313,1,2,3:0:0:0:
276,262,29688,1,0,3:0:0:0:
276,262,29875,2,0,B|351:229|362:299|456:264,1,165,2|2,0:0|3:0,0:0:0:0:
490,174,30813,1,2,3:2:0:0:
411,96,31188,1,2,3:2:0:0:
312,144,31563,6,0,L|193:134,1,110,4|2,1:2|1:3,0:0:0:0:
166,177,32125,1,2,3:2:0:0:
166,177,32313,2,0,P|182:239|167:290,1,110,4|2,1:2|1:3,0:0:0:0:
74,334,33063,5,4,1:2:0:0:
21,237,33438,1,2,1:3:0:0:
21,237,33625,1,2,3:2:0:0:
21,237,33813,2,0,L|33:108,1,110,6|2,0:0|3:0,0:0:0:0:
101,44,34563,6,0,P|123:66|185:68,1,82.5000031471254,6|2,0:0|3:0,0:0:0:0:
266,32,35313,1,2,0:0:0:0:
304,114,35688,1,2,3:0:0:0:
257,195,36063,5,4,1:0:0:0:
451,93,36813,1,6,1:2:0:0:
347,55,37188,1,8,1:0:0:0:
296,143,37563,2,0,L|303:257,1,110,4|0,1:0|1:0,0:0:0:0:
229,342,38313,5,10,1:0:0:0:
172,352,38500,1,2,1:0:0:0:
121,323,38688,1,2,3:2:0:0:
185,227,39063,2,0,L|180:89,1,124.300000379334,4|2,1:3|3:2,0:0:0:0:
85,29,39813,1,8,1:0:0:0:
38,63,40000,1,8,1:3:0:0:
33,120,40188,1,8,1:0:0:0:
59,232,40563,6,0,L|66:371,1,124.300000379334,4|2,1:2|0:0,0:3:0:0:
160,291,41313,1,10,1:0:0:0:
160,291,41500,1,2,1:0:0:0:
160,291,41688,2,0,L|236:299,1,62.1500001896668,2|2,1:0|0:0,0:0:0:0:
260,340,42063,6,0,P|274:281|269:209,2,124.300000379334,4|2|8,1:3|3:2|1:0,0:0:0:0:
375,334,43188,1,8,1:0:0:0:
375,334,43375,1,4,1:3:0:0:
375,334,43563,6,2,L|501:340,1,124.300000379334,4|2,1:0|3:2,0:3:0:0:
503,224,44313,1,10,1:0:0:0:
393,187,44688,1,2,1:0:0:0:
435,79,45063,5,2,3:2:0:0:
435,79,45250,2,0,L|310:65,1,124.300000379334,2|2,1:0|3:2,0:0:0:0:
253,70,45813,1,10,1:0:0:0:
223,119,46000,1,8,1:3:0:0:
232,176,46188,1,6,1:3:0:0:
177,277,46563,5,6,1:2:0:0:
62,258,46938,2,2,P|38:211|66:132,1,124.300000379334,2|10,0:0|1:0,0:3:0:0:
124,51,47688,1,2,1:0:0:0:
211,126,48063,6,0,L|297:141,1,62.1500001896668,4|2,1:3|0:0,0:0:0:0:
298,188,48438,2,0,L|384:203,1,62.1500001896668,2|2,3:2|0:0,0:0:0:0:
416,210,48813,1,8,1:0:0:0:
437,263,49000,1,8,1:3:0:0:
405,311,49188,1,8,1:0:0:0:
296,349,49563,5,4,1:2:0:0:
230,253,49938,2,0,L|235:176,1,62.1500001896668,2|2,3:2|3:2,0:0:0:0:
261,140,50313,2,0,P|271:93|221:37,1,124.300000379334,10|2,1:0|3:2,0:0:0:0:
167,45,50875,1,2,1:0:0:0:
59,87,51250,6,0,L|69:222,1,124.300000379334,2|2,1:0|3:2,0:0:0:0:
71,268,51813,1,8,1:0:0:0:
128,368,52188,1,8,1:0:0:0:
179,342,52375,1,4,1:3:0:0:
232,364,52563,1,4,1:2:0:0:
260,252,52938,5,2,3:2:0:0:
346,329,53313,2,0,P|400:362|472:344,1,124.300000379334,2|2,1:0|3:2,0:0:0:0:
489,306,53875,1,2,3:0:0:0:
489,306,54063,6,0,P|489:225|506:122,1,186.450000569,6|2,1:3|1:2,0:0:0:0:
496,64,54813,1,8,1:0:0:0:
388,99,55188,1,8,1:0:0:0:
331,86,55375,1,4,1:3:0:0:
293,41,55563,1,4,1:2:0:0:
193,99,55938,6,2,P|142:109|63:111,1,124.300000379334,2|8,0:0|1:0,0:3:0:0:
41,161,56500,2,2,P|51:212|53:291,1,124.300000379334,4|8,1:3|1:0,0:3:0:0:
100,318,57063,2,0,P|151:308|230:306,1,124.300000379334,4|2,1:3|3:2,0:0:0:0:
324,360,57813,1,8,1:0:0:0:
381,366,58000,1,8,1:3:0:0:
429,334,58188,1,8,1:0:0:0:
451,220,58563,6,2,L|320:226,1,124.300000379334,4|0,1:0|1:0,3:0:0:0:
214,253,59313,1,12,1:0:0:0:
240,140,59688,1,12,1:0:0:0:
148,69,60063,5,4,1:2:0:0:
41,113,60438,1,4,1:2:0:0:
30,228,60813,2,0,L|106:213,1,62.1500001896668,8|8,1:0|1:3,0:0:0:0:
148,222,61188,2,0,L|221:241,1,62.1500001896668,8|4,1:0|1:3,0:0:0:0:
251,210,61563,6,0,P|236:326|320:333,1,220,6|2,1:2|3:0,0:0:0:0:
405,292,62688,1,2,3:0:0:0:
365,197,63063,2,0,P|355:146|404:88,1,110,2|2,3:0|3:0,0:0:0:0:
482,125,63813,2,0,P|492:176|443:234,1,110,2|2,3:0|3:0,0:0:0:0:
392,297,64563,6,0,B|263:251|293:335|155:292,1,220,4|2,1:0|3:0,0:0:0:0:
97,233,65688,1,2,3:0:0:0:
172,163,66063,2,0,P|181:129|153:52,1,110,2|2,3:0|3:0,0:0:0:0:
57,58,66813,1,2,3:3:0:0:
18,152,67188,1,2,3:2:0:0:
18,152,67375,1,2,3:0:0:0:
18,152,67563,6,0,L|26:266,1,110,4|2,1:2|1:3,0:0:0:0:
55,303,68125,1,2,3:2:0:0:
55,303,68313,2,0,P|104:284|168:294,1,110,4|2,1:2|1:3,0:0:0:0:
249,339,69063,5,4,1:2:0:0:
328,274,69438,1,2,1:3:0:0:
328,274,69625,1,2,3:2:0:0:
328,274,69813,2,0,L|344:156,1,110,4|2,1:2|1:3,0:0:0:0:
375,64,70563,6,0,L|285:76,1,82.5000031471254,4|2,1:2|1:2,0:0:0:0:
184,64,71313,2,0,L|194:113,1,41.2500015735627,4|0,1:2|1:0,0:0:0:0:
215,139,71688,2,0,L|205:188,1,41.2500015735627,2|2,1:3|1:2,0:0:0:0:
173,208,72063,1,4,1:0:0:0:
379,311,72813,5,6,1:2:0:0:
472,242,73188,1,8,1:0:0:0:
396,154,73563,5,6,1:2:0:0:
292,205,73938,2,0,P|245:216|162:176,1,124.300000379334,2|2,1:2|1:3,0:0:0:0:
147,139,74500,2,0,P|100:128|17:168,1,124.300000379334,2|2,3:2|3:0,0:0:0:0:
23,211,75063,2,0,L|36:353,1,124.300000379334,2|2,1:2|1:0,0:0:0:0:
148,353,75813,1,2,1:0:0:0:
188,312,76000,1,2,3:2:0:0:
244,323,76188,1,2,1:2:0:0:
354,356,76563,5,6,1:2:0:0:
339,241,76938,2,0,P|323:197|341:117,1,124.300000379334,2|2,1:2|1:3,0:0:0:0:
305,74,77500,2,0,L|446:80,1,124.300000379334,2|2,3:2|3:3,0:0:0:0:
462,126,78063,2,0,P|478:170|460:250,1,124.300000379334,2|2,1:2|1:0,0:0:0:0:
374,318,78813,2,0,L|294:308,1,62.1500001896668,2|2,1:0|1:2,0:0:0:0:
271,286,79188,1,2,1:2:0:0:
271,286,79375,1,2,1:2:0:0:
271,286,79563,6,0,L|137:274,1,124.300000379334,6|2,1:0|1:2,0:0:0:0:
91,288,80125,1,2,1:0:0:0:
97,176,80500,1,2,1:0:0:0:
97,176,80688,2,0,L|239:186,1,124.300000379334,2|2,1:0|1:2,0:0:0:0:
291,276,81438,1,2,1:3:0:0:
325,229,81625,1,2,1:2:0:0:
382,228,81813,1,2,1:3:0:0:
468,304,82188,1,4,1:0:0:0:
477,189,82563,5,4,1:2:0:0:
378,129,82938,2,0,P|310:146|243:128,1,124.300000379334,2|2,1:2|1:3,0:0:0:0:
210,168,83500,2,0,P|217:237|210:298,1,124.300000379334,2|2,3:2|3:3,0:0:0:0:
169,331,84063,1,0,1:0:0:0:
53,327,84438,1,2,3:0:0:0:
53,327,84625,1,2,1:2:0:0:
53,327,84813,2,0,L|58:251,1,62.1500001896668,8|8,1:0|1:3,0:0:0:0:
102,229,85188,2,0,L|94:157,1,62.1500001896668,8|4,1:0|1:3,0:0:0:0:
55,125,85563,6,2,P|57:71|122:39,1,124.300000379334,4|2,1:2|0:0,0:3:0:0:
192,122,86313,2,0,B|284:106|290:159|382:137,1,186.450000569,8|2,1:0|3:2,0:0:0:0:
423,106,87063,1,2,1:0:0:0:
423,106,87250,2,0,L|410:231,1,124.300000379334,2|2,1:0|1:0,0:0:0:0:
401,286,87813,1,8,1:0:0:0:
312,359,88188,1,8,1:0:0:0:
290,305,88375,1,4,1:3:0:0:
299,247,88563,1,4,1:2:0:0:
336,137,88938,6,0,P|282:118|208:126,1,124.300000379334,2|8,0:0|1:0,0:0:0:0:
170,158,89500,1,2,1:0:0:0:
170,158,89688,2,0,L|38:152,1,124.300000379334,2|2,1:0|1:0,0:0:0:0:
15,201,90250,2,0,L|29:328,1,124.300000379334,2|2,1:0|1:0,0:0:0:0:
18,381,90813,1,8,1:0:0:0:
124,337,91188,1,8,1:0:0:0:
181,337,91375,1,4,1:3:0:0:
235,357,91563,1,4,1:2:0:0:
242,241,91938,6,2,B|224:177|276:169|249:97,2,124.300000379334,2|10|2,0:0|1:0|1:0,0:0:0:0:
323,322,93063,1,8,1:0:0:0:
436,300,93438,1,10,1:0:0:0:
398,190,93813,1,10,1:0:0:0:
421,137,94000,1,8,1:3:0:0:
477,122,94188,1,8,1:0:0:0:
398,36,94563,6,2,L|264:44,1,124.300000379334,4|0,1:2|1:0,0:3:0:0:
158,38,95313,1,10,1:0:0:0:
158,38,95500,2,2,P|186:96|170:170,1,124.300000379334,2|2,1:0|1:3,0:3:0:0:
141,198,96063,1,2,1:0:0:0:
28,171,96438,1,8,1:0:0:0:
24,286,96813,2,0,P|36:319|65:336,1,62.1500001896668,8|8,1:0|1:3,0:0:0:0:
112,353,97188,2,0,P|124:320|153:303,1,62.1500001896668,8|4,1:0|1:3,0:0:0:0:
200,311,97563,6,0,B|240:330|240:330|316:302,2,110,4|2|8,1:2|3:2|1:0,0:0:0:0:
134,222,98688,1,0,3:0:0:0:
210,143,99063,6,0,P|250:137|332:159,1,110,0|0,1:0|0:0,0:0:0:0:
354,191,99625,1,2,0:0:0:0:
354,191,99813,2,0,L|340:315,1,110,8|2,1:0|3:0,0:0:0:0:
438,353,100563,5,0,1:0:0:0:
476,250,100938,1,0,3:0:0:0:
476,250,101125,1,0,3:0:0:0:
476,250,101313,2,0,L|490:126,1,110,8|0,1:0|3:0,0:0:0:0:
436,43,102063,6,0,P|395:57|319:54,1,110,4|0,1:3|3:0,0:0:0:0:
283,87,102625,1,4,1:3:0:0:
283,87,102813,2,0,P|242:73|166:76,1,110,8|4,1:0|1:3,0:0:0:0:
75,29,103563,6,0,B|106:89|79:162|79:161,1,110,0|0,1:0|3:0,0:0:0:0:
55,242,104313,2,0,P|48:282|52:305,2,55,8|0|2,1:0|0:0|3:2,0:0:0:0:
106,221,104875,5,0,3:0:0:0:
169,310,105250,1,0,0:0:0:0:
270,266,105625,2,0,P|322:263|390:299,1,110,0|0,3:0|3:0,0:0:0:0:
414,322,106188,1,0,3:0:0:0:
414,322,106375,6,0,B|387:247|446:225|421:156,1,165,0|0,0:0|3:0,0:0:0:0:
328,103,107313,2,0,P|250:118|219:106,1,110,8|0,1:0|3:0,0:0:0:0:
117,78,108063,5,4,1:3:0:0:
117,78,108250,2,0,B|125:118|125:118|117:137|117:137|126:201,1,110,2|2,3:2|3:0,0:0:0:0:
163,223,108813,2,0,L|151:295,1,55,8|2,1:0|1:0,0:0:0:0:
130,327,109188,1,2,1:0:0:0:
