osu file format v14

[General]
AudioFilename: audio.mp3
AudioLeadIn: 0
PreviewTime:697
Countdown: 0
SampleSet: Soft
StackLeniency: 0.5
Mode: 0
LetterboxInBreaks: 0
WidescreenStoryboard: 1

[Editor]
Bookmarks: 1541,13541,25541,36041,47666,49541,54250,56478,61541,73541,97541
DistanceSpacing: 1.8
BeatDivisor: 4
GridSize: 8
TimelineZoom: 2.799999

[Metadata]
Title:Breach
TitleUnicode:Breach
Artist:M2U feat. NICODE
ArtistUnicode:M2U feat. NICODE
Creator:Okoratu
Version:Insane
Source:RIDE ZERO
Tags:electronic instrumental okorin neqoo krimek sylvarus English Video Game
BeatmapID:3184665
BeatmapSetID:1529336

[Difficulty]
HPDrainRate:6
CircleSize:4
OverallDifficulty:8
ApproachRate:9
SliderMultiplier:1.7
SliderTickRate:1

[Events]
//Background and Video events
0,0,"behgeh-soul.jpg",0,0
//Break Periods
//Storyboard Layer 0 (Background)
//Storyboard Layer 1 (Fail)
//Storyboard Layer 2 (Pass)
//Storyboard Layer 3 (Foreground)
//Storyboard Layer 4 (Overlay)
//Storyboard Sound Samples

[TimingPoints]
813,375,4,2,0,75,1,0
813,-133.333333333333,4,2,0,75,0,0
1563,375,4,2,0,75,1,0
25563,-100,4,2,0,60,0,0
31563,-83.3333333333333,4,2,0,60,0,0
32313,-83.3333333333333,4,2,0,65,0,0
33063,-100,4,2,0,70,0,0
33813,-133.333333333333,4,2,0,60,0,0
34563,-200,4,2,0,55,0,0
35313,-333.333333333333,4,2,0,50,0,0
36063,-66.6666666666667,4,2,0,83,0,0
37563,-66.6666666666667,4,2,0,83,0,1
37938,-50,4,2,0,83,0,1
38313,-66.6666666666667,4,2,0,83,0,1
39813,-66.6666666666667,4,2,0,83,0,1
40938,-50,4,2,0,83,0,1
41313,-66.6666666666667,4,2,0,83,0,1
41688,-66.6666666666667,4,2,0,83,0,1
41875,-66.6666666666667,4,2,0,83,0,1
42813,-66.6666666666667,4,2,0,83,0,1
43000,-66.6666666666667,4,2,0,83,0,1
43188,-66.6666666666667,4,2,0,83,0,1
43375,-66.6666666666667,4,2,0,83,0,1
43563,-66.6666666666667,4,2,0,83,0,1
45813,-66.6666666666667,4,2,0,83,0,1
46938,-50,4,2,0,83,0,1
47313,-66.6666666666667,4,2,0,83,0,1
49563,-66.6666666666667,4,2,0,83,0,1
52563,-66.6666666666667,4,2,0,83,0,1
55563,-66.6666666666667,4,2,0,83,0,1
55938,-66.6666666666667,4,2,0,83,0,1
56500,-66.6666666666667,4,2,0,83,0,1
57063,-50,4,2,0,83,0,1
57813,-66.6666666666667,4,2,0,83,0,1
58000,-66.6666666666667,4,2,0,83,0,1
58188,-66.6666666666667,4,2,0,83,0,1
58375,-66.6666666666667,4,2,0,83,0,1
58563,-66.6666666666667,4,2,0,83,0,1
58938,-50,4,2,0,83,0,1
60063,-66.6666666666667,4,2,0,83,0,1
61563,-100,4,2,0,60,0,0
67563,-83.3333333333333,4,2,0,60,0,0
68313,-83.3333333333333,4,2,0,65,0,0
69063,-83.3333333333333,4,2,0,70,0,0
69813,-133.333333333333,4,2,0,60,0,0
70563,-200,4,2,0,55,0,0
71313,-200,4,2,0,50,0,0
72063,-66.6666666666667,4,2,0,75,0,0
73563,-66.6666666666667,4,2,0,85,0,1
97563,-100,4,2,0,75,0,0

[Colours]
Combo1 : 255,137,81
Combo2 : 32,255,143
Combo3 : 255,100,100
Combo4 : 0,210,210

[HitObjects]
142,194,813,6,0,L|128:119,1,63.7500024318696
214,118,1188,2,0,L|228:193,1,63.7500024318696
194,279,1563,6,0,B|266:247|266:247|343:328,1,170,6|0,1:2|3:0,0:3:0:0:
447,339,2125,1,0,0:0:0:0:
350,218,2313,1,8,1:1:0:0:
431,199,2500,1,0,0:0:0:0:
372,136,2688,1,0,3:0:0:0:
485,54,2875,1,0,3:0:0:0:
485,54,2969,1,0,0:0:0:0:
485,54,3063,6,0,P|475:105|461:223,1,170,0|0,1:0|3:0,0:0:0:0:
373,101,3625,1,0,3:0:0:0:
373,101,3719,1,0,0:0:0:0:
373,101,3813,2,0,L|254:110,1,85,8|2,1:0|0:0,0:0:0:0:
164,121,4188,1,0,3:0:0:0:
164,121,4375,1,0,3:0:0:0:
256,222,4563,5,0,1:0:0:0:
173,197,4750,1,0,0:0:0:0:
127,269,4938,1,2,3:3:0:0:
74,153,5125,1,0,3:0:0:0:
74,153,5219,1,0,0:0:0:0:
74,153,5313,2,0,P|67:233|50:325,1,170,8|2,1:0|3:2,0:0:0:0:
155,225,5875,1,0,3:0:0:0:
155,225,6063,6,0,P|214:248|232:280,1,85,4|0,1:3|0:0,0:0:0:0:
331,205,6438,2,0,P|336:256|325:311,1,85,2|4,3:0|1:3,0:0:0:0:
157,311,6813,1,8,1:0:0:0:
157,311,7000,1,2,0:0:0:0:
292,368,7188,1,4,1:3:0:0:
261,174,7375,1,0,3:0:0:0:
261,174,7469,1,2,3:0:0:0:
261,174,7563,6,0,P|272:77|288:19,1,127.5,0|0,1:0|0:0,0:0:0:0:
270,42,7938,2,0,L|179:52,1,85,2|2,3:0|3:2,0:0:0:0:
56,134,8313,1,8,1:0:0:0:
146,157,8500,1,0,0:0:0:0:
120,243,8688,1,0,3:0:0:0:
30,220,8875,1,2,3:2:0:0:
218,214,9063,6,0,L|325:206,1,85,0|0,1:0|0:0,0:0:0:0:
451,258,9438,1,2,3:0:0:0:
404,330,9625,1,0,3:0:0:0:
464,139,9813,1,8,1:0:0:0:
379,165,10000,1,2,0:0:0:0:
399,73,10188,1,2,3:0:0:0:
293,233,10375,1,0,3:0:0:0:
293,233,10469,1,0,0:0:0:0:
293,233,10563,6,0,L|190:226,1,85,4|0,1:3|0:0,0:0:0:0:
42,230,10938,2,0,P|62:258|66:282,1,42.5
147,284,11125,2,0,P|134:330|123:343,1,42.5
48,364,11313,1,8,1:0:0:0:
48,364,11500,1,2,0:0:0:0:
151,187,11688,2,0,L|203:192,3,42.5,0|0|2|2,3:0|3:0|0:0|0:0,0:0:0:0:
69,130,12063,5,0,1:0:0:0:
199,83,12250,1,2,0:0:0:0:
71,44,12438,1,2,3:0:0:0:
274,141,12625,1,0,1:3:0:0:
60,245,12813,1,8,1:0:0:0:
199,83,13000,1,2,0:0:0:0:
274,141,13188,1,4,1:3:0:0:
194,279,13375,1,2,3:0:0:0:
194,279,13469,1,2,3:2:0:0:
194,279,13563,6,0,B|266:247|266:247|343:328,1,170,4|2,1:2|3:0,0:0:0:0:
190,189,14125,1,0,3:0:0:0:
184,359,14313,2,0,L|73:363,1,85,8|0,1:0|0:0,0:0:0:0:
22,292,14688,1,0,3:0:0:0:
203,199,14875,1,4,1:3:0:0:
126,125,15063,5,2,3:2:0:0:
110,202,15250,1,2,3:0:0:0:
96,281,15438,1,0,1:0:0:0:
126,125,15625,1,2,0:0:0:0:
96,281,15813,1,8,1:0:0:0:
203,200,16000,2,0,L|256:191,1,42.5,0|0,1:0|0:0,0:0:0:0:
310,119,16188,2,0,L|363:110,1,42.5,0|0,1:0|0:0,0:0:0:0:
441,30,16375,2,0,L|430:79,1,42.5,0|2,1:0|3:2,0:0:0:0:
454,163,16563,6,0,L|428:314,1,127.5,0|0,1:0|0:0,0:0:0:0:
356,315,16938,2,0,L|339:218,1,85,2|0,3:0|0:0,0:0:0:0:
341,231,17219,1,2,0:0:0:0:
341,231,17313,1,8,1:0:0:0:
246,288,17500,1,0,0:0:0:0:
285,126,17688,1,2,3:0:0:0:
172,246,17875,6,0,B|114:265|114:265|93:314|93:314|115:364|115:364|106:393,1,170,4|0,1:2|3:0,0:0:0:0:
285,126,18438,1,2,3:2:0:0:
295,287,18625,2,0,L|412:298,1,85,4|8,1:0|1:0,0:0:0:0:
487,206,19000,1,2,3:0:0:0:
475,211,19094,1,2,3:0:0:0:
462,210,19188,1,4,1:0:0:0:
453,200,19281,1,0,3:0:0:0:
441,195,19375,1,2,3:2:0:0:
428,194,19469,1,0,1:0:0:0:
416,198,19563,6,0,P|340:188|263:187,1,127.5,4|2,1:2|0:0,0:0:0:0:
220,120,19938,2,0,L|199:242,1,85,2|0,3:0|3:0,0:0:0:0:
60,361,20313,1,8,1:0:0:0:
27,273,20500,1,2,0:0:0:0:
130,133,20688,1,2,3:0:0:0:
113,217,20875,1,0,3:0:0:0:
63,39,21063,5,0,1:0:0:0:
234,60,21250,1,2,3:0:0:0:
234,60,21344,1,2,3:2:0:0:
234,60,21438,1,2,3:0:0:0:
146,11,21625,1,2,0:0:0:0:
262,141,21813,1,8,1:0:0:0:
158,311,22000,6,0,P|177:285|205:276,1,42.5,0|2,1:0|3:0,0:0:0:0:
239,214,22188,2,0,P|258:240|286:249,1,42.5,0|0,1:0|3:0,0:0:0:0:
344,298,22375,1,0,1:0:0:0:
344,298,22469,1,0,3:0:0:0:
344,298,22563,6,0,P|397:282|443:311,1,85,4|0,1:3|3:0,0:0:0:0:
479,134,22938,1,2,3:0:0:0:
367,369,23125,2,0,P|299:362|282:315,1,85,2|8,0:0|1:0,0:0:0:0:
56,180,23500,1,0,3:0:0:0:
204,221,23688,1,0,3:0:0:0:
95,340,23875,6,0,P|111:256|136:144,1,170,4|2,1:0|0:0,0:0:0:0:
59,49,24438,1,8,1:0:0:0:
187,375,24625,2,0,P|203:291|228:179,1,170,4|2,1:0|3:0,0:0:0:0:
451,260,25188,1,4,1:3:0:0:
451,260,25281,1,2,3:0:0:0:
451,260,25375,2,0,L|433:331,1,42.5,2|2,3:2|3:0,0:0:0:0:
416,384,25563,6,0,L|407:204,2,170,4|2|2,1:3|3:0|3:0,0:0:0:0:
332,306,26500,1,0,0:0:0:0:
330,228,26688,1,0,3:0:0:0:
239,105,26875,6,0,L|249:292,1,170
248,274,27344,1,0,0:0:0:0:
248,274,27438,1,0,3:0:0:0:
179,356,27625,1,2,3:0:0:0:
5,267,27813,6,2,L|165:257,1,127.5,2|0,3:2|0:0,0:0:0:0:
154,233,28188,2,2,L|306:241,1,127.5,2|0,3:2|0:0,0:2:0:0:
286,157,28563,6,0,L|381:338,2,170,4|0|2,1:0|3:0|3:0,0:0:0:0:
467,184,29500,1,0,0:0:0:0:
416,253,29688,1,0,3:0:0:0:
376,139,29875,6,0,L|471:320,1,170,2|0,0:0|0:0,0:0:0:0:
455,289,30344,1,0,3:0:0:0:
455,289,30438,1,2,3:0:0:0:
379,339,30625,1,0,0:0:0:0:
479,171,30813,6,2,L|343:242,1,127.5,2|0,3:2|0:0,0:0:0:0:
345,264,31188,2,2,L|209:192,1,127.5,2|0,3:2|0:0,0:0:0:0:
143,219,31563,6,0,P|161:165|126:98,1,101.999996887207,4|0,1:2|0:0,0:0:0:0:
148,123,31844,1,2,3:0:0:0:
148,123,31938,1,2,1:3:0:0:
69,280,32125,1,2,3:2:0:0:
24,78,32313,6,0,P|6:132|41:199,1,101.999996887207,4|0,1:2|0:0,0:0:0:0:
18,173,32594,1,2,3:3:0:0:
18,173,32688,1,2,1:3:0:0:
171,20,32875,1,2,3:2:0:0:
269,198,33063,6,0,L|362:209,1,85,4|0,1:2|0:0,0:0:0:0:
353,207,33344,1,2,3:3:0:0:
353,207,33438,1,2,1:3:0:0:
432,149,33625,1,2,3:2:0:0:
262,302,33813,6,0,L|192:305,1,63.7500024318696,6|0,0:0|0:0,0:0:0:0:
198,304,34094,1,2,3:0:0:0:
198,304,34188,1,2,3:0:0:0:
142,249,34375,1,2,0:0:0:0:
359,326,34563,6,0,L|403:329,1,42.5,6|0,0:0|0:0,0:0:0:0:
401,328,34844,1,2,3:0:0:0:
401,328,34938,1,2,3:0:0:0:
487,275,35125,1,2,0:0:0:0:
258,354,35313,6,0,L|261:319,1,25.4999992218018,2|0,0:0|0:0,0:0:0:0:
260,328,35594,1,0,3:0:0:0:
260,328,35688,1,2,3:0:0:0:
306,234,35875,1,2,0:0:0:0:
162,302,36063,6,0,B|153:335|153:335|160:374,1,63.7500024318696,4|0,1:0|0:0,0:0:0:0:
77,159,36625,1,0,1:0:0:0:
77,159,36719,1,0,1:0:0:0:
77,159,36813,2,0,B|145:100|145:100|230:162,1,191.250007295609,6|0,1:2|0:0,0:0:0:0:
196,245,37188,2,0,B|264:186|264:186|349:248,1,191.250007295609,8|0,1:0|0:0,0:0:0:0:
368,325,37563,6,0,B|404:211|404:211|522:245,1,191.250007295609,4|0,1:0|0:0,0:0:0:0:
474,337,37938,2,2,B|345:278|370:383|212:343,1,255,0|0,1:0|0:0,0:3:0:0:
129,369,38313,6,0,B|146:335|146:335|134:300,1,63.7500024318696,10|0,1:0|0:0,0:0:0:0:
57,282,38500,2,0,B|40:248|40:248|52:213,1,63.7500024318696,2|0,1:0|0:0,0:0:0:0:
42,135,38688,1,2,3:2:0:0:
42,135,38781,1,2,3:2:0:0:
42,135,38875,1,2,1:0:0:0:
150,208,39063,1,4,1:3:0:0:
119,30,39250,1,2,0:0:0:0:
233,114,39438,1,2,3:2:0:0:
248,118,39531,1,2,0:0:0:0:
263,122,39625,1,2,3:2:0:0:
278,126,39719,1,2,0:0:0:0:
296,147,39813,6,0,B|325:141|325:141|351:169,1,63.7500024318696,8|0,1:0|0:0,0:0:0:0:
439,186,40000,2,0,B|468:180|468:180|494:208,1,63.7500024318696,8|0,1:3|0:0,0:0:0:0:
458,329,40188,2,0,B|429:335|429:335|403:307,1,63.7500024318696,8|0,1:0|0:0,0:0:0:0:
315,290,40375,2,0,B|286:296|286:296|260:268,1,63.7500024318696,4|0,1:3|0:0,0:0:0:0:
235,199,40563,6,0,L|36:222,1,191.250007295609,4|0,1:2|0:0,0:3:0:0:
120,113,40938,2,2,B|167:161|156:212|92:264|116:348|183:353,1,255,2|0,0:0|0:0,3:3:0:0:
231,380,41313,6,0,B|248:345|248:345|289:359,1,63.7500024318696,10|0,1:0|0:0,0:0:0:0:
347,293,41500,2,0,B|364:327|364:327|405:313,1,63.7500024318696,2|0,1:0|0:0,0:0:0:0:
479,281,41688,5,2,1:0:0:0:
341,198,41875,1,2,0:0:0:0:
491,268,42063,1,4,1:3:0:0:
333,183,42250,1,2,0:0:0:0:
471,79,42438,1,2,3:2:0:0:
468,86,42531,1,2,0:0:0:0:
465,93,42625,1,2,3:2:0:0:
462,100,42719,1,2,0:0:0:0:
458,107,42813,6,0,B|427:85|427:85|395:89,1,63.7500024318696,8|0,1:0|0:0,0:0:0:0:
306,57,43000,2,0,B|275:35|275:35|243:39,1,63.7500024318696,8|0,1:3|0:0,0:0:0:0:
208,175,43188,2,0,B|238:196|238:196|270:192,1,63.7500024318696,8|0,1:0|0:0,0:0:0:0:
360,225,43375,2,0,B|390:246|390:246|422:242,1,63.7500024318696,4|0,1:3|0:0,0:0:0:0:
326,141,43563,6,2,B|352:235|263:217|312:340,1,191.250007295609,4|0,1:0|0:0,0:3:0:0:
232,357,43938,1,2,3:2:0:0:
217,352,44031,1,2,3:2:0:0:
202,347,44125,1,2,1:0:0:0:
247,168,44313,1,10,1:0:0:0:
112,252,44500,1,2,3:2:0:0:
127,247,44593,1,2,3:2:0:0:
142,242,44687,1,2,1:0:0:0:
93,64,44875,6,0,P|60:76|53:119,1,63.7500024318696,2|2,3:2|0:2,0:0:0:0:
100,161,45063,2,0,P|133:149|140:106,1,63.7500024318696,2|2,3:2|0:2,0:0:0:0:
175,46,45250,1,2,1:0:0:0:
267,138,45438,1,2,3:2:0:0:
262,144,45531,1,2,0:0:0:0:
257,150,45625,1,2,3:2:0:0:
252,156,45719,1,2,0:0:0:0:
258,175,45813,6,0,L|181:190,1,63.7500024318696,10|0,1:0|0:0,0:0:0:0:
123,258,46000,2,0,L|127:348,1,63.7500024318696,8|0,1:3|0:0,0:0:0:0:
270,299,46188,1,6,1:3:0:0:
101,164,46375,1,4,1:3:0:0:
276,312,46563,6,0,B|377:262|369:372|477:345,1,191.250007295609,6|0,1:2|0:0,0:0:0:0:
411,153,46938,2,2,P|406:245|313:384,1,255,2|0,0:0|0:0,0:3:0:0:
243,380,47313,5,10,1:0:0:0:
316,178,47500,1,2,1:0:0:0:
184,186,47688,1,2,1:0:0:0:
276,262,47875,5,2,0:0:0:0:
263,257,48063,1,4,1:3:0:0:
191,68,48250,5,2,0:0:0:0:
204,73,48438,1,2,3:2:0:0:
83,220,48625,5,2,0:0:0:0:
70,215,48813,2,0,L|95:136,1,63.7500024318696,8|0,1:0|0:0,0:0:0:0:
33,80,49000,2,0,L|58:1,1,63.7500024318696,8|0,1:3|0:0,0:0:0:0:
213,24,49188,2,0,L|238:103,1,63.7500024318696,8|0,1:0|0:0,0:0:0:0:
176,159,49375,2,0,L|201:238,1,63.7500024318696,4|0,1:3|0:0,0:0:0:0:
190,327,49563,6,2,P|218:252|325:292,1,191.250007295609,4|0,1:2|0:0,0:3:0:0:
381,338,49938,2,0,L|466:353,3,63.7500024318696,2|2|2|2,3:2|0:0|3:2|0:0,0:0:0:0:
384,234,50313,2,0,L|394:142,1,63.7500024318696,10|0,1:0|0:0,0:0:0:0:
482,99,50500,1,2,3:2:0:0:
482,99,50594,1,2,0:0:0:0:
482,99,50688,1,2,3:2:0:0:
482,99,50781,1,2,0:0:0:0:
482,99,50875,2,0,L|472:191,1,63.7500024318696,2|0,1:0|0:0,0:0:0:0:
383,78,51063,1,6,1:3:0:0:
383,78,51156,1,2,0:0:0:0:
383,78,51250,2,0,L|291:68,1,63.7500024318696,2|0,1:0|0:0,0:0:0:0:
147,49,51438,5,2,3:2:0:0:
181,65,51531,1,2,0:0:0:0:
197,99,51625,1,2,3:2:0:0:
194,137,51719,1,2,0:0:0:0:
166,163,51813,2,0,L|71:153,1,63.7500024318696,8|2,1:0|3:2,0:0:0:0:
20,232,52000,2,0,L|115:242,1,63.7500024318696,8|2,1:3|3:2,0:0:0:0:
249,226,52188,2,0,L|344:216,1,63.7500024318696,8|0,1:0|0:0,0:0:0:0:
395,295,52375,2,0,L|300:305,1,63.7500024318696,4|2,1:3|0:3,0:0:0:0:
225,323,52563,6,2,B|207:210|272:223|259:130,1,191.250007295609,4|0,1:2|0:0,0:3:0:0:
184,74,52938,2,0,L|117:91,3,63.7500024318696,2|2|2|2,3:2|0:0|3:2|0:0,0:0:0:0:
281,34,53313,2,0,P|324:51|340:88,1,63.7500024318696,2|0,1:0|0:0,0:0:0:0:
350,187,53500,2,0,L|331:269,3,63.7500024318696,2|2|2|2,3:2|0:2|3:2|0:2,0:0:0:0:
296,334,53875,5,2,3:0:0:0:
306,329,53969,1,2,3:2:0:0:
344,335,54063,5,6,1:3:0:0:
354,330,54157,1,2,3:2:0:0:
392,336,54250,5,2,3:0:0:0:
402,331,54344,1,2,3:3:0:0:
440,337,54437,5,2,3:0:0:0:
450,332,54531,1,2,3:3:0:0:
483,345,54625,5,2,1:2:0:0:
468,177,54813,6,0,P|414:201|403:238,1,63.7500024318696,8|0,1:0|0:0,0:0:0:0:
318,292,55000,2,0,P|333:240|323:199,1,63.7500024318696,8|0,1:3|0:0,0:0:0:0:
315,78,55188,2,0,P|330:130|320:171,1,63.7500024318696,8|0,1:0|0:0,0:0:0:0:
251,233,55375,2,0,L|161:223,1,63.7500024318696,4|0,1:3|0:0,0:0:0:0:
95,141,55563,6,0,P|161:192|115:298,1,191.250007295609,4|0,1:2|0:0,0:0:0:0:
84,364,55938,2,2,B|72:307|188:280|162:376|241:349,1,191.250007295609,2|0,0:0|0:0,0:3:0:0:
318,299,56313,1,8,1:0:0:0:
200,91,56500,2,2,B|170:170|269:175|217:304,1,191.250007295609,4|0,1:3|0:0,0:3:0:0:
160,368,56875,1,8,1:0:0:0:
317,187,57063,2,0,P|380:168|427:198,1,85,4|0,1:3|0:0,0:0:0:0:
483,155,57250,5,2,3:2:0:0:
488,165,57344,1,2,0:2:0:0:
482,203,57437,5,2,3:2:0:0:
487,213,57531,1,2,0:2:0:0:
481,251,57624,5,2,3:2:0:0:
486,261,57718,1,2,0:2:0:0:
473,294,57813,6,0,L|381:280,1,63.7500024318696,8|0,1:0|0:0,0:0:0:0:
320,315,58000,2,0,L|270:368,1,63.7500024318696,8|0,1:3|0:0,0:0:0:0:
79,294,58188,2,0,L|171:280,1,63.7500024318696,8|0,1:0|0:0,0:0:0:0:
232,315,58375,2,0,L|282:368,1,63.7500024318696,4|0,1:3|0:0,0:0:0:0:
152,373,58563,6,2,L|169:170,1,191.250007295609,4|0,1:0|0:0,3:0:0:0:
83,112,58938,2,2,B|91:205|193:224|233:117|319:180,1,255,0|0,1:0|0:0,0:3:0:0:
398,96,59313,6,0,P|320:153|378:288,1,255,12|0,1:0|0:0,0:0:0:0:
481,315,59688,1,12,1:0:0:0:
481,315,59781,1,0,1:0:0:0:
481,315,59875,1,4,1:3:0:0:
481,315,59969,1,0,1:0:0:0:
481,315,60063,6,0,L|496:154,1,127.500004863739,4|2,1:2|3:2,0:0:0:0:
251,51,60438,6,0,L|266:212,1,127.500004863739,4|2,1:2|3:2,0:0:0:0:
284,279,60719,1,2,3:2:0:0:
284,279,60813,2,0,P|221:282|194:310,1,63.7500024318696,8|2,1:0|0:0,0:0:0:0:
140,209,61000,2,0,P|118:261|124:306,1,63.7500024318696,8|0,1:3|0:0,0:0:0:0:
30,362,61188,2,0,P|39:311|17:255,1,63.7500024318696,8|2,1:0|0:0,0:0:0:0:
11,187,61375,2,0,P|8:124|18:96,1,63.7500024318696,4|0,1:3|0:0,0:0:0:0:
109,109,61563,6,0,L|311:117,1,170,6|2,1:2|3:0,0:0:0:0:
278,115,62313,1,2,3:0:0:0:
195,36,62500,1,2,0:0:0:0:
109,109,62688,1,2,3:0:0:0:
278,115,62875,6,0,L|480:123,1,170,2|0,0:0|0:0,0:0:0:0:
496,213,63438,1,2,3:0:0:0:
487,218,63531,2,0,L|381:212,1,85
415,229,63813,5,2,3:0:0:0:
339,315,64000,1,2,0:0:0:0:
288,218,64188,1,2,3:0:0:0:
363,119,64375,1,2,0:0:0:0:
339,315,64563,6,0,L|150:299,1,170,4|2,1:0|3:0,0:0:0:0:
169,300,65313,1,2,3:0:0:0:
263,232,65500,1,2,0:0:0:0:
339,315,65688,1,2,3:0:0:0:
169,300,65875,6,0,L|-20:284,1,170,2|2,0:0|0:0,0:0:0:0:
8,191,66438,1,2,3:0:0:0:
22,200,66531,2,0,L|110:209,1,85,0|0,0:0|3:0,0:0:0:0:
145,184,66813,2,2,L|141:143,4,21.25,2|0|0|0|0,3:3|3:0|3:0|3:0|3:0,0:3:0:0:
184,264,67188,1,2,3:2:0:0:
184,264,67375,1,2,3:0:0:0:
64,98,67563,6,0,P|104:66|166:72,1,101.999996887207,4|0,1:2|0:0,0:0:0:0:
152,66,67844,1,2,3:0:0:0:
152,66,67938,1,2,1:3:0:0:
39,2,68125,1,2,3:2:0:0:
184,156,68313,6,0,P|224:188|286:182,1,101.999996887207,4|0,1:2|0:0,0:0:0:0:
272,187,68594,1,2,3:0:0:0:
272,187,68688,1,2,1:3:0:0:
159,75,68875,1,2,3:2:0:0:
262,271,69063,6,0,P|301:233|359:224,1,101.999996887207,4|0,1:2|0:0,0:0:0:0:
346,222,69344,1,2,3:0:0:0:
346,222,69438,1,2,1:3:0:0:
251,352,69625,1,2,3:2:0:0:
427,277,69813,6,0,L|492:284,1,63.7500024318696,4|0,1:2|0:0,0:0:0:0:
490,283,70094,1,2,3:0:0:0:
490,283,70188,1,2,1:3:0:0:
348,137,70375,1,2,3:0:0:0:
150,311,70563,5,4,1:2:0:0:
186,220,70750,1,0,1:0:0:0:
186,220,70844,1,2,3:0:0:0:
186,220,70938,1,2,1:2:0:0:
259,289,71125,1,2,1:2:0:0:
143,99,71313,5,4,1:2:0:0:
92,184,71500,1,0,1:0:0:0:
92,184,71594,1,2,3:0:0:0:
92,184,71688,1,2,1:3:0:0:
86,10,71875,1,2,1:2:0:0:
267,104,72063,6,0,L|248:178,1,63.7500024318696,4|0,1:0|0:0,0:0:0:0:
26,272,72625,1,0,1:0:0:0:
26,272,72719,1,0,1:0:0:0:
26,272,72813,2,0,B|87:200|87:200|202:260,1,191.250007295609,6|0,1:2|0:0,0:0:0:0:
152,324,73188,2,0,B|213:252|213:252|328:312,1,191.250007295609,8|0,1:0|0:0,0:0:0:0:
332,363,73563,6,2,B|301:267|399:258|360:154,1,191.250007295609,6|0,1:2|0:0,0:3:0:0:
369,87,73938,1,2,1:2:0:0:
355,94,74031,1,2,0:0:0:0:
341,101,74125,1,2,3:2:0:0:
327,108,74219,1,2,0:0:0:0:
313,115,74313,1,2,1:3:0:0:
155,76,74500,1,2,3:2:0:0:
169,69,74593,1,2,0:0:0:0:
183,62,74687,1,2,1:2:0:0:
197,55,74781,1,2,0:2:0:0:
211,48,74875,1,2,3:0:0:0:
163,221,75063,5,2,1:2:0:0:
149,228,75156,1,2,0:0:0:0:
135,235,75250,1,2,3:2:0:0:
121,242,75344,1,2,0:0:0:0:
99,273,75438,1,2,1:0:0:0:
102,235,75531,1,2,3:2:0:0:
97,196,75625,1,2,1:0:0:0:
84,159,75719,1,2,3:2:0:0:
50,178,75813,1,2,1:0:0:0:
172,305,76000,2,0,L|259:321,1,63.7500024318696,2|2,3:2|0:3,0:0:0:0:
307,364,76188,2,0,B|274:247|274:247|347:228,1,191.250007295609,2|0,1:2|0:0,0:0:0:0:
409,141,76563,6,2,P|378:226|372:333,1,191.250007295609,6|0,1:2|0:0,0:3:0:0:
471,370,76938,1,2,1:2:0:0:
471,370,77031,1,2,0:2:0:0:
471,370,77125,1,2,3:2:0:0:
471,370,77219,1,2,0:2:0:0:
471,370,77313,1,2,1:3:0:0:
479,211,77500,1,2,3:2:0:0:
479,211,77593,1,2,0:2:0:0:
479,211,77687,1,2,1:2:0:0:
479,211,77781,1,2,0:2:0:0:
479,211,77875,1,2,3:3:0:0:
300,190,78063,5,2,1:2:0:0:
300,190,78156,1,2,0:2:0:0:
300,190,78250,1,2,3:2:0:0:
300,190,78344,1,2,0:2:0:0:
300,190,78438,1,2,1:0:0:0:
262,186,78531,1,2,3:2:0:0:
237,215,78625,1,2,1:0:0:0:
212,244,78719,1,2,3:2:0:0:
173,240,78813,1,2,1:0:0:0:
119,73,79000,2,0,P|164:124|168:158,1,63.7500024318696,2|2,1:2|3:3,0:0:0:0:
46,194,79188,2,0,L|31:277,1,63.7500024318696,2|0,1:2|0:0,0:0:0:0:
103,384,79375,2,0,L|118:301,1,63.7500024318696,2|2,1:2|3:0,0:0:0:0:
173,240,79563,6,0,L|263:257,1,63.7500024318696,6|0,1:0|0:0,0:0:0:0:
345,235,79750,2,0,L|435:252,3,63.7500024318696,2|2|2|2,3:2|0:2|1:2|0:2,0:0:0:0:
291,150,80125,2,0,L|280:72,1,63.7500024318696,2|0,1:0|0:0,0:0:0:0:
374,47,80313,1,2,1:2:0:0:
374,47,80406,1,2,0:0:0:0:
374,47,80500,2,0,L|385:125,1,63.7500024318696,2|0,1:0|0:0,0:0:0:0:
345,235,80688,2,0,L|356:313,1,63.7500024318696,2|0,1:0|0:0,0:0:0:0:
490,175,80875,5,2,3:2:0:0:
478,183,80969,1,2,0:2:0:0:
449,186,81063,1,2,1:2:0:0:
437,194,81157,1,2,0:2:0:0:
415,210,81250,5,2,1:2:0:0:
487,273,81438,1,2,1:3:0:0:
188,107,81625,5,2,1:2:0:0:
116,170,81813,1,2,1:3:0:0:
214,212,82000,5,0,1:0:0:0:
214,212,82094,1,0,1:0:0:0:
214,212,82188,2,0,B|142:186|142:186|22:229,1,191.250007295609,4|0,1:0|1:0,0:3:0:0:
114,113,82563,2,2,B|152:203|59:196|111:347,1,191.250007295609,4|0,1:2|0:0,3:0:0:0:
207,268,82938,1,2,1:2:0:0:
231,264,83031,1,2,0:2:0:0:
254,274,83125,1,2,3:2:0:0:
270,293,83219,1,2,0:2:0:0:
274,318,83313,1,2,1:3:0:0:
341,139,83500,1,2,3:2:0:0:
317,135,83593,1,2,0:2:0:0:
294,145,83687,1,2,1:2:0:0:
278,164,83781,1,2,0:2:0:0:
274,189,83875,1,2,3:3:0:0:
372,245,84063,5,0,1:0:0:0:
372,245,84156,1,2,3:0:0:0:
372,245,84250,1,2,3:0:0:0:
420,167,84438,1,2,3:0:0:0:
429,320,84625,1,2,1:2:0:0:
420,167,84813,2,0,B|391:150|391:150|349:158,1,63.7500024318696,8|0,1:0|0:0,0:0:0:0:
278,134,85000,2,0,B|249:117|249:117|207:125,1,63.7500024318696,8|0,1:3|0:0,0:0:0:0:
68,210,85188,2,0,B|97:227|97:227|139:219,1,63.7500024318696,8|0,1:0|0:0,0:0:0:0:
210,243,85375,2,0,B|239:260|239:260|281:252,1,63.7500024318696,4|0,1:3|0:0,0:0:0:0:
104,121,85563,6,2,B|125:205|77:221|102:346,1,191.250007295609,4|0,1:2|0:0,0:3:0:0:
156,370,85938,1,2,0:0:0:0:
268,254,86125,2,0,P|307:271|346:304,1,63.7500024318696,2|2,0:0|0:0,0:0:0:0:
413,356,86313,2,0,L|398:285,1,63.7500024318696,8|2,1:0|0:0,0:0:0:0:
383,146,86500,2,0,P|312:164|302:185,1,63.7500024318696,2|2,3:2|0:2,0:0:0:0:
448,237,86688,2,0,L|509:257,1,63.7500024318696,2|2,3:2|0:2,0:0:0:0:
462,95,86875,5,2,3:2:0:0:
462,95,86969,1,2,0:2:0:0:
462,95,87063,1,2,1:0:0:0:
358,224,87250,1,2,1:0:0:0:
296,67,87438,1,2,3:2:0:0:
296,67,87531,1,2,0:0:0:0:
296,67,87625,1,2,1:0:0:0:
203,201,87813,6,0,B|211:234|211:234|201:275,1,63.7500024318696,8|0,1:0|0:0,0:0:0:0:
114,263,88000,2,0,B|106:230|106:230|116:189,1,63.7500024318696,8|0,1:3|0:0,0:0:0:0:
194,137,88188,2,0,L|206:225,1,63.7500024318696,8|0,1:0|0:0,0:0:0:0:
164,321,88375,2,0,L|176:409,1,63.7500024318696,4|0,1:3|0:0,0:0:0:0:
20,367,88563,6,2,L|49:137,1,191.250007295609,4|0,1:2|0:0,0:3:0:0:
23,94,88938,1,2,0:0:0:0:
158,213,89125,1,2,3:2:0:0:
158,213,89219,1,2,0:2:0:0:
158,213,89313,1,8,1:0:0:0:
158,213,89406,1,2,0:2:0:0:
158,213,89500,2,0,L|228:227,1,63.7500024318696,2|0,1:0|0:0,0:0:0:0:
297,181,89688,2,0,L|367:195,1,63.7500024318696,2|0,1:0|0:0,0:0:0:0:
472,129,89875,5,2,3:2:0:0:
472,129,89969,1,2,0:0:0:0:
472,129,90063,2,0,P|437:193|447:226,1,63.7500024318696,2|0,1:0|0:0,0:0:0:0:
431,313,90250,2,0,P|412:247|381:237,1,63.7500024318696,2|0,1:0|0:0,0:0:0:0:
360,101,90438,1,2,3:2:0:0:
344,103,90531,1,2,0:0:0:0:
328,105,90625,1,2,1:0:0:0:
249,297,90813,6,0,B|208:317|208:317|166:309,1,63.7500024318696,8|2,1:0|0:0,0:0:0:0:
98,332,91000,2,0,B|57:352|57:352|15:344,1,63.7500024318696,8|0,1:3|0:0,0:0:0:0:
11,220,91188,2,0,B|52:200|52:200|94:208,1,63.7500024318696,8|0,1:0|0:0,0:0:0:0:
162,185,91375,2,0,B|203:165|203:165|245:173,1,63.7500024318696,4|0,1:3|0:0,0:0:0:0:
305,242,91563,6,2,B|370:280|416:213|499:276,1,191.250007295609,4|0,1:2|0:0,0:3:0:0:
414,332,91938,2,2,P|404:233|435:163,1,127.500004863739,2|0,0:0|0:0,0:0:0:0:
267,7,92313,5,10,1:0:0:0:
305,242,92500,1,2,1:2:0:0:
317,103,92688,1,2,1:0:0:0:
329,107,92782,1,2,3:2:0:0:
341,111,92876,1,2,1:0:0:0:
175,60,93063,5,8,1:0:0:0:
134,56,93156,1,0,0:0:0:0:
102,84,93250,1,2,1:2:0:0:
99,126,93344,1,2,1:2:0:0:
125,159,93438,1,10,1:0:0:0:
147,194,93531,1,0,0:0:0:0:
137,235,93625,1,2,1:2:0:0:
104,261,93719,1,2,1:2:0:0:
63,250,93813,6,0,L|39:166,1,63.7500024318696,10|0,1:0|0:0,0:0:0:0:
4,85,94000,2,0,L|79:105,1,63.7500024318696,8|0,1:3|0:0,0:0:0:0:
218,145,94188,2,0,L|282:133,1,63.7500024318696,8|2,1:0|0:0,0:0:0:0:
364,53,94375,2,0,L|355:137,1,63.7500024318696,4|0,1:3|0:0,0:0:0:0:
319,274,94563,6,2,P|339:211|461:231,1,191.250007295609,4|0,1:2|0:0,0:3:0:0:
480,285,94938,1,0,1:0:0:0:
244,210,95125,1,0,1:0:0:0:
244,210,95219,1,0,1:0:0:0:
244,210,95313,1,10,1:0:0:0:
417,72,95500,2,2,L|392:282,1,191.250007295609,2|2,1:0|1:2,0:3:0:0:
329,356,95875,1,2,1:3:0:0:
329,356,95969,1,0,1:0:0:0:
329,356,96063,6,0,P|283:304|203:293,1,127.500004863739,2|2,1:0|3:0,0:0:0:0:
24,35,96438,2,0,P|70:87|150:98,1,127.500004863739,8|2,1:0|1:2,0:0:0:0:
197,44,96719,1,2,3:0:0:0:
197,44,96813,2,0,P|249:62|259:100,1,63.7500024318696,8|2,1:0|0:0,0:0:0:0:
349,121,97000,2,0,L|319:199,1,63.7500024318696,8|0,1:3|0:0,0:0:0:0:
201,203,97188,2,0,L|227:297,1,63.7500024318696,8|2,1:0|0:0,0:0:0:0:
326,279,97375,2,0,L|307:346,1,63.7500024318696,4|0,1:3|0:0,0:0:0:0:
217,363,97563,6,0,B|148:333|148:333|30:351,1,170,4|2,1:2|3:2,0:0:0:0:
0,269,98125,1,2,3:2:0:0:
224,198,98313,1,8,1:0:0:0:
139,147,98500,1,0,0:0:0:0:
223,97,98688,1,0,3:0:0:0:
59,39,98875,1,0,3:0:0:0:
59,39,98969,1,0,0:0:0:0:
59,39,99063,6,0,P|71:122|54:212,1,170,0|0,1:0|0:0,0:0:0:0:
159,92,99625,1,2,0:0:0:0:
213,165,99813,1,8,1:0:0:0:
299,68,100000,1,0,0:0:0:0:
438,224,100188,1,2,3:0:0:0:
342,199,100375,1,2,3:3:0:0:
418,125,100563,6,0,L|524:143,1,85,0|0,1:0|0:0,0:0:0:0:
380,27,100938,1,0,3:0:0:0:
380,27,101125,1,0,3:0:0:0:
270,189,101313,2,0,L|160:175,1,85,8|0,1:0|0:0,0:0:0:0:
87,160,101688,1,0,3:0:0:0:
127,63,101875,1,0,3:0:0:0:
114,304,102063,5,4,1:3:0:0:
32,264,102250,1,0,0:0:0:0:
32,264,102344,1,0,0:0:0:0:
32,264,102438,1,0,3:0:0:0:
218,304,102625,1,4,1:3:0:0:
120,142,102813,2,0,L|223:167,1,85,8|0,1:0|3:0,0:0:0:0:
236,139,103094,1,0,3:0:0:0:
236,139,103188,2,0,L|229:236,1,85,4|0,1:3|0:0,0:0:0:0:
207,348,103563,5,0,1:0:0:0:
304,203,103750,2,0,P|367:202|371:261,1,127.5,2|0,3:0|0:0,0:0:0:0:
379,305,104125,1,0,3:0:0:0:
316,99,104313,1,8,1:0:0:0:
410,122,104500,1,0,0:0:0:0:
382,25,104688,1,2,3:2:0:0:
259,172,104875,6,0,L|150:181,1,85,0|0,3:0|1:0,0:0:0:0:
14,127,105250,2,0,P|48:131|81:170,1,85,0|0,0:0|3:0,0:0:0:0:
85,212,105531,1,0,0:0:0:0:
85,212,105625,2,0,L|72:306,2,85,0|8|0,3:0|1:0|3:0,0:0:0:0:
159,113,106188,1,0,3:0:0:0:
1,219,106375,1,0,0:0:0:0:
184,195,106563,6,0,B|258:154|297:228|381:181,1,170,4|0,1:3|3:0,0:0:0:0:
416,116,107125,1,0,3:0:0:0:
255,307,107313,1,8,1:0:0:0:
330,370,107500,1,2,3:0:0:0:
429,284,107688,2,0,L|316:295,1,85,0|0,3:0|3:0,0:0:0:0:
224,363,108063,6,0,L|167:357,1,42.5,4|0,1:3|0:0,0:0:0:0:
48,333,108250,1,2,3:2:0:0:
34,305,108344,1,2,0:0:0:0:
53,289,108438,1,2,3:2:0:0:
80,292,108531,1,2,0:0:0:0:
89,313,108625,1,2,3:0:0:0:
22,172,108813,1,8,1:0:0:0:
226,263,109000,1,2,1:0:0:0:
54,34,109188,1,2,1:0:0:0:
