osu file format v14

[General]
AudioFilename: audio.mp3
AudioLeadIn: 0
PreviewTime:697
Countdown: 0
SampleSet: Soft
StackLeniency: 0.5
Mode: 0
LetterboxInBreaks: 0
WidescreenStoryboard: 1

[Editor]
Bookmarks: 1541,13541,25541,36041,47666,49541,54250,56478,61541,73541,97541
DistanceSpacing: 0.66
BeatDivisor: 4
GridSize: 8
TimelineZoom: 2.799999

[Metadata]
Title:Breach
TitleUnicode:Breach
Artist:M2U feat. NICODE
ArtistUnicode:M2U feat. NICODE
Creator:Okoratu
Version:Hard
Source:RIDE ZERO
Tags:electronic instrumental okorin neqoo krimek sylvarus English Video Game
BeatmapID:3147513
BeatmapSetID:1529336

[Difficulty]
HPDrainRate:4.5
CircleSize:4
OverallDifficulty:7
ApproachRate:8
SliderMultiplier:1.5
SliderTickRate:1

[Events]
//Background and Video events
0,0,"behgeh-soul.jpg",0,0
//Break Periods
//Storyboard Layer 0 (Background)
//Storyboard Layer 1 (Fail)
//Storyboard Layer 2 (Pass)
//Storyboard Layer 3 (Foreground)
//Storyboard Layer 4 (Overlay)
//Storyboard Sound Samples

[TimingPoints]
813,375,4,2,0,75,1,0
813,-133.333333333333,4,2,0,75,0,0
1563,375,4,2,0,75,1,0
25563,-100,4,2,0,60,0,0
31563,-83.3333333333333,4,2,0,60,0,0
32313,-83.3333333333333,4,2,0,65,0,0
33063,-100,4,2,0,70,0,0
33813,-133.333333333333,4,2,0,60,0,0
34563,-200,4,2,0,55,0,0
35313,-200,4,2,0,50,0,0
36063,-76.9230769230769,4,2,0,83,0,0
37563,-76.9230769230769,4,2,0,83,0,1
37938,-66.6666666666667,4,2,0,83,0,1
38313,-76.9230769230769,4,2,0,83,0,1
39813,-76.9230769230769,4,2,0,83,0,1
40938,-66.6666666666667,4,2,0,83,0,1
41313,-76.9230769230769,4,2,0,83,0,1
41688,-76.9230769230769,4,2,0,83,0,1
41875,-76.9230769230769,4,2,0,83,0,1
42813,-76.9230769230769,4,2,0,83,0,1
43000,-76.9230769230769,4,2,0,83,0,1
43188,-76.9230769230769,4,2,0,83,0,1
43375,-76.9230769230769,4,2,0,83,0,1
43563,-76.9230769230769,4,2,0,83,0,1
45813,-76.9230769230769,4,2,0,83,0,1
46938,-66.6666666666667,4,2,0,83,0,1
47313,-76.9230769230769,4,2,0,83,0,1
49563,-76.9230769230769,4,2,0,83,0,1
52563,-76.9230769230769,4,2,0,83,0,1
55563,-76.9230769230769,4,2,0,83,0,1
55938,-76.9230769230769,4,2,0,83,0,1
56500,-76.9230769230769,4,2,0,83,0,1
57063,-76.9230769230769,4,2,0,83,0,1
57813,-76.9230769230769,4,2,0,83,0,1
58000,-76.9230769230769,4,2,0,83,0,1
58188,-76.9230769230769,4,2,0,83,0,1
58375,-76.9230769230769,4,2,0,83,0,1
58563,-76.9230769230769,4,2,0,83,0,1
58938,-66.6666666666667,4,2,0,83,0,1
60063,-76.9230769230769,4,2,0,83,0,1
61563,-100,4,2,0,60,0,0
67563,-83.3333333333333,4,2,0,60,0,0
68313,-83.3333333333333,4,2,0,65,0,0
69063,-83.3333333333333,4,2,0,70,0,0
69813,-133.333333333333,4,2,0,60,0,0
70563,-200,4,2,0,55,0,0
71313,-200,4,2,0,50,0,0
72063,-66.6666666666667,4,2,0,75,0,0
73563,-76.9230769230769,4,2,0,85,0,1
97563,-100,4,2,0,75,0,0

[Colours]
Combo1 : 255,137,81
Combo2 : 32,255,143
Combo3 : 255,100,100
Combo4 : 0,210,210

[HitObjects]
146,182,813,6,0,L|154:114,1,56.2500021457673
230,140,1188,2,0,L|222:208,1,56.2500021457673
176,265,1563,6,0,B|231:241|231:241|339:277,1,150,6|0,1:2|3:0,0:3:0:0:
395,326,2125,1,0,0:0:0:0:
414,235,2313,2,0,L|430:143,1,75,8|0,1:1|0:0,0:0:0:0:
368,72,2688,2,0,L|352:164,1,75,0|0,3:0|3:0,0:0:0:0:
283,197,3063,6,0,P|268:157|168:139,1,150,0|0,1:0|3:0,0:0:0:0:
82,121,3625,1,0,3:0:0:0:
99,205,3813,1,8,1:0:0:0:
119,289,4000,1,2,0:0:0:0:
194,224,4188,1,0,3:0:0:0:
209,322,4375,1,0,3:0:0:0:
280,260,4563,6,0,P|322:258|362:286,1,75,0|0,1:0|0:0,0:0:0:0:
411,351,4938,2,0,P|453:353|493:325,1,75,2|0,3:3|3:0,0:0:0:0:
435,264,5313,2,0,L|447:147,1,112.5,8|0,1:0|0:0,0:0:0:0:
459,131,5688,1,2,3:2:0:0:
367,160,5875,1,0,3:0:0:0:
330,70,6063,6,0,L|234:57,1,75,4|0,1:3|0:0,0:0:0:0:
144,25,6438,1,2,3:0:0:0:
175,132,6625,1,4,1:3:0:0:
120,18,6813,1,8,1:0:0:0:
60,228,7188,1,4,1:3:0:0:
144,25,7563,6,0,L|244:16,1,75,0|0,1:0|0:0,0:0:0:0:
304,83,7938,1,2,3:0:0:0:
304,83,8125,1,2,3:2:0:0:
219,107,8313,1,8,1:0:0:0:
246,187,8500,1,0,0:0:0:0:
274,269,8688,1,0,3:0:0:0:
342,204,8875,6,0,P|392:198|432:226,1,75,2|0,3:2|1:0,0:0:0:0:
475,292,9250,2,0,L|458:376,1,75,0|2,0:0|3:0,0:0:0:0:
353,351,9625,2,0,L|370:267,1,75,0|8,3:0|1:0,0:0:0:0:
484,211,10000,2,0,L|475:124,1,75,2|2,0:0|3:0,0:0:0:0:
460,36,10375,1,0,3:0:0:0:
390,108,10563,6,0,B|313:140|315:76|240:112,1,150,4|0,1:3|0:0,0:0:0:0:
158,81,11125,1,0,0:0:0:0:
170,192,11313,2,0,L|181:292,1,75,8|2,1:0|0:0,0:0:0:0:
111,355,11688,2,0,L|63:348,2,37.5,0|0|2,3:0|3:0|0:0,0:0:0:0:
212,348,12063,6,0,L|302:362,1,75,0|2,1:0|0:0,0:0:0:0:
387,327,12438,1,2,3:0:0:0:
352,251,12625,1,0,1:3:0:0:
422,214,12813,1,8,1:0:0:0:
321,156,13000,1,2,0:0:0:0:
421,82,13188,1,4,1:3:0:0:
299,49,13375,1,2,3:0:0:0:
299,49,13563,6,0,P|235:64|161:55,1,112.5,4|0,1:2|0:0,0:0:0:0:
169,49,13938,2,0,L|72:59,1,75,2|0,3:0|3:0,0:0:0:0:
138,135,14313,2,0,P|147:196|103:283,1,150,8|0,1:0|3:0,0:0:0:0:
34,371,14875,6,0,P|68:348|112:356,1,75,4|2,1:3|3:2,0:0:0:0:
196,301,15250,1,2,3:0:0:0:
196,301,15438,2,0,L|285:312,1,75,0|2,1:0|0:0,0:0:0:0:
362,361,15813,1,8,1:0:0:0:
336,267,16000,1,0,1:0:0:0:
424,213,16188,1,0,1:0:0:0:
450,307,16375,1,0,1:0:0:0:
424,213,16563,6,0,P|424:174|491:84,1,150,0|2,1:0|3:0,0:0:0:0:
391,18,17125,1,0,0:0:0:0:
348,124,17313,2,0,P|316:144|254:134,1,75,8|0,1:0|0:0,0:0:0:0:
178,111,17688,1,2,3:0:0:0:
261,63,17875,6,0,L|232:226,1,150,4|0,1:2|3:0,0:0:0:0:
156,290,18438,1,2,3:2:0:0:
108,190,18625,2,0,L|137:27,1,150,4|2,1:0|3:0,0:0:0:0:
18,94,19188,1,4,1:0:0:0:
18,94,19281,1,0,3:0:0:0:
18,94,19375,1,2,3:2:0:0:
38,197,19563,6,0,B|55:279|-4:260|-1:361,1,150,4|2,1:2|3:0,0:0:0:0:
84,379,20125,1,0,3:0:0:0:
152,311,20313,2,0,P|189:296|233:317,1,75,8|2,1:0|0:0,0:0:0:0:
305,364,20688,1,2,3:0:0:0:
385,316,20875,1,0,3:0:0:0:
311,245,21063,6,0,P|308:200|323:153,1,75,0|2,1:0|3:0,0:0:0:0:
299,68,21438,2,0,L|400:82,1,75,2|2,3:0|0:0,0:0:0:0:
234,141,21813,5,8,1:0:0:0:
200,50,22000,1,0,1:0:0:0:
140,137,22188,1,0,1:0:0:0:
95,46,22375,2,0,L|4:39,1,75,0|4,1:0|1:3,0:0:0:0:
48,148,22750,2,0,L|26:245,1,75,0|2,3:0|3:0,0:0:0:0:
22,330,23125,2,0,P|64:303|119:309,1,75,2|8,0:0|1:0,0:0:0:0:
162,241,23500,1,0,3:0:0:0:
191,339,23688,1,0,3:0:0:0:
251,254,23875,6,0,P|264:203|273:93,1,150,4|2,1:0|0:0,0:0:0:0:
321,20,24438,1,8,1:0:0:0:
365,112,24625,2,0,P|370:186|387:259,1,150,4|2,1:0|3:0,0:0:0:0:
428,351,25188,2,0,L|470:354,2,37.5,4|2|2,1:3|3:0|3:2,0:0:0:0:
336,335,25563,6,0,L|161:322,1,150,4|2,1:3|3:0,0:0:0:0:
20,193,26313,1,2,3:0:0:0:
94,205,26500,1,0,0:0:0:0:
148,153,26688,1,0,3:0:0:0:
71,134,26875,6,0,L|83:313,1,150
32,376,27438,1,0,3:0:0:0:
32,376,27813,6,2,B|83:338|83:338|164:339,1,112.5,2|0,3:2|0:0,0:0:0:0:
162,312,28188,2,2,B|213:348|213:348|294:347,1,112.5,2|0,3:2|0:0,0:2:0:0:
309,367,28563,6,0,L|339:189,1,150,4|0,1:0|3:0,0:0:0:0:
248,42,29313,1,2,3:0:0:0:
216,118,29500,1,0,0:0:0:0:
149,73,29688,1,0,3:0:0:0:
180,6,29875,6,0,L|149:183,1,150,2|0,0:0|0:0,0:0:0:0:
130,242,30438,1,2,3:0:0:0:
130,242,30813,6,2,B|159:204|159:204|245:217,1,112.5,2|0,3:2|0:0,0:0:0:0:
232,246,31188,2,2,B|261:283|261:283|347:270,1,112.5,2|0,3:2|0:0,0:0:0:0:
355,265,31563,6,0,P|364:201|408:196,1,89.9999972534181,4|0,1:2|0:0,0:0:0:0:
372,67,31938,1,2,1:3:0:0:
372,67,32125,1,2,3:2:0:0:
275,137,32313,6,0,P|266:201|222:206,1,89.9999972534181,4|0,1:2|0:0,0:0:0:0:
119,249,32688,1,2,1:3:0:0:
119,249,32875,1,2,3:2:0:0:
82,133,33063,6,0,L|104:48,1,75,4|0,1:2|0:0,0:0:0:0:
204,35,33438,1,2,1:3:0:0:
204,35,33625,1,2,3:2:0:0:
186,157,33813,6,0,L|167:228,1,56.2500021457673,6|0,0:0|0:0,0:0:0:0:
140,318,34188,1,2,3:0:0:0:
140,318,34375,1,2,0:0:0:0:
245,276,34563,6,0,L|288:271,1,37.5,6|0,0:0|0:0,0:0:0:0:
379,258,34938,1,2,3:0:0:0:
379,258,35125,1,2,0:0:0:0:
318,173,35313,6,0,L|273:179,1,37.5,2|0,0:0|0:0,0:0:0:0:
199,189,35688,1,2,3:0:0:0:
199,189,35875,1,2,0:0:0:0:
243,72,36063,5,4,1:0:0:0:
86,263,36625,5,0,1:0:0:0:
86,263,36719,1,0,1:0:0:0:
86,263,36813,2,0,P|104:321|202:320,1,146.249993305207,6|0,1:2|0:0,0:0:0:0:
200,359,37188,2,0,P|218:301|316:302,1,146.249993305207,8|0,1:0|0:0,0:0:0:0:
320,306,37563,6,0,L|336:184,1,97.4999955368044,4|0,1:0|0:0,0:0:0:0:
429,136,37938,2,2,B|333:161|335:87|221:127,1,168.750006437302,0|0,1:0|0:0,0:3:0:0:
225,133,38313,1,10,1:0:0:0:
142,190,38500,1,2,1:0:0:0:
114,92,38688,2,0,L|122:36,2,48.7499977684022,2|2|2,3:2|3:2|1:0,0:0:0:0:
34,162,39063,6,0,L|44:267,1,97.4999955368044,4|2,1:3|0:0,0:0:0:0:
124,343,39438,1,2,3:2:0:0:
124,343,39531,1,2,0:0:0:0:
124,343,39625,1,2,3:2:0:0:
124,343,39719,1,2,0:0:0:0:
124,343,39813,2,0,B|160:326|160:326|221:334,1,97.4999955368044,8|8,1:0|1:3,0:0:0:0:
301,287,40188,2,0,B|337:304|337:304|398:296,1,97.4999955368044,8|4,1:0|1:3,0:0:0:0:
454,204,40563,6,0,P|332:195|331:195,1,97.4999955368044,4|0,1:2|0:0,0:3:0:0:
361,110,40938,2,2,B|390:198|313:182|347:282,1,168.750006437302,2|0,0:0|0:0,3:3:0:0:
323,304,41313,1,10,1:0:0:0:
241,257,41500,1,2,1:0:0:0:
179,333,41688,1,2,1:0:0:0:
263,365,41875,1,2,0:0:0:0:
179,333,42063,6,0,L|70:325,1,97.4999955368044,4|2,1:3|0:0,0:0:0:0:
6,232,42438,1,2,3:2:0:0:
6,232,42531,1,2,0:0:0:0:
6,232,42625,1,2,3:2:0:0:
6,232,42719,1,2,0:0:0:0:
6,232,42813,2,0,B|54:196|54:196|53:126,1,97.4999955368044,8|8,1:0|1:3,0:0:0:0:
156,166,43188,2,0,B|155:203|155:203|203:239,1,97.4999955368044,8|4,1:0|1:3,0:0:0:0:
290,249,43563,6,2,L|309:126,1,97.4999955368044,4|0,1:0|0:0,0:3:0:0:
341,66,43938,2,0,L|348:4,2,48.7499977684022,2|2|2,3:2|3:2|1:0,0:0:0:0:
384,160,44313,1,10,1:0:0:0:
463,87,44500,2,0,L|470:25,2,48.7499977684022,2|2|2,3:2|3:2|1:0,0:0:0:0:
380,174,44875,6,0,L|373:236,2,48.7499977684022,2|2|2,3:2|0:2|3:2,0:0:0:0:
299,112,45250,1,2,1:0:0:0:
247,200,45438,1,2,3:2:0:0:
247,200,45531,1,2,0:0:0:0:
247,200,45625,1,2,3:2:0:0:
247,200,45719,1,2,0:0:0:0:
247,200,45813,6,0,B|191:185|191:185|132:202,1,97.4999955368044,10|8,1:0|1:3,0:0:0:0:
36,154,46188,2,0,B|51:210|51:210|34:269,1,97.4999955368044,6|4,1:3|1:3,0:0:0:0:
13,354,46563,6,0,L|162:342,1,146.249993305207,6|0,1:2|0:0,0:0:0:0:
177,269,46938,2,2,P|190:334|302:333,1,168.750006437302,2|0,0:0|0:0,0:3:0:0:
303,317,47313,2,0,L|415:321,1,97.4999955368044,10|2,1:0|1:0,0:0:0:0:
481,230,47688,5,2,1:0:0:0:
464,236,47875,1,2,0:0:0:0:
394,180,48063,5,4,1:3:0:0:
377,186,48250,1,2,0:0:0:0:
307,130,48438,5,2,3:2:0:0:
290,136,48625,1,2,0:0:0:0:
311,33,48813,6,0,B|372:24|372:24|410:56,1,97.4999955368044,8|8,1:0|1:3,0:0:0:0:
290,136,49188,2,0,B|229:145|229:145|191:113,1,97.4999955368044,8|4,1:0|1:3,0:0:0:0:
113,45,49563,6,2,L|102:167,1,97.4999955368044,4|0,1:2|0:0,0:3:0:0:
66,243,49938,2,0,L|13:251,4,48.7499977684022,2|2|2|2|10,3:2|0:0|3:2|0:0|1:0,0:0:0:0:
174,201,50500,2,0,L|227:209,4,48.7499977684022,2|2|2|2|2,3:2|0:0|3:2|0:0|1:0,0:0:0:0:
91,170,51063,5,6,1:3:0:0:
175,120,51250,1,2,1:0:0:0:
272,73,51438,1,2,3:2:0:0:
272,73,51531,1,2,0:0:0:0:
272,73,51625,1,2,3:2:0:0:
272,73,51719,1,2,0:0:0:0:
272,73,51813,2,0,B|314:32|314:32|367:40,1,97.4999955368044,8|8,1:0|1:3,0:0:0:0:
410,133,52188,2,0,B|452:174|452:174|505:166,1,97.4999955368044,8|4,1:0|1:3,0:0:0:0:
489,268,52563,6,2,L|369:251,1,97.4999955368044,4|0,1:2|0:0,0:3:0:0:
292,213,52938,2,0,L|288:160,4,48.7499977684022,2|2|2|2|2,3:2|0:0|3:2|0:0|1:0,0:0:0:0:
220,288,53500,2,0,L|216:341,4,48.7499977684022,2|2|2|2|2,3:2|0:2|3:2|0:2|3:0,0:0:0:0:
158,188,54063,5,6,1:3:0:0:
158,188,54156,1,2,3:2:0:0:
158,188,54250,2,0,L|154:135,4,48.7499977684022,2|2|2|2|2,3:0|3:3|3:0|3:3|1:2,0:0:0:0:
104,318,54813,2,0,B|38:304|38:304|5:311,1,97.4999955368044,8|8,1:0|1:3,0:0:0:0:
191,274,55188,2,0,B|257:288|257:288|290:281,1,97.4999955368044,8|4,1:0|1:3,0:0:0:0:
385,329,55563,6,0,L|402:213,1,97.4999955368044,4|0,1:2|0:0,0:0:0:0:
486,127,55938,2,2,B|424:193|337:74|283:177,1,194.999991073609,2|8,0:0|1:0,0:3:0:0:
232,24,56500,2,2,B|166:86|285:173|182:227,1,194.999991073609,4|8,1:3|1:0,0:3:0:0:
204,325,57063,6,0,P|160:287|109:302,1,97.4999955368044,4|2,1:3|3:2,0:0:0:0:
25,325,57438,1,2,3:2:0:0:
25,325,57531,1,2,0:2:0:0:
25,325,57625,1,2,3:2:0:0:
25,325,57719,1,2,0:2:0:0:
25,325,57813,2,0,L|42:210,1,97.4999955368044,8|8,1:0|1:3,0:0:0:0:
11,115,58188,2,0,B|59:147|59:147|118:137,1,97.4999955368044,8|4,1:0|1:3,0:0:0:0:
193,62,58563,6,2,L|316:59,1,97.4999955368044,4|0,1:0|0:0,3:0:0:0:
401,59,58938,2,2,P|335:80|333:192,1,168.750006437302,0|0,1:0|0:0,0:3:0:0:
340,194,59313,2,0,L|324:320,1,112.500004291535,12|2,1:0|3:0,0:0:0:0:
447,359,59688,2,0,L|433:248,1,112.500004291535,12|4,1:0|1:3,0:0:0:0:
437,223,59969,1,0,1:0:0:0:
437,223,60063,6,0,L|421:90,1,97.4999955368044,4|2,1:2|3:2,0:0:0:0:
324,44,60438,2,0,L|313:157,1,97.4999955368044,4|2,1:2|3:2,0:0:0:0:
234,229,60813,1,8,1:0:0:0:
209,134,61000,1,8,1:3:0:0:
137,210,61188,1,8,1:0:0:0:
108,111,61375,1,4,1:3:0:0:
44,198,61563,6,0,L|25:353,2,150,6|2|2,1:2|3:0|3:0,0:0:0:0:
124,204,62500,1,2,0:0:0:0:
204,214,62688,1,2,3:0:0:0:
284,222,62875,6,0,L|265:377,2,150,2|0|0,0:0|0:0|0:0,0:0:0:0:
296,142,63813,1,2,3:0:0:0:
305,64,64000,1,2,0:0:0:0:
385,73,64188,1,2,3:0:0:0:
377,151,64375,1,2,0:0:0:0:
377,151,64563,6,0,L|358:306,2,150,4|2|2,1:0|3:0|3:0,0:0:0:0:
296,142,65500,1,2,0:0:0:0:
217,130,65688,1,2,3:0:0:0:
140,119,65875,6,0,L|121:274,2,150,2|2|0,0:0|0:0|3:0,0:0:0:0:
189,53,66813,2,2,L|192:26,4,18.75,2|0|0|0|0,3:3|3:0|3:0|3:0|3:0,0:3:0:0:
222,132,67188,1,2,3:2:0:0:
222,132,67375,1,2,3:0:0:0:
290,57,67563,6,0,P|341:49|387:83,1,89.9999972534181,4|0,1:2|0:0,0:0:0:0:
452,156,67938,1,2,1:3:0:0:
452,156,68125,1,2,3:2:0:0:
350,219,68313,6,0,P|299:227|253:193,1,89.9999972534181,4|0,1:2|0:0,0:0:0:0:
156,155,68688,1,2,1:3:0:0:
156,155,68875,1,2,3:2:0:0:
77,257,69063,6,0,L|84:351,1,89.9999972534181,4|0,1:2|0:0,0:0:0:0:
186,377,69438,1,2,1:3:0:0:
186,377,69625,1,2,3:2:0:0:
200,261,69813,6,0,L|206:200,1,56.2500021457673,4|0,1:2|0:0,0:0:0:0:
217,112,70188,1,2,1:3:0:0:
217,112,70375,1,2,3:0:0:0:
294,161,70563,5,4,1:2:0:0:
304,66,70750,2,0,L|307:44,2,18.75,0|2|2,1:0|3:0|1:2,0:0:0:0:
380,121,71125,1,2,1:2:0:0:
361,210,71313,5,4,1:2:0:0:
444,183,71500,1,0,1:0:0:0:
444,183,71594,1,2,3:0:0:0:
444,183,71688,1,2,1:3:0:0:
427,262,71875,1,2,1:2:0:0:
410,343,72063,5,4,1:0:0:0:
268,165,72625,5,0,1:0:0:0:
268,165,72719,1,0,1:0:0:0:
268,165,72813,2,0,P|196:158|190:249,1,168.750006437302,6|0,1:2|0:0,0:0:0:0:
166,264,73188,2,0,P|94:271|88:180,1,168.750006437302,8|0,1:0|0:0,0:0:0:0:
68,161,73563,6,2,L|81:47,1,97.4999955368044,6|0,1:2|0:0,0:3:0:0:
190,44,73938,2,0,L|246:36,4,48.7499977684022,2|2|2|2|2,1:2|0:0|3:2|0:0|1:3,0:0:0:0:
160,137,74500,2,0,L|168:193,4,48.7499977684022,2|2|2|2|2,3:2|0:0|1:2|0:2|3:0,0:0:0:0:
235,116,75063,6,0,L|342:128,1,97.4999955368044,2|2,1:2|3:2,0:0:0:0:
253,221,75438,1,2,1:0:0:0:
253,221,75531,1,2,3:2:0:0:
253,221,75625,1,2,1:0:0:0:
253,221,75719,1,2,3:2:0:0:
253,221,75813,2,0,L|243:328,1,97.4999955368044,2|2,1:0|3:2,0:0:0:0:
342,371,76188,2,0,B|347:285|414:341|426:241,1,146.249993305207,2|0,1:2|0:0,0:0:0:0:
401,225,76563,6,2,P|357:180|378:130,1,97.4999955368044,6|0,1:2|0:0,0:3:0:0:
324,54,76938,2,0,L|387:41,4,48.7499977684022,2|2|2|2|2,1:2|0:2|3:2|0:2|1:3,0:0:0:0:
246,121,77500,2,0,L|309:134,4,48.7499977684022,2|2|2|2|2,3:2|0:2|1:2|0:2|3:3,0:0:0:0:
183,2,78063,6,0,L|161:133,1,97.4999955368044,2|2,1:2|3:2,0:0:0:0:
128,183,78438,1,2,1:0:0:0:
128,183,78531,1,2,3:2:0:0:
128,183,78625,1,2,1:0:0:0:
128,183,78719,1,2,3:2:0:0:
128,183,78813,2,0,L|12:172,1,97.4999955368044,2|2,1:0|1:2,0:0:0:0:
0,67,79188,1,2,1:2:0:0:
87,97,79375,1,2,1:2:0:0:
25,193,79563,6,0,L|14:297,1,97.4999955368044,6|2,1:0|3:2,0:0:0:0:
14,289,79844,1,2,0:2:0:0:
14,289,79938,1,2,1:2:0:0:
137,234,80125,2,0,P|199:228|237:253,1,97.4999955368044,2|2,1:0|1:2,0:0:0:0:
302,324,80500,1,2,1:0:0:0:
331,223,80688,2,0,L|319:122,1,97.4999955368044,2|2,1:0|3:2,0:0:0:0:
397,52,81063,5,2,1:2:0:0:
397,52,81156,1,2,0:2:0:0:
397,52,81250,1,2,1:2:0:0:
396,142,81438,1,2,1:3:0:0:
484,111,81625,1,2,1:2:0:0:
483,201,81813,1,2,1:3:0:0:
397,230,82000,1,0,1:0:0:0:
397,230,82188,2,0,B|344:210|281:223|332:256|228:238,1,146.249993305207,4|0,1:0|1:0,0:3:0:0:
214,247,82563,6,2,P|230:190|200:144,1,97.4999955368044,4|0,1:2|0:0,3:0:0:0:
152,80,82938,2,0,L|167:28,4,48.7499977684022,2|2|2|2|2,1:2|0:2|3:2|0:2|1:3,0:0:0:0:
25,130,83500,2,0,L|40:182,4,48.7499977684022,2|2|2|2|2,3:2|0:2|1:2|0:2|3:3,0:0:0:0:
77,46,84063,5,0,1:0:0:0:
77,46,84156,1,2,3:0:0:0:
77,46,84250,2,0,L|110:164,1,97.4999955368044,2|2,3:0|3:0,0:0:0:0:
88,252,84625,1,2,1:2:0:0:
187,198,84813,2,0,B|238:187|238:187|297:222,1,97.4999955368044,8|8,1:0|1:3,0:0:0:0:
320,301,85188,2,0,B|371:312|371:312|430:277,1,97.4999955368044,8|4,1:0|1:3,0:0:0:0:
364,198,85563,6,2,P|368:107|385:40,1,146.249993305207,4|0,1:2|0:0,0:3:0:0:
409,32,85938,1,2,0:0:0:0:
494,117,86125,1,2,0:0:0:0:
494,117,86219,1,2,0:0:0:0:
494,117,86313,2,0,P|496:151|506:173,3,48.7499977684022,8|2|2|2,1:0|0:0|3:2|0:2,0:0:0:0:
447,164,86688,2,0,P|461:195|478:211,3,48.7499977684022,2|2|2|2,3:2|0:2|3:2|0:2,0:0:0:0:
435,236,87063,5,2,1:0:0:0:
339,228,87250,1,2,1:0:0:0:
289,132,87438,2,0,L|299:71,2,48.7499977684022,2|2|2,3:2|0:0|1:0,0:0:0:0:
224,216,87813,2,0,L|234:277,2,48.7499977684022,8|0|8,1:0|0:0|1:3,0:0:0:0:
179,106,88188,2,0,B|148:74|148:74|73:78,1,97.4999955368044,8|4,1:0|1:3,0:0:0:0:
43,166,88563,6,2,L|57:319,1,146.249993305207,4|0,1:2|0:0,0:3:0:0:
44,332,88938,1,2,0:0:0:0:
140,258,89125,2,0,L|199:250,2,48.7499977684022,2|2|8,3:2|0:2|1:0,0:0:0:0:
171,359,89500,1,2,1:0:0:0:
171,359,89688,1,2,1:0:0:0:
271,296,89875,5,2,3:2:0:0:
271,296,89969,1,2,0:0:0:0:
271,296,90063,1,2,1:0:0:0:
244,190,90250,1,2,1:0:0:0:
327,123,90438,2,0,L|386:128,2,48.7499977684022,2|2|2,3:2|0:0|1:0,0:0:0:0:
248,51,90813,2,0,B|202:73|202:73|137:61,1,97.4999955368044,8|8,1:0|1:3,0:0:0:0:
12,28,91188,2,0,B|54:56|54:56|76:119,1,97.4999955368044,8|4,1:0|1:3,0:0:0:0:
179,192,91563,6,2,L|10:188,1,146.249993305207,4|0,1:2|0:0,0:3:0:0:
0,163,91938,2,2,P|73:193|61:287,1,146.249993305207,2|0,0:0|0:0,0:0:0:0:
64,287,92313,1,10,1:0:0:0:
172,247,92500,1,2,1:2:0:0:
200,351,92688,2,0,L|124:357,2,48.7499977684022,2|2|2,1:0|3:2|1:0,0:0:0:0:
267,260,93063,5,8,1:0:0:0:
267,260,93156,1,0,0:0:0:0:
267,260,93250,1,2,1:2:0:0:
267,260,93344,1,2,1:2:0:0:
267,260,93438,2,0,L|283:208,3,48.7499977684022,10|0|2|2,1:0|0:0|1:2|1:2,0:0:0:0:
277,182,93813,2,0,P|333:208|381:192,1,97.4999955368044,10|8,1:0|1:3,0:0:0:0:
452,120,94188,2,0,P|455:58|432:18,1,97.4999955368044,8|4,1:0|1:3,0:0:0:0:
337,87,94563,6,2,L|180:96,1,146.249993305207,4|0,1:2|0:0,0:3:0:0:
173,84,94938,1,0,1:0:0:0:
83,39,95125,1,0,1:0:0:0:
83,39,95219,1,0,1:0:0:0:
83,39,95313,1,10,1:0:0:0:
93,142,95500,2,2,L|108:282,1,97.4999955368044,2|0,1:0|0:0,0:3:0:0:
73,351,95875,1,2,1:3:0:0:
73,351,95969,1,0,1:0:0:0:
73,351,96063,6,0,P|127:344|161:370,1,97.4999955368044,2|2,1:0|3:0,0:0:0:0:
217,251,96438,2,0,P|260:296|267:348,1,97.4999955368044,8|2,1:0|1:2,0:0:0:0:
382,375,96813,1,8,1:0:0:0:
340,277,97000,1,8,1:3:0:0:
444,294,97188,1,8,1:0:0:0:
346,180,97375,1,4,1:3:0:0:
475,207,97563,6,0,B|501:163|501:163|450:58,1,150,4|2,1:2|3:2,0:0:0:0:
395,3,98125,1,2,3:2:0:0:
347,86,98313,2,0,P|293:91|264:79,1,75,8|0,1:0|0:0,0:0:0:0:
184,34,98688,2,0,P|130:29|101:41,1,75,0|0,3:0|3:0,0:0:0:0:
12,25,99063,6,0,P|25:87|26:188,1,150,0|0,1:0|0:0,0:0:0:0:
20,268,99625,1,2,0:0:0:0:
110,232,99813,1,8,1:0:0:0:
195,198,100000,1,0,0:0:0:0:
188,292,100188,1,2,3:0:0:0:
277,240,100375,1,2,3:3:0:0:
284,327,100563,6,0,L|366:344,1,75,0|0,1:0|0:0,0:0:0:0:
470,349,100938,2,0,P|443:309|450:261,1,75,0|0,3:0|3:0,0:0:0:0:
388,206,101313,2,0,L|409:83,1,112.5,8|0,1:0|0:0,0:0:0:0:
425,84,101688,1,0,3:0:0:0:
354,14,101875,1,0,3:0:0:0:
305,105,102063,6,0,L|295:196,1,75,4|0,1:3|0:0,0:0:0:0:
279,266,102438,1,0,3:0:0:0:
369,238,102625,1,4,1:3:0:0:
342,338,102813,1,8,1:0:0:0:
150,240,103188,1,4,1:3:0:0:
349,355,103563,6,0,L|427:348,1,75,0|2,1:0|3:0,0:0:0:0:
506,317,103938,1,0,3:0:0:0:
506,317,104125,1,0,3:0:0:0:
495,228,104313,1,8,1:0:0:0:
412,243,104500,1,0,0:0:0:0:
326,258,104688,1,2,3:2:0:0:
352,170,104875,6,0,P|365:121|355:88,1,75,0|0,3:0|1:0,0:0:0:0:
256,124,105250,2,0,L|176:133,1,75,0|0,0:0|3:0,0:0:0:0:
92,181,105625,2,0,P|103:134|84:83,1,75,0|8,3:0|1:0,0:0:0:0:
10,34,106000,2,0,P|-1:81|18:132,1,75,0|0,3:0|3:0,0:0:0:0:
0,200,106375,1,0,0:0:0:0:
92,181,106563,6,0,B|164:172|167:214|249:210,1,150,4|0,1:3|3:0,0:0:0:0:
316,262,107125,1,0,3:0:0:0:
369,191,107313,2,0,P|415:177|456:205,1,75,8|2,1:0|3:0,0:0:0:0:
490,300,107688,2,0,L|404:287,1,75,0|0,3:0|3:0,0:0:0:0:
314,292,108063,5,4,1:3:0:0:
262,203,108250,2,0,L|269:163,4,37.5,2|2|2|2|2,3:2|0:0|3:2|0:0|3:0,0:0:0:0:
186,265,108813,1,8,1:0:0:0:
151,152,109000,1,2,1:0:0:0:
72,233,109188,1,2,1:0:0:0:
