osu file format v14

[General]
AudioFilename: audio.mp3
AudioLeadIn: 0
PreviewTime: 798
Countdown: 0
SampleSet: Soft
StackLeniency: 0.5
Mode: 0
LetterboxInBreaks: 0
WidescreenStoryboard: 1

[Editor]
DistanceSpacing: 1
BeatDivisor: 8
GridSize: 8
TimelineZoom: 1.6

[Metadata]
Title:Breach
TitleUnicode:Breach
Artist:M2U feat. NICODE
ArtistUnicode:M2U feat. NICODE
Creator:Hailie
Version:Normal
Source:RIDE ZERO
Tags:dirdam frogyfro ylvy minorsonek m2usonek aeril electronic intrumental Halfslashed
BeatmapID:1881649
BeatmapSetID:898791

[Difficulty]
HPDrainRate:3
CircleSize:2.8
OverallDifficulty:4
ApproachRate:6
SliderMultiplier:1.15
SliderTickRate:1

[Events]
//Background and Video events
0,0,"65927362_p0.jpg",0,0
//Break Periods
//Storyboard Layer 0 (Background)
//Storyboard Layer 1 (Fail)
//Storyboard Layer 2 (Pass)
//Storyboard Layer 3 (Foreground)
//Storyboard Sound Samples

[TimingPoints]
791,375,4,2,0,30,1,0
1541,375,4,2,0,50,1,0
1541,-100,4,2,0,50,0,0
13541,-100,4,2,0,50,0,0
13916,-100,4,2,0,50,0,0
18041,-100,4,2,0,50,0,0
19541,-100,4,2,0,50,0,0
19916,-100,4,2,0,50,0,0
25072,-100,4,2,0,5,0,0
25166,-100,4,2,0,40,0,0
25541,-100,4,2,0,50,0,0
28541,-100,4,2,0,50,0,0
31541,-100,4,2,0,50,0,0
32291,-100,4,2,0,50,0,0
33041,-100,4,2,0,50,0,0
33791,-100,4,2,0,50,0,0
34541,-100,4,2,0,45,0,0
35291,-100,4,2,0,40,0,0
36041,-100,4,2,0,35,0,0
36322,-100,4,2,0,5,0,0
36603,-100,4,2,0,35,0,0
36791,-100,4,2,0,50,0,0
37541,-100,4,2,0,70,0,0
37822,-100,4,2,0,5,0,0
37916,-100,4,2,0,70,0,0
38197,-100,4,2,0,5,0,0
38291,-100,4,2,0,70,0,0
39978,-100,4,2,0,70,0,0
40166,-100,4,2,0,70,0,0
40541,-100,4,2,0,70,0,0
40907,-100,4,2,0,70,0,0
42791,-100,4,2,0,70,0,0
43541,-100,4,2,0,70,0,0
45791,-100,4,2,0,70,0,0
46541,-100,4,2,0,70,0,0
46822,-100,4,2,0,5,0,0
46916,-100,4,2,0,70,0,0
47197,-100,4,2,0,5,0,0
47291,-100,4,2,0,70,0,0
49541,-100,4,2,0,70,0,0
49822,-100,4,2,0,5,0,0
49916,-100,4,2,0,70,0,0
51978,-100,4,2,0,70,0,0
52166,-100,4,2,0,70,0,0
52541,-100,4,2,0,70,0,0
54884,-100,4,2,0,5,0,0
54978,-100,4,2,0,70,0,0
55259,-100,4,2,0,5,0,0
55353,-100,4,2,0,70,0,0
55541,-100,4,2,0,70,0,0
55822,-100,4,2,0,5,0,0
55916,-100,4,2,0,70,0,0
57791,-100,4,2,0,70,0,0
58541,-100,4,2,0,70,0,0
58822,-100,4,2,0,5,0,0
58916,-100,4,2,0,70,0,0
59291,-100,4,2,0,70,0,0
61541,-100,4,2,0,50,0,0
62291,-100,4,2,0,50,0,0
64541,-100,4,2,0,50,0,0
65853,-100,4,2,0,50,0,0
67541,-100,4,2,0,50,0,0
68103,-100,4,2,0,50,0,0
68853,-100,4,2,0,50,0,0
69603,-100,4,2,0,50,0,0
72041,-100,4,2,0,50,0,0
73541,-90.9090909090909,4,2,0,70,0,0
73822,-90.9090909090909,4,2,0,5,0,0
73916,-90.9090909090909,4,2,0,70,0,0
76166,-90.9090909090909,4,2,0,70,0,0
76541,-90.9090909090909,4,2,0,70,0,0
76822,-90.9090909090909,4,2,0,5,0,0
76916,-90.9090909090909,4,2,0,70,0,0
79166,-90.9090909090909,4,2,0,70,0,0
79353,-90.9090909090909,4,2,0,70,0,0
79541,-90.9090909090909,4,2,0,70,0,0
82166,-90.9090909090909,4,2,0,70,0,0
82541,-90.9090909090909,4,2,0,70,0,0
82822,-90.9090909090909,4,2,0,5,0,0
82916,-90.9090909090909,4,2,0,70,0,0
88166,-90.9090909090909,4,2,0,70,0,0
88541,-90.9090909090909,4,2,0,70,0,0
90978,-90.9090909090909,4,2,0,70,0,0
91166,-90.9090909090909,4,2,0,70,0,0
91541,-90.9090909090909,4,2,0,70,0,0
94166,-90.9090909090909,4,2,0,70,0,0
94541,-90.9090909090909,4,2,0,70,0,0
94822,-90.9090909090909,4,2,0,5,0,0
94916,-90.9090909090909,4,2,0,70,0,0
97541,-100,4,2,0,50,0,0

[Colours]
Combo1 : 212,212,212
Combo2 : 255,169,128
Combo3 : 5,183,250
Combo4 : 255,64,64

[HitObjects]
54,79,791,5,2,0:0:0:0:
54,79,1166,1,0,0:0:0:0:
54,79,1541,2,0,L|177:72,1,115,4|0,0:3|0:0,0:0:0:0:
272,22,2291,2,0,B|288:79|288:79|259:137,1,115,2|0,0:3|0:0,0:0:0:0:
168,194,3041,1,4,0:3:0:0:
168,194,3228,2,0,L|174:321,1,115,0|0,0:0|3:0,0:0:0:0:
345,316,4166,5,0,3:0:0:0:
345,316,4353,2,0,L|466:314,1,115,4|0,0:3|0:0,0:0:0:0:
495,268,4916,1,4,0:3:0:0:
497,153,5291,2,0,B|489:96|489:96|431:55,1,115,2|2,0:3|0:3,0:0:0:0:
388,41,5853,2,0,L|206:57,1,172.5,4|0,0:3|0:0,0:0:0:0:
106,23,6791,5,2,0:3:0:0:
49,122,7166,1,4,0:3:0:0:
49,122,7353,2,0,L|61:313,1,172.5,2|0,0:0|0:0,0:0:0:0:
170,326,8291,2,0,L|170:404,2,57.5,2|0|0,0:3|0:0|3:0,0:0:0:0:
224,307,8853,1,4,0:3:0:0:
291,213,9228,1,4,0:3:0:0:
205,136,9603,1,0,3:0:0:0:
137,234,9978,1,4,0:3:0:0:
224,307,10353,2,0,B|272:306|272:306|344:277|344:277|405:276,1,172.5,2|0,0:3|0:0,0:0:0:0:
428,167,11291,2,0,L|310:171,1,115,4|0,0:3|0:0,0:0:0:0:
240,81,12041,1,4,0:3:0:0:
183,72,12228,6,0,L|158:-1,2,57.5,0|0|0,3:0|0:0|3:0,0:0:0:0:
132,100,12791,1,2,0:3:0:0:
110,212,13166,2,0,L|128:286,1,57.5,4|2,0:3|0:0,0:0:0:0:
133,324,13541,2,0,B|190:311|190:311|270:325,1,115,4|0,0:3|0:0,0:0:0:0:
359,301,14291,2,0,L|365:180,1,115,2|0,0:3|0:0,0:0:0:0:
398,140,14853,1,0,3:0:0:0:
300,79,15228,2,0,B|296:123|296:123|273:156|273:156|265:209,1,115,0|0,0:0|3:0,0:0:0:0:
257,242,15791,5,2,0:3:0:0:
163,175,16166,1,0,0:0:0:0:
163,175,16353,2,0,L|35:173,1,115,4|0,0:3|0:0,0:0:0:0:
89,280,17103,2,0,L|159:281,1,57.5,0|2,3:0|0:3,0:0:0:0:
252,326,17666,1,0,0:0:0:0:
252,326,17853,2,0,B|317:326|317:326|361:349,1,115,4|0,0:3|0:0,0:0:0:0:
455,283,18603,1,4,0:3:0:0:
446,168,18978,5,2,0:0:0:0:
331,164,19353,2,0,B|281:178|281:178|220:149,1,115,2|0,0:0|0:0,0:0:0:0:
225,93,19916,1,0,0:0:0:0:
110,93,20291,2,0,L|86:34,2,57.5,2|0|0,0:3|3:0|3:0,0:0:0:0:
96,148,20853,2,0,L|95:269,1,115,4|4,0:3|0:3,0:0:0:0:
226,375,21791,5,2,0:3:0:0:
226,375,21978,2,0,L|271:332,1,57.5,4|4,0:3|0:3,0:0:0:0:
325,333,22353,1,2,0:3:0:0:
435,300,22728,1,2,0:3:0:0:
399,190,23103,1,0,3:0:0:0:
287,218,23478,1,0,3:0:0:0:
182,170,23853,2,0,B|135:152|135:152|91:167|91:167|51:151|51:151|2:166,1,172.5,2|2,0:3|0:3,0:0:0:0:
44,273,24791,5,0,0:0:0:0:
44,273,25166,1,8,3:0:0:0:
44,273,25541,2,0,L|146:359,1,115,4|0,0:3|1:0,0:0:0:0:
230,287,26291,1,2,0:3:0:0:
330,343,26666,1,0,0:0:0:0:
387,338,26853,2,0,L|387:220,1,115,2|0,0:0|0:0,0:0:0:0:
461,67,27791,5,2,0:3:0:0:
461,67,28166,1,0,0:0:0:0:
461,67,28541,2,0,B|368:136,1,115,4|0,0:3|0:0,0:0:0:0:
255,155,29291,1,2,0:3:0:0:
166,81,29666,1,0,0:0:0:0:
109,92,29853,2,0,L|108:228,1,115,2|2,0:0|0:0,0:0:0:0:
222,336,30791,5,2,0:3:0:0:
222,336,31166,1,0,0:0:0:0:
222,336,31541,2,0,L|346:301,1,115,4|4,0:3|0:3,0:0:0:0:
324,189,32291,2,0,L|434:158,1,115,4|4,0:3|0:3,0:0:0:0:
398,48,33041,2,0,L|535:19,1,115,4|4,0:3|0:3,0:0:0:0:
486,136,33791,5,4,0:3:0:0:
486,136,34166,1,0,3:0:0:0:
411,224,34541,1,4,0:3:0:0:
181,210,35291,1,4,0:3:0:0:
24,41,36041,2,0,L|26:168,1,115,4|0,0:3|0:0,0:0:0:0:
81,256,36791,6,0,L|103:314,2,57.5,4|2|4,0:3|0:0|0:3,0:0:0:0:
124,218,37353,1,2,0:0:0:0:
177,195,37541,2,0,B|230:172|230:172|308:187,1,115,4|0,0:3|0:0,0:0:0:0:
369,103,38291,6,0,L|406:35,1,57.5,2|2,1:2|0:0,0:0:0:0:
452,66,38666,1,0,0:0:0:0:
468,179,39041,1,4,0:3:0:0:
372,243,39416,1,2,0:0:0:0:
269,191,39791,2,0,L|248:129,2,57.5,2|4|0,1:2|0:3|1:0,0:0:0:0:
237,239,40353,1,0,0:0:0:0:
205,287,40541,2,0,L|223:349,1,57.5,4|0,0:3|0:0,0:0:0:0:
164,354,40916,6,0,B|117:363|117:363|86:348|86:348|38:353,1,115,0|2,0:0|1:2,0:0:0:0:
27,300,41478,1,2,0:0:0:0:
71,193,41853,1,2,0:0:0:0:
183,215,42228,2,0,L|199:278,2,57.5,0|0|2,0:0|0:0|0:0,0:0:0:0:
214,166,42791,2,0,L|223:45,1,115,0|0,1:0|1:0,0:0:0:0:
334,24,43541,2,0,B|383:60|383:60|456:50,1,115,4|0,0:3|0:0,0:0:0:0:
445,167,44291,6,0,L|371:178,1,57.5,2|0,1:2|0:0,0:0:0:0:
350,219,44666,1,2,0:0:0:0:
245,266,45041,2,0,L|245:340,2,57.5,4|2|0,0:3|0:0|0:0,0:0:0:0:
154,194,45791,2,0,L|159:123,2,57.5,2|4|4,1:2|0:3|0:3,0:0:0:0:
105,225,46353,1,4,0:3:0:0:
73,273,46541,2,0,L|72:348,1,57.5,4|0,0:3|0:0,0:0:0:0:
18,308,46916,6,0,L|-1:181,1,115,0|2,0:0|1:2,0:0:0:0:
81,112,47666,2,0,L|82:179,1,57.5,0|0,0:0|3:0,0:0:0:0:
139,169,48041,1,4,0:3:0:0:
249,199,48416,1,0,0:0:0:0:
329,113,48791,6,0,L|337:46,2,57.5,2|6|0,1:2|0:3|1:0,0:0:0:0:
376,145,49353,1,2,0:0:0:0:
408,192,49541,2,0,B|398:235|398:235|414:278|414:278|405:312,1,115,4|0,0:3|0:0,0:0:0:0:
299,341,50291,6,0,L|243:363,2,57.5,2|0|0,1:2|0:0|0:0,0:0:0:0:
308,284,50853,1,2,0:0:0:0:
398,201,51228,2,0,L|471:188,1,57.5,2|2,0:0|0:0,0:0:0:0:
442,76,51791,2,0,L|450:10,2,57.5,2|4|2,1:2|0:3|1:2,0:0:0:0:
395,109,52353,1,0,0:0:0:0:
337,104,52541,2,0,B|289:107|289:107|254:129|254:129|210:130,1,115,4|0,0:3|0:0,0:0:0:0:
113,125,53291,6,0,L|92:63,1,57.5,2|0,1:2|0:0,0:0:0:0:
53,111,53666,1,0,0:0:0:0:
70,224,54041,2,0,L|66:294,2,57.5,4|0|0,0:3|0:0|0:0,0:0:0:0:
167,163,54791,2,0,L|194:113,1,57.5,0|4,1:0|0:3,0:0:0:0:
251,109,55166,1,0,1:0:0:0:
364,126,55541,2,0,L|429:105,1,57.5,4|0,0:3|0:0,0:0:0:0:
437,162,55916,5,0,0:0:0:0:
322,159,56291,1,0,1:0:0:0:
293,208,56478,1,4,0:3:0:0:
182,238,56853,1,0,1:0:0:0:
135,271,57041,2,0,L|116:343,1,57.5,4|0,0:3|0:0,0:0:0:0:
67,348,57416,1,0,0:0:0:0:
43,235,57791,6,0,L|-18:193,2,57.5,0|4|0,1:0|0:3|1:0,0:0:0:0:
89,201,58353,1,0,0:0:0:0:
142,180,58541,2,0,L|130:98,1,57.5,4|0,0:3|0:0,0:0:0:0:
177,86,58916,2,0,L|297:33,1,115,0|0,0:0|1:0,0:0:0:0:
396,54,59666,2,0,L|466:71,1,57.5,8|8,0:3|0:3,0:0:0:0:
416,112,60041,1,4,0:3:0:0:
309,69,60416,1,6,0:3:0:0:
199,102,60791,5,2,1:3:0:0:
199,102,61166,1,0,1:0:0:0:
199,102,61541,2,0,L|67:88,1,115,4|0,0:3|0:0,0:0:0:0:
15,181,62291,1,2,0:3:0:0:
85,272,62666,1,0,0:0:0:0:
135,298,62853,2,0,L|243:249,1,115,2|0,0:0|0:0,0:0:0:0:
409,219,63791,5,2,0:3:0:0:
409,219,64166,1,0,0:0:0:0:
409,219,64541,2,0,B|360:333,1,115,4|0,0:3|0:0,0:0:0:0:
302,227,65291,1,2,0:3:0:0:
287,112,65666,1,0,0:0:0:0:
323,67,65853,2,0,L|457:73,1,115,2|2,0:0|0:0,0:0:0:0:
338,213,66791,5,2,0:1:0:0:
338,213,67166,1,0,3:0:0:0:
338,213,67541,2,0,L|214:178,1,115,4|4,0:3|0:3,0:0:0:0:
240,296,68291,2,0,L|119:261,1,115,4|4,0:3|0:3,0:0:0:0:
126,379,69041,2,0,L|-8:344,1,115,4|4,0:3|0:3,0:0:0:0:
52,241,69791,5,4,0:3:0:0:
52,241,70166,1,0,3:0:0:0:
162,271,70541,2,0,L|178:336,2,57.5,4|8|0,0:3|0:3|3:0,0:0:0:0:
252,200,71291,2,0,L|309:214,2,57.5,4|8|0,0:3|0:3|3:0,0:0:0:0:
267,85,72041,2,0,L|394:65,1,115,4|0,0:3|0:0,0:0:0:0:
494,50,72791,6,0,L|443:-6,2,57.5,2|0|2,0:3|0:0|0:3,0:0:0:0:
484,106,73353,1,2,0:0:0:0:
441,152,73541,2,0,L|310:174,1,126.500003860474,4|4,0:3|0:3,0:0:0:0:
229,265,74291,1,4,0:3:0:0:
169,285,74478,2,0,L|162:351,2,63.2500019302369,0|4|0,0:0|0:3|0:0,0:0:0:0:
112,256,75041,1,4,0:3:0:0:
27,161,75416,2,0,L|11:75,1,63.2500019302369,4|2,0:3|0:0,0:0:0:0:
61,54,75791,1,2,0:3:0:0:
176,87,76166,2,0,L|245:33,1,63.2500019302369,4|0,0:3|0:0,0:0:0:0:
288,59,76541,2,0,B|343:74|343:74|417:53,1,126.500003860474,4|4,0:3|0:3,0:0:0:0:
509,133,77291,5,4,0:3:0:0:
476,187,77478,2,0,L|523:237,2,63.2500019302369,0|4|0,0:0|0:3|0:0,0:0:0:0:
416,209,78041,1,4,0:3:0:0:
300,261,78416,2,0,L|230:254,1,63.2500019302369,4|2,0:3|0:0,0:0:0:0:
196,303,78791,1,6,0:3:0:0:
133,307,78978,2,0,L|76:349,1,63.2500019302369,0|4,0:0|0:3,0:0:0:0:
37,225,79541,2,0,L|22:84,1,126.500003860474,4|4,0:3|0:3,0:0:0:0:
79,69,80103,6,0,L|112:128,2,63.2500019302369,2|4|2,0:3|0:3|0:0,0:0:0:0:
205,67,80853,2,0,L|284:24,1,63.2500019302369,0|4,0:0|0:3,0:0:0:0:
373,94,81416,1,4,0:3:0:0:
340,216,81791,1,6,0:3:0:0:
281,239,81978,2,0,L|308:326,2,63.2500019302369,0|4|0,0:0|0:3|3:0,0:0:0:0:
217,238,82541,2,0,B|141:262|141:262|93:269,1,126.500003860474,4|4,0:3|0:3,0:0:0:0:
52,148,83291,5,4,0:3:0:0:
89,97,83478,2,0,L|81:31,2,63.2500019302369,0|4|0,0:0|0:3|0:0,0:0:0:0:
152,98,84041,1,4,0:3:0:0:
272,136,84416,1,4,0:3:0:0:
389,73,84791,2,0,L|413:0,2,63.2500019302369,2|6|0,1:2|0:3|1:0,0:0:0:0:
406,134,85353,1,6,0:3:0:0:
364,181,85541,2,0,L|218:158,1,126.500003860474,4|0,0:3|0:0,0:0:0:0:
172,268,86291,6,0,L|205:342,2,63.2500019302369,0|2|0,1:0|0:0|0:0,0:0:0:0:
112,156,87041,1,4,0:3:0:0:
165,122,87228,2,0,L|194:60,1,63.2500019302369,0|0,0:0|0:0,0:0:0:0:
317,47,87791,2,0,L|388:39,2,63.2500019302369,0|4|0,1:0|0:3|1:0,0:0:0:0:
289,104,88353,1,0,0:0:0:0:
323,157,88541,2,0,B|371:154|371:154|405:134|405:134|471:135,1,126.500003860474,4|0,0:3|0:0,0:0:0:0:
480,255,89291,6,0,L|487:327,2,63.2500019302369,0|2|2,1:0|0:0|0:0,0:0:0:0:
380,176,90041,1,6,0:3:0:0:
320,155,90228,2,0,L|323:90,1,63.2500019302369,2|0,0:0|0:0,0:0:0:0:
196,78,90791,2,0,L|133:54,2,63.2500019302369,0|4|0,1:0|0:3|1:0,0:0:0:0:
218,136,91353,1,4,0:3:0:0:
201,197,91541,2,0,B|221:237|221:237|218:338,1,126.500003860474,4|0,0:3|0:0,0:0:0:0:
100,273,92291,5,0,1:0:0:0:
81,212,92478,2,0,L|36:166,1,63.2500019302369,4|0,0:3|0:0,0:0:0:0:
139,92,93041,2,0,L|156:14,2,63.2500019302369,0|4|2,1:0|3:3|1:2,0:0:0:0:
201,197,93791,1,0,1:0:0:0:
304,123,94166,2,0,L|364:89,1,63.2500019302369,0|0,1:0|3:0,0:0:0:0:
422,91,94541,1,0,0:0:0:0:
502,188,94916,1,4,0:3:0:0:
384,234,95291,6,0,L|381:320,2,63.2500019302369,0|4|0,1:0|0:3|0:0,0:0:0:0:
324,212,95853,1,0,1:0:0:0:
266,238,96041,1,4,0:3:0:0:
146,191,96416,2,0,L|76:178,1,63.2500019302369,4|8,0:3|0:3,0:0:0:0:
25,148,96791,5,2,1:3:0:0:
126,73,97166,1,0,1:0:0:0:
126,73,97541,2,0,L|249:66,1,115,4|0,0:3|0:0,0:0:0:0:
346,112,98291,2,0,B|327:176|327:176|333:227,1,115,2|0,0:3|0:0,0:0:0:0:
447,230,99041,1,4,0:3:0:0:
447,230,99228,2,0,L|453:357,1,115,0|0,0:0|3:0,0:0:0:0:
282,312,100166,5,0,3:0:0:0:
282,312,100353,2,0,L|163:278,1,115,4|0,0:3|0:0,0:0:0:0:
121,309,100916,1,4,0:3:0:0:
27,242,101291,2,0,B|53:183|53:183|42:113,1,115,2|0,0:3|3:0,0:0:0:0:
62,78,101853,2,0,L|157:236,1,172.5,4|0,0:3|0:0,0:0:0:0:
262,197,102791,5,2,0:3:0:0:
369,155,103166,1,4,0:3:0:0:
369,155,103353,2,0,B|399:121|399:121|526:62,1,172.5,0|0,3:0|0:0,0:0:0:0:
497,181,104291,2,0,L|442:207,2,57.5,2|4|0,0:3|0:3|0:0,0:0:0:0:
512,241,104853,1,2,0:0:0:0:
428,319,105228,1,2,0:0:0:0:
348,235,105603,1,2,0:0:0:0:
243,282,105978,1,2,0:0:0:0:
133,247,106353,2,0,B|145:198|145:198|203:152|203:152|264:156,1,172.5,4|0,0:3|0:0,0:0:0:0:
199,51,107291,2,0,L|95:117,1,115,2|0,0:3|0:0,0:0:0:0:
63,220,108041,1,4,0:3:0:0:
116,240,108228,6,0,L|116:311,2,57.5,2|0|2,0:0|0:0|0:0,0:0:0:0:
168,217,108791,1,2,0:3:0:0:
210,110,109166,1,4,0:3:0:0:
