osu file format v14

[General]
AudioFilename: M2U - The Last One - Gravity.mp3
AudioLeadIn: 0
PreviewTime: -1
Countdown: 0
SampleSet: Soft
StackLeniency: 0.7
Mode: 3
LetterboxInBreaks: 1
StoryFireInFront: 0
EpilepsyWarning: 1
SpecialStyle: 1
WidescreenStoryboard: 1

[Editor]
DistanceSpacing: 0.8
BeatDivisor: 4
GridSize: 8
TimelineZoom: 1

[Metadata]
Title:Gravity
TitleUnicode:Gravity
Artist:M2U feat. Kaicy
ArtistUnicode:M2U feat. Kaicy
Creator:abcoku123
Version:The Last One
Source:The Last One
Tags:
BeatmapID:915035
BeatmapSetID:423431

[Difficulty]
HPDrainRate:5
CircleSize:4
OverallDifficulty:5
ApproachRate:5
SliderMultiplier:1.4
SliderTickRate:1

[Events]
//Background and Video events
0,0,"gravity.png",0,0
Video,0,"M2U - The Last One - Gravity.mp4"
//Break Periods
//Storyboard Layer 0 (Background)
//Storyboard Layer 1 (Fail)
//Storyboard Layer 2 (Pass)
//Storyboard Layer 3 (Foreground)
//Storyboard Sound Samples

[TimingPoints]
50,468.71338176705,4,2,0,0,1,0
14580,-333.333333333333,4,2,0,0,0,0
15048,-100,4,2,0,0,0,0
44577,-10,4,2,0,0,0,0
44694,-333.333333333333,4,2,0,0,0,0
45046,-133.333333333333,4,2,0,0,0,0
53014,-114.942528735632,4,2,0,0,0,0
54889,-105.263157894737,4,2,0,0,0,0
56764,-90.9090909090909,4,2,0,0,0,0
58639,-76.9230769230769,4,2,0,0,0,0
59576,-333.333333333333,4,2,0,0,0,0
60045,-100,4,2,0,0,0,0
74575,-333.333333333333,4,2,0,0,0,0
75044,-100,4,2,0,0,0,0
103166,-1000,4,2,0,0,0,0
104573,-50,4,2,0,0,0,0
104924,-100,4,2,0,0,0,0
142070,-333.333333333333,4,2,0,0,0,0
142538,-100,4,2,0,0,0,0

[HitObjects]
448,192,50,5,0,0:0:0:0:
320,192,50,1,0,0:0:0:0:
192,192,284,1,0,0:0:0:0:
64,192,518,1,0,0:0:0:0:
320,192,518,128,0,753:0:0:0:0:
448,192,753,1,0,0:0:0:0:
192,192,753,128,0,1924:0:0:0:0:
448,192,987,1,0,0:0:0:0:
320,192,987,1,0,0:0:0:0:
448,192,1338,1,0,0:0:0:0:
320,192,1456,1,0,0:0:0:0:
448,192,1456,1,0,0:0:0:0:
448,192,1690,1,0,0:0:0:0:
448,192,1924,1,0,0:0:0:0:
320,192,1924,1,0,0:0:0:0:
64,192,2393,1,0,0:0:0:0:
320,192,2393,128,0,2627:0:0:0:0:
448,192,2627,128,0,3799:0:0:0:0:
192,192,2627,1,0,0:0:0:0:
192,192,2862,1,0,0:0:0:0:
320,192,2862,1,0,0:0:0:0:
192,192,3213,1,0,0:0:0:0:
192,192,3330,1,0,0:0:0:0:
64,192,3330,1,0,0:0:0:0:
192,192,3565,1,0,0:0:0:0:
192,192,3799,1,0,0:0:0:0:
64,192,3799,1,0,0:0:0:0:
320,192,4268,1,0,0:0:0:0:
192,192,4268,128,0,4502:0:0:0:0:
64,192,4502,128,0,5674:0:0:0:0:
320,192,4502,1,0,0:0:0:0:
320,192,4737,1,0,0:0:0:0:
192,192,4737,1,0,0:0:0:0:
320,192,5088,1,0,0:0:0:0:
320,192,5205,1,0,0:0:0:0:
192,192,5205,1,0,0:0:0:0:
320,192,5440,1,0,0:0:0:0:
320,192,5674,1,0,0:0:0:0:
448,192,5674,1,0,0:0:0:0:
192,192,6143,1,0,0:0:0:0:
320,192,6143,128,0,6377:0:0:0:0:
448,192,6377,1,0,0:0:0:0:
192,192,6377,128,0,6846:0:0:0:0:
320,192,6611,1,0,0:0:0:0:
448,192,6611,1,0,0:0:0:0:
320,192,6846,128,0,7315:0:0:0:0:
64,192,6963,1,0,0:0:0:0:
64,192,7080,1,0,0:0:0:0:
192,192,7080,1,0,0:0:0:0:
448,192,7315,1,0,0:0:0:0:
320,192,7549,1,0,0:0:0:0:
192,192,7549,1,0,0:0:0:0:
448,192,7549,1,0,0:0:0:0:
192,192,8018,128,0,8252:0:0:0:0:
320,192,8018,1,0,0:0:0:0:
64,192,8252,128,0,9424:0:0:0:0:
448,192,8252,1,0,0:0:0:0:
320,192,8486,1,0,0:0:0:0:
320,192,8838,1,0,0:0:0:0:
320,192,8955,1,0,0:0:0:0:
448,192,8955,1,0,0:0:0:0:
320,192,9189,1,0,0:0:0:0:
320,192,9424,1,0,0:0:0:0:
448,192,9424,1,0,0:0:0:0:
448,192,9892,128,0,10127:0:0:0:0:
192,192,9892,1,0,0:0:0:0:
320,192,10127,128,0,11299:0:0:0:0:
64,192,10127,1,0,0:0:0:0:
192,192,10361,1,0,0:0:0:0:
192,192,10713,1,0,0:0:0:0:
192,192,10830,1,0,0:0:0:0:
448,192,10830,1,0,0:0:0:0:
192,192,11064,1,0,0:0:0:0:
192,192,11299,1,0,0:0:0:0:
448,192,11299,1,0,0:0:0:0:
320,192,11767,128,0,12002:0:0:0:0:
448,192,11767,1,0,0:0:0:0:
192,192,12002,128,0,13173:0:0:0:0:
64,192,12002,1,0,0:0:0:0:
448,192,12236,1,0,0:0:0:0:
448,192,12588,1,0,0:0:0:0:
320,192,12705,1,0,0:0:0:0:
448,192,12705,1,0,0:0:0:0:
448,192,12939,1,0,0:0:0:0:
448,192,13173,1,0,0:0:0:0:
320,192,13173,1,0,0:0:0:0:
192,192,13408,1,0,0:0:0:0:
320,192,13408,1,0,0:0:0:0:
192,192,13642,1,0,0:0:0:0:
320,192,13642,1,0,0:0:0:0:
448,192,13642,1,0,0:0:0:0:
192,192,13877,1,0,0:0:0:0:
448,192,13877,1,0,0:0:0:0:
64,192,13994,1,0,0:0:0:0:
320,192,13994,1,0,0:0:0:0:
192,192,14111,1,0,0:0:0:0:
448,192,14111,1,0,0:0:0:0:
320,192,14228,1,0,0:0:0:0:
448,192,14345,1,0,0:0:0:0:
192,192,14345,1,0,0:0:0:0:
320,192,14462,1,0,0:0:0:0:
448,192,14580,1,0,0:0:0:0:
192,192,14580,128,0,15048:0:0:0:0:
320,192,15048,1,0,0:0:0:0:
448,192,15048,1,0,0:0:0:0:
64,192,15048,128,0,15517:0:0:0:0:
320,192,15517,1,0,0:0:0:0:
448,192,15517,1,0,0:0:0:0:
192,192,15751,128,0,16454:0:0:0:0:
320,192,15986,1,0,0:0:0:0:
448,192,15986,1,0,0:0:0:0:
64,192,16454,128,0,16689:0:0:0:0:
320,192,16454,1,0,0:0:0:0:
448,192,16454,1,0,0:0:0:0:
192,192,16689,128,0,16923:0:0:0:0:
320,192,16923,1,0,0:0:0:0:
448,192,16923,1,0,0:0:0:0:
320,192,17392,1,0,0:0:0:0:
448,192,17392,1,0,0:0:0:0:
448,192,17626,128,0,17861:0:0:0:0:
192,192,17861,1,0,0:0:0:0:
64,192,17861,1,0,0:0:0:0:
320,192,17861,128,0,18095:0:0:0:0:
448,192,18095,128,0,18329:0:0:0:0:
320,192,18329,128,0,18564:0:0:0:0:
64,192,18329,1,0,0:0:0:0:
192,192,18329,1,0,0:0:0:0:
448,192,18564,128,0,19267:0:0:0:0:
64,192,18798,1,0,0:0:0:0:
192,192,18798,1,0,0:0:0:0:
64,192,19267,1,0,0:0:0:0:
192,192,19267,1,0,0:0:0:0:
320,192,19501,128,0,19970:0:0:0:0:
64,192,19735,1,0,0:0:0:0:
192,192,19735,1,0,0:0:0:0:
448,192,19970,128,0,20204:0:0:0:0:
320,192,20204,128,0,20439:0:0:0:0:
64,192,20204,1,0,0:0:0:0:
192,192,20204,1,0,0:0:0:0:
448,192,20439,128,0,21142:0:0:0:0:
64,192,20673,1,0,0:0:0:0:
192,192,20673,1,0,0:0:0:0:
64,192,21142,1,0,0:0:0:0:
192,192,21142,1,0,0:0:0:0:
320,192,21376,128,0,21610:0:0:0:0:
192,192,21610,128,0,21845:0:0:0:0:
64,192,21610,1,0,0:0:0:0:
448,192,21610,1,0,0:0:0:0:
320,192,21845,128,0,22079:0:0:0:0:
192,192,22079,128,0,22313:0:0:0:0:
64,192,22079,1,0,0:0:0:0:
448,192,22079,1,0,0:0:0:0:
320,192,22313,128,0,22782:0:0:0:0:
64,192,22548,1,0,0:0:0:0:
448,192,22548,1,0,0:0:0:0:
192,192,22782,128,0,23016:0:0:0:0:
64,192,23016,1,0,0:0:0:0:
320,192,23016,128,0,23251:0:0:0:0:
448,192,23016,1,0,0:0:0:0:
192,192,23251,128,0,23485:0:0:0:0:
320,192,23485,128,0,23720:0:0:0:0:
64,192,23485,1,0,0:0:0:0:
448,192,23485,1,0,0:0:0:0:
192,192,23720,128,0,23954:0:0:0:0:
64,192,23954,1,0,0:0:0:0:
448,192,23954,1,0,0:0:0:0:
192,192,24188,128,0,24657:0:0:0:0:
64,192,24423,1,0,0:0:0:0:
448,192,24423,1,0,0:0:0:0:
320,192,24657,128,0,24891:0:0:0:0:
64,192,24891,1,0,0:0:0:0:
448,192,24891,1,0,0:0:0:0:
192,192,24891,128,0,25126:0:0:0:0:
320,192,25126,128,0,25360:0:0:0:0:
64,192,25360,1,0,0:0:0:0:
448,192,25360,1,0,0:0:0:0:
192,192,25360,128,0,25594:0:0:0:0:
320,192,25594,128,0,25829:0:0:0:0:
64,192,25829,1,0,0:0:0:0:
448,192,25829,1,0,0:0:0:0:
64,192,26063,128,0,26532:0:0:0:0:
320,192,26297,1,0,0:0:0:0:
448,192,26297,1,0,0:0:0:0:
192,192,26532,128,0,26766:0:0:0:0:
64,192,26766,128,0,27001:0:0:0:0:
320,192,26766,1,0,0:0:0:0:
448,192,26766,1,0,0:0:0:0:
192,192,27001,128,0,27469:0:0:0:0:
320,192,27235,1,0,0:0:0:0:
448,192,27235,1,0,0:0:0:0:
64,192,27469,128,0,27704:0:0:0:0:
192,192,27704,128,0,27938:0:0:0:0:
320,192,27704,1,0,0:0:0:0:
448,192,27704,1,0,0:0:0:0:
64,192,27938,128,0,28407:0:0:0:0:
320,192,28172,1,0,0:0:0:0:
448,192,28172,1,0,0:0:0:0:
64,192,28641,1,0,0:0:0:0:
192,192,28641,1,0,0:0:0:0:
448,192,28875,128,0,29110:0:0:0:0:
320,192,29110,128,0,29344:0:0:0:0:
64,192,29110,1,0,0:0:0:0:
192,192,29110,1,0,0:0:0:0:
192,192,29344,128,0,29578:0:0:0:0:
64,192,29578,128,0,29813:0:0:0:0:
320,192,29578,1,0,0:0:0:0:
448,192,29578,1,0,0:0:0:0:
192,192,29813,128,0,30516:0:0:0:0:
320,192,30047,1,0,0:0:0:0:
448,192,30047,1,0,0:0:0:0:
320,192,30516,1,0,0:0:0:0:
448,192,30516,1,0,0:0:0:0:
320,192,30750,128,0,31219:0:0:0:0:
64,192,30985,1,0,0:0:0:0:
192,192,30985,1,0,0:0:0:0:
448,192,31219,128,0,31688:0:0:0:0:
64,192,31453,1,0,0:0:0:0:
192,192,31453,1,0,0:0:0:0:
320,192,31688,128,0,32156:0:0:0:0:
64,192,31922,1,0,0:0:0:0:
192,192,31922,1,0,0:0:0:0:
192,192,32156,128,0,32391:0:0:0:0:
320,192,32391,1,0,0:0:0:0:
448,192,32391,1,0,0:0:0:0:
64,192,32625,128,0,32859:0:0:0:0:
192,192,32859,128,0,33094:0:0:0:0:
320,192,32859,1,0,0:0:0:0:
448,192,32859,1,0,0:0:0:0:
320,192,33094,128,0,33328:0:0:0:0:
448,192,33328,128,0,33563:0:0:0:0:
64,192,33328,1,0,0:0:0:0:
192,192,33328,1,0,0:0:0:0:
320,192,33563,128,0,34031:0:0:0:0:
64,192,33797,1,0,0:0:0:0:
192,192,33797,1,0,0:0:0:0:
192,192,34031,128,0,34266:0:0:0:0:
64,192,34266,128,0,34500:0:0:0:0:
320,192,34266,1,0,0:0:0:0:
448,192,34266,1,0,0:0:0:0:
192,192,34500,128,0,34969:0:0:0:0:
320,192,34734,1,0,0:0:0:0:
448,192,34734,1,0,0:0:0:0:
320,192,34969,128,0,35203:0:0:0:0:
448,192,35203,128,0,35437:0:0:0:0:
64,192,35203,1,0,0:0:0:0:
192,192,35203,1,0,0:0:0:0:
320,192,35437,128,0,35906:0:0:0:0:
64,192,35672,1,0,0:0:0:0:
192,192,35672,1,0,0:0:0:0:
192,192,35906,128,0,36140:0:0:0:0:
320,192,36140,1,0,0:0:0:0:
448,192,36140,1,0,0:0:0:0:
64,192,36375,128,0,36609:0:0:0:0:
192,192,36609,128,0,36844:0:0:0:0:
320,192,36609,1,0,0:0:0:0:
448,192,36609,1,0,0:0:0:0:
320,192,36844,128,0,37078:0:0:0:0:
448,192,37078,128,0,37312:0:0:0:0:
64,192,37078,1,0,0:0:0:0:
192,192,37078,1,0,0:0:0:0:
320,192,37312,128,0,37781:0:0:0:0:
64,192,37547,1,0,0:0:0:0:
192,192,37547,1,0,0:0:0:0:
192,192,37781,128,0,38015:0:0:0:0:
64,192,38015,128,0,38250:0:0:0:0:
320,192,38015,1,0,0:0:0:0:
448,192,38015,1,0,0:0:0:0:
192,192,38250,128,0,38484:0:0:0:0:
320,192,38484,1,0,0:0:0:0:
448,192,38484,1,0,0:0:0:0:
320,192,38953,128,0,39187:0:0:0:0:
192,192,38953,1,0,0:0:0:0:
64,192,38953,1,0,0:0:0:0:
448,192,39187,128,0,39656:0:0:0:0:
64,192,39421,1,0,0:0:0:0:
192,192,39421,1,0,0:0:0:0:
320,192,39656,128,0,39890:0:0:0:0:
192,192,39890,128,0,40124:0:0:0:0:
64,192,39890,1,0,0:0:0:0:
448,192,39890,1,0,0:0:0:0:
64,192,40124,128,0,40593:0:0:0:0:
320,192,40359,1,0,0:0:0:0:
448,192,40359,1,0,0:0:0:0:
192,192,40593,128,0,40828:0:0:0:0:
320,192,40828,128,0,41062:0:0:0:0:
64,192,40828,1,0,0:0:0:0:
448,192,40828,1,0,0:0:0:0:
448,192,41062,128,0,41531:0:0:0:0:
64,192,41296,1,0,0:0:0:0:
192,192,41296,1,0,0:0:0:0:
320,192,41531,128,0,41765:0:0:0:0:
192,192,41765,128,0,41999:0:0:0:0:
448,192,41765,1,0,0:0:0:0:
64,192,41765,1,0,0:0:0:0:
64,192,41999,128,0,42468:0:0:0:0:
320,192,42234,1,0,0:0:0:0:
448,192,42234,1,0,0:0:0:0:
192,192,42468,128,0,42702:0:0:0:0:
320,192,42702,128,0,42937:0:0:0:0:
448,192,42702,1,0,0:0:0:0:
64,192,42702,1,0,0:0:0:0:
448,192,42937,128,0,43405:0:0:0:0:
192,192,43171,1,0,0:0:0:0:
64,192,43171,1,0,0:0:0:0:
320,192,43405,128,0,43874:0:0:0:0:
64,192,43640,1,0,0:0:0:0:
192,192,43640,1,0,0:0:0:0:
192,192,43874,128,0,44577:0:0:0:0:
320,192,44343,1,0,0:0:0:0:
320,192,44577,1,0,0:0:0:0:
448,192,44577,1,0,0:0:0:0:
64,192,45046,1,0,0:0:0:0:
320,192,45046,1,0,0:0:0:0:
448,192,45046,1,0,0:0:0:0:
192,192,45046,128,0,45515:0:0:0:0:
320,192,45280,1,0,0:0:0:0:
448,192,45749,1,0,0:0:0:0:
192,192,45983,128,0,46335:0:0:0:0:
320,192,46218,1,0,0:0:0:0:
64,192,46335,128,0,46686:0:0:0:0:
448,192,46686,1,0,0:0:0:0:
192,192,46686,128,0,46921:0:0:0:0:
64,192,46921,128,0,47390:0:0:0:0:
320,192,47155,1,0,0:0:0:0:
448,192,47624,1,0,0:0:0:0:
320,192,47858,128,0,48210:0:0:0:0:
64,192,48093,1,0,0:0:0:0:
448,192,48210,128,0,48561:0:0:0:0:
320,192,48561,128,0,48796:0:0:0:0:
192,192,48561,1,0,0:0:0:0:
448,192,48796,128,0,49264:0:0:0:0:
64,192,49030,1,0,0:0:0:0:
192,192,49499,1,0,0:0:0:0:
320,192,49733,128,0,50085:0:0:0:0:
64,192,49967,1,0,0:0:0:0:
192,192,50085,128,0,50436:0:0:0:0:
64,192,50436,128,0,50671:0:0:0:0:
448,192,50436,1,0,0:0:0:0:
192,192,50671,128,0,51139:0:0:0:0:
320,192,50905,1,0,0:0:0:0:
320,192,51139,128,0,51374:0:0:0:0:
448,192,51374,128,0,51608:0:0:0:0:
64,192,51374,1,0,0:0:0:0:
320,192,51608,128,0,51960:0:0:0:0:
448,192,51842,1,0,0:0:0:0:
192,192,51960,128,0,52311:0:0:0:0:
64,192,52311,128,0,52545:0:0:0:0:
320,192,52311,1,0,0:0:0:0:
192,192,52545,128,0,53014:0:0:0:0:
448,192,52780,1,0,0:0:0:0:
320,192,53248,1,0,0:0:0:0:
448,192,53483,128,0,53834:0:0:0:0:
64,192,53717,1,0,0:0:0:0:
320,192,53834,128,0,54186:0:0:0:0:
448,192,54186,128,0,54420:0:0:0:0:
192,192,54186,1,0,0:0:0:0:
320,192,54420,128,0,54889:0:0:0:0:
64,192,54655,1,0,0:0:0:0:
192,192,55123,5,0,0:0:0:0:
64,192,55123,128,0,55358:0:0:0:0:
192,192,55358,128,0,55709:0:0:0:0:
448,192,55592,1,0,0:0:0:0:
64,192,55709,128,0,56061:0:0:0:0:
192,192,56061,128,0,56295:0:0:0:0:
320,192,56061,1,0,0:0:0:0:
64,192,56295,128,0,56764:0:0:0:0:
448,192,56529,1,0,0:0:0:0:
320,192,56998,1,0,0:0:0:0:
448,192,57233,128,0,57584:0:0:0:0:
192,192,57467,1,0,0:0:0:0:
320,192,57584,128,0,57936:0:0:0:0:
192,192,57936,128,0,58170:0:0:0:0:
448,192,57936,1,0,0:0:0:0:
64,192,58170,128,0,58639:0:0:0:0:
448,192,58404,1,0,0:0:0:0:
192,192,58639,128,0,58873:0:0:0:0:
320,192,58873,128,0,59107:0:0:0:0:
64,192,58873,1,0,0:0:0:0:
448,192,59107,128,0,59459:0:0:0:0:
192,192,59107,1,0,0:0:0:0:
64,192,59342,1,0,0:0:0:0:
320,192,59459,128,0,60045:0:0:0:0:
192,192,59576,1,0,0:0:0:0:
448,192,60045,1,0,0:0:0:0:
192,192,60045,128,0,60514:0:0:0:0:
320,192,60279,1,0,0:0:0:0:
448,192,60514,1,0,0:0:0:0:
64,192,60514,128,0,60982:0:0:0:0:
320,192,60748,1,0,0:0:0:0:
448,192,60982,1,0,0:0:0:0:
192,192,60982,128,0,61334:0:0:0:0:
64,192,61217,1,0,0:0:0:0:
320,192,61334,128,0,61685:0:0:0:0:
448,192,61451,1,0,0:0:0:0:
448,192,61685,128,0,61920:0:0:0:0:
64,192,61685,1,0,0:0:0:0:
320,192,61920,128,0,62388:0:0:0:0:
192,192,61920,1,0,0:0:0:0:
64,192,62154,1,0,0:0:0:0:
448,192,62388,1,0,0:0:0:0:
192,192,62388,128,0,62857:0:0:0:0:
320,192,62623,1,0,0:0:0:0:
448,192,62857,1,0,0:0:0:0:
64,192,62857,128,0,63209:0:0:0:0:
320,192,63091,1,0,0:0:0:0:
192,192,63209,128,0,63560:0:0:0:0:
448,192,63326,1,0,0:0:0:0:
320,192,63560,128,0,63795:0:0:0:0:
64,192,63560,1,0,0:0:0:0:
448,192,63795,128,0,64263:0:0:0:0:
192,192,63795,1,0,0:0:0:0:
64,192,64029,1,0,0:0:0:0:
320,192,64263,128,0,64732:0:0:0:0:
192,192,64263,1,0,0:0:0:0:
64,192,64498,1,0,0:0:0:0:
448,192,64732,1,0,0:0:0:0:
192,192,64732,128,0,65083:0:0:0:0:
320,192,64966,1,0,0:0:0:0:
64,192,65083,128,0,65435:0:0:0:0:
448,192,65201,1,0,0:0:0:0:
192,192,65435,128,0,65669:0:0:0:0:
448,192,65669,1,0,0:0:0:0:
320,192,65669,128,0,66138:0:0:0:0:
64,192,65904,1,0,0:0:0:0:
192,192,66138,1,0,0:0:0:0:
448,192,66138,128,0,66372:0:0:0:0:
320,192,66372,128,0,66607:0:0:0:0:
64,192,66372,1,0,0:0:0:0:
192,192,66607,128,0,66958:0:0:0:0:
448,192,66607,1,0,0:0:0:0:
320,192,66841,1,0,0:0:0:0:
64,192,66958,128,0,67310:0:0:0:0:
448,192,67076,1,0,0:0:0:0:
192,192,67310,128,0,67544:0:0:0:0:
320,192,67310,1,0,0:0:0:0:
320,192,67544,128,0,68013:0:0:0:0:
448,192,67544,1,0,0:0:0:0:
64,192,67779,1,0,0:0:0:0:
448,192,68013,128,0,68482:0:0:0:0:
192,192,68013,1,0,0:0:0:0:
64,192,68247,1,0,0:0:0:0:
320,192,68482,128,0,68833:0:0:0:0:
192,192,68482,1,0,0:0:0:0:
64,192,68716,1,0,0:0:0:0:
192,192,68833,128,0,69185:0:0:0:0:
448,192,68950,1,0,0:0:0:0:
64,192,69185,128,0,69419:0:0:0:0:
320,192,69185,1,0,0:0:0:0:
192,192,69419,128,0,69888:0:0:0:0:
448,192,69419,1,0,0:0:0:0:
320,192,69653,1,0,0:0:0:0:
320,192,69888,128,0,70357:0:0:0:0:
448,192,69888,1,0,0:0:0:0:
192,192,70122,1,0,0:0:0:0:
448,192,70357,128,0,70708:0:0:0:0:
64,192,70357,1,0,0:0:0:0:
192,192,70591,1,0,0:0:0:0:
320,192,70708,128,0,71060:0:0:0:0:
64,192,70825,1,0,0:0:0:0:
192,192,71060,128,0,71294:0:0:0:0:
448,192,71060,1,0,0:0:0:0:
64,192,71294,128,0,71763:0:0:0:0:
320,192,71294,1,0,0:0:0:0:
448,192,71528,1,0,0:0:0:0:
192,192,71763,128,0,72231:0:0:0:0:
320,192,71763,1,0,0:0:0:0:
448,192,71997,1,0,0:0:0:0:
320,192,72231,128,0,72583:0:0:0:0:
64,192,72231,1,0,0:0:0:0:
192,192,72466,1,0,0:0:0:0:
448,192,72583,128,0,72934:0:0:0:0:
64,192,72700,1,0,0:0:0:0:
320,192,72934,128,0,73169:0:0:0:0:
192,192,72934,1,0,0:0:0:0:
192,192,73169,128,0,73638:0:0:0:0:
64,192,73169,1,0,0:0:0:0:
320,192,73403,1,0,0:0:0:0:
64,192,73638,128,0,74106:0:0:0:0:
448,192,73638,1,0,0:0:0:0:
320,192,73872,1,0,0:0:0:0:
192,192,74106,128,0,74458:0:0:0:0:
448,192,74106,1,0,0:0:0:0:
64,192,74341,1,0,0:0:0:0:
320,192,74458,128,0,74809:0:0:0:0:
448,192,74809,128,0,75044:0:0:0:0:
64,192,74809,1,0,0:0:0:0:
192,192,75044,1,0,0:0:0:0:
320,192,75044,128,0,75512:0:0:0:0:
64,192,75278,1,0,0:0:0:0:
192,192,75512,128,0,75981:0:0:0:0:
448,192,75512,1,0,0:0:0:0:
320,192,75747,1,0,0:0:0:0:
64,192,75981,128,0,76333:0:0:0:0:
448,192,75981,1,0,0:0:0:0:
320,192,76215,1,0,0:0:0:0:
192,192,76333,128,0,76684:0:0:0:0:
448,192,76450,1,0,0:0:0:0:
320,192,76684,128,0,76918:0:0:0:0:
64,192,76684,1,0,0:0:0:0:
448,192,76918,128,0,77387:0:0:0:0:
192,192,76918,1,0,0:0:0:0:
64,192,77153,1,0,0:0:0:0:
320,192,77387,128,0,77856:0:0:0:0:
192,192,77387,1,0,0:0:0:0:
64,192,77622,1,0,0:0:0:0:
192,192,77856,128,0,78207:0:0:0:0:
448,192,77856,1,0,0:0:0:0:
320,192,78090,1,0,0:0:0:0:
64,192,78207,128,0,78559:0:0:0:0:
448,192,78325,1,0,0:0:0:0:
192,192,78559,128,0,78793:0:0:0:0:
320,192,78559,1,0,0:0:0:0:
320,192,78793,128,0,79262:0:0:0:0:
448,192,78793,1,0,0:0:0:0:
64,192,79028,1,0,0:0:0:0:
448,192,79262,128,0,79731:0:0:0:0:
192,192,79262,1,0,0:0:0:0:
64,192,79496,1,0,0:0:0:0:
320,192,79731,128,0,80082:0:0:0:0:
192,192,79731,1,0,0:0:0:0:
64,192,79965,1,0,0:0:0:0:
192,192,80082,128,0,80434:0:0:0:0:
448,192,80199,1,0,0:0:0:0:
64,192,80434,128,0,80668:0:0:0:0:
320,192,80434,1,0,0:0:0:0:
192,192,80668,128,0,81137:0:0:0:0:
448,192,80668,1,0,0:0:0:0:
320,192,80903,1,0,0:0:0:0:
320,192,81137,128,0,81371:0:0:0:0:
448,192,81137,1,0,0:0:0:0:
448,192,81371,128,0,81606:0:0:0:0:
64,192,81371,1,0,0:0:0:0:
320,192,81606,128,0,81957:0:0:0:0:
192,192,81606,1,0,0:0:0:0:
64,192,81840,1,0,0:0:0:0:
192,192,81957,128,0,82309:0:0:0:0:
448,192,82074,1,0,0:0:0:0:
64,192,82309,128,0,82543:0:0:0:0:
320,192,82309,1,0,0:0:0:0:
192,192,82543,128,0,83012:0:0:0:0:
448,192,82543,1,0,0:0:0:0:
64,192,82777,1,0,0:0:0:0:
320,192,83012,128,0,83480:0:0:0:0:
448,192,83012,1,0,0:0:0:0:
192,192,83246,1,0,0:0:0:0:
448,192,83480,128,0,83832:0:0:0:0:
64,192,83480,1,0,0:0:0:0:
192,192,83715,1,0,0:0:0:0:
320,192,83832,128,0,84184:0:0:0:0:
64,192,83949,1,0,0:0:0:0:
192,192,84184,128,0,84418:0:0:0:0:
448,192,84184,1,0,0:0:0:0:
64,192,84418,128,0,84887:0:0:0:0:
320,192,84418,1,0,0:0:0:0:
448,192,84652,1,0,0:0:0:0:
192,192,84887,128,0,85355:0:0:0:0:
320,192,84887,1,0,0:0:0:0:
448,192,85121,1,0,0:0:0:0:
320,192,85355,128,0,85707:0:0:0:0:
64,192,85355,1,0,0:0:0:0:
192,192,85590,1,0,0:0:0:0:
448,192,85707,128,0,86058:0:0:0:0:
64,192,85824,1,0,0:0:0:0:
320,192,86058,128,0,86293:0:0:0:0:
192,192,86058,1,0,0:0:0:0:
192,192,86293,128,0,86761:0:0:0:0:
64,192,86293,1,0,0:0:0:0:
448,192,86527,1,0,0:0:0:0:
64,192,86761,128,0,87230:0:0:0:0:
320,192,86761,1,0,0:0:0:0:
448,192,86996,1,0,0:0:0:0:
192,192,87230,128,0,87582:0:0:0:0:
320,192,87230,1,0,0:0:0:0:
448,192,87465,1,0,0:0:0:0:
320,192,87582,128,0,87933:0:0:0:0:
64,192,87699,1,0,0:0:0:0:
448,192,87933,128,0,88168:0:0:0:0:
192,192,87933,1,0,0:0:0:0:
320,192,88168,128,0,88871:0:0:0:0:
64,192,88168,128,0,88871:0:0:0:0:
192,192,88168,1,0,0:0:0:0:
192,192,88871,128,0,89105:0:0:0:0:
448,192,88871,128,0,89105:0:0:0:0:
64,192,89105,128,0,89339:0:0:0:0:
320,192,89105,128,0,89339:0:0:0:0:
192,192,89339,128,0,89574:0:0:0:0:
448,192,89339,128,0,89574:0:0:0:0:
320,192,89574,128,0,89808:0:0:0:0:
64,192,89574,128,0,89808:0:0:0:0:
192,192,89808,128,0,90511:0:0:0:0:
448,192,89808,128,0,98245:0:0:0:0:
64,192,90042,1,0,0:0:0:0:
320,192,90042,1,0,0:0:0:0:
320,192,90511,1,0,0:0:0:0:
64,192,90511,1,0,0:0:0:0:
64,192,90746,1,0,0:0:0:0:
64,192,90863,1,0,0:0:0:0:
192,192,90980,1,0,0:0:0:0:
320,192,91214,1,0,0:0:0:0:
320,192,91331,1,0,0:0:0:0:
192,192,91449,1,0,0:0:0:0:
64,192,91683,1,0,0:0:0:0:
320,192,91917,128,0,92152:0:0:0:0:
192,192,91917,128,0,92152:0:0:0:0:
64,192,92386,1,0,0:0:0:0:
192,192,92620,1,0,0:0:0:0:
192,192,92738,1,0,0:0:0:0:
64,192,92855,1,0,0:0:0:0:
192,192,93089,1,0,0:0:0:0:
192,192,93206,1,0,0:0:0:0:
320,192,93323,1,0,0:0:0:0:
192,192,93558,1,0,0:0:0:0:
192,192,93792,128,0,94027:0:0:0:0:
64,192,93792,128,0,94027:0:0:0:0:
320,192,94261,1,0,0:0:0:0:
64,192,94495,1,0,0:0:0:0:
64,192,94612,1,0,0:0:0:0:
192,192,94730,1,0,0:0:0:0:
192,192,94964,1,0,0:0:0:0:
192,192,95081,1,0,0:0:0:0:
320,192,95198,1,0,0:0:0:0:
192,192,95433,1,0,0:0:0:0:
64,192,95667,128,0,95901:0:0:0:0:
320,192,95667,128,0,95901:0:0:0:0:
192,192,96136,1,0,0:0:0:0:
320,192,96370,1,0,0:0:0:0:
320,192,96487,1,0,0:0:0:0:
192,192,96604,1,0,0:0:0:0:
192,192,96839,1,0,0:0:0:0:
192,192,96956,1,0,0:0:0:0:
64,192,97073,1,0,0:0:0:0:
192,192,97308,1,0,0:0:0:0:
192,192,97542,128,0,97776:0:0:0:0:
320,192,97542,128,0,97776:0:0:0:0:
192,192,98011,1,0,0:0:0:0:
320,192,98245,128,0,98714:0:0:0:0:
192,192,98479,1,0,0:0:0:0:
448,192,98479,1,0,0:0:0:0:
192,192,98714,128,0,99182:0:0:0:0:
64,192,98948,1,0,0:0:0:0:
320,192,98948,1,0,0:0:0:0:
64,192,99182,128,0,99651:0:0:0:0:
192,192,99417,1,0,0:0:0:0:
448,192,99417,1,0,0:0:0:0:
192,192,99651,128,0,100120:0:0:0:0:
320,192,99885,1,0,0:0:0:0:
448,192,99885,1,0,0:0:0:0:
320,192,100120,128,0,100589:0:0:0:0:
64,192,100354,1,0,0:0:0:0:
192,192,100354,1,0,0:0:0:0:
448,192,100589,128,0,101057:0:0:0:0:
64,192,100823,1,0,0:0:0:0:
320,192,100823,1,0,0:0:0:0:
320,192,101057,128,0,101526:0:0:0:0:
448,192,101292,1,0,0:0:0:0:
192,192,101292,1,0,0:0:0:0:
192,192,101526,128,0,101995:0:0:0:0:
320,192,101760,1,0,0:0:0:0:
448,192,101760,1,0,0:0:0:0:
64,192,101995,128,0,102463:0:0:0:0:
192,192,102229,1,0,0:0:0:0:
448,192,102229,1,0,0:0:0:0:
192,192,102463,128,0,102932:0:0:0:0:
320,192,102698,1,0,0:0:0:0:
448,192,102698,1,0,0:0:0:0:
320,192,102932,128,0,103166:0:0:0:0:
64,192,103166,1,0,0:0:0:0:
192,192,103166,1,0,0:0:0:0:
448,192,103166,1,0,0:0:0:0:
64,192,104573,128,0,105041:0:0:0:0:
320,192,104573,128,0,105041:0:0:0:0:
192,192,105041,128,0,105158:0:0:0:0:
448,192,105041,128,0,105158:0:0:0:0:
64,192,105276,128,0,105393:0:0:0:0:
320,192,105276,128,0,105393:0:0:0:0:
64,192,105510,128,0,105627:0:0:0:0:
320,192,105510,128,0,105627:0:0:0:0:
192,192,105627,1,0,0:0:0:0:
448,192,105627,1,0,0:0:0:0:
320,192,105744,1,0,0:0:0:0:
64,192,105744,1,0,0:0:0:0:
192,192,105862,1,0,0:0:0:0:
448,192,105862,1,0,0:0:0:0:
64,192,106096,1,0,0:0:0:0:
320,192,106096,1,0,0:0:0:0:
192,192,106213,1,0,0:0:0:0:
448,192,106213,1,0,0:0:0:0:
320,192,106330,1,0,0:0:0:0:
64,192,106330,1,0,0:0:0:0:
64,192,106682,128,0,106760:0:0:0:0:
320,192,106682,128,0,106760:0:0:0:0:
448,192,106760,1,0,0:0:0:0:
192,192,106760,1,0,0:0:0:0:
192,192,107151,128,0,107229:0:0:0:0:
448,192,107151,128,0,107229:0:0:0:0:
64,192,107229,1,0,0:0:0:0:
320,192,107229,1,0,0:0:0:0:
448,192,107502,1,0,0:0:0:0:
320,192,107502,1,0,0:0:0:0:
64,192,107619,1,0,0:0:0:0:
192,192,107619,1,0,0:0:0:0:
448,192,107736,1,0,0:0:0:0:
320,192,107736,1,0,0:0:0:0:
64,192,107971,1,0,0:0:0:0:
192,192,107971,1,0,0:0:0:0:
448,192,108088,1,0,0:0:0:0:
320,192,108088,1,0,0:0:0:0:
64,192,108205,1,0,0:0:0:0:
192,192,108205,1,0,0:0:0:0:
192,192,108557,128,0,108635:0:0:0:0:
448,192,108557,128,0,108635:0:0:0:0:
320,192,108635,1,0,0:0:0:0:
64,192,108635,1,0,0:0:0:0:
64,192,109025,128,0,109103:0:0:0:0:
320,192,109025,128,0,109103:0:0:0:0:
192,192,109103,1,0,0:0:0:0:
448,192,109103,1,0,0:0:0:0:
320,192,109377,1,0,0:0:0:0:
192,192,109377,1,0,0:0:0:0:
448,192,109494,1,0,0:0:0:0:
64,192,109494,1,0,0:0:0:0:
320,192,109611,1,0,0:0:0:0:
192,192,109611,1,0,0:0:0:0:
448,192,109846,1,0,0:0:0:0:
64,192,109846,1,0,0:0:0:0:
320,192,109963,1,0,0:0:0:0:
192,192,109963,1,0,0:0:0:0:
448,192,110080,1,0,0:0:0:0:
64,192,110080,1,0,0:0:0:0:
448,192,110432,128,0,110510:0:0:0:0:
64,192,110432,128,0,110510:0:0:0:0:
320,192,110510,1,0,0:0:0:0:
192,192,110510,1,0,0:0:0:0:
192,192,110900,128,0,110978:0:0:0:0:
320,192,110900,128,0,110978:0:0:0:0:
448,192,110978,1,0,0:0:0:0:
64,192,110978,1,0,0:0:0:0:
64,192,111252,1,0,0:0:0:0:
448,192,111252,1,0,0:0:0:0:
192,192,111369,1,0,0:0:0:0:
320,192,111369,1,0,0:0:0:0:
64,192,111486,1,0,0:0:0:0:
448,192,111486,1,0,0:0:0:0:
192,192,111720,1,0,0:0:0:0:
320,192,111720,1,0,0:0:0:0:
64,192,111838,1,0,0:0:0:0:
448,192,111838,1,0,0:0:0:0:
192,192,111955,1,0,0:0:0:0:
320,192,111955,1,0,0:0:0:0:
192,192,112072,1,0,0:0:0:0:
448,192,112072,1,0,0:0:0:0:
320,192,112072,128,0,112541:0:0:0:0:
64,192,112072,128,0,112541:0:0:0:0:
192,192,112775,128,0,112892:0:0:0:0:
64,192,112892,128,0,114181:0:0:0:0:
448,192,113127,1,0,0:0:0:0:
448,192,113244,1,0,0:0:0:0:
448,192,113361,1,0,0:0:0:0:
192,192,113595,1,0,0:0:0:0:
192,192,113712,1,0,0:0:0:0:
192,192,113830,1,0,0:0:0:0:
192,192,114181,128,0,114259:0:0:0:0:
64,192,114259,1,0,0:0:0:0:
320,192,114650,128,0,114767:0:0:0:0:
448,192,114767,128,0,116056:0:0:0:0:
320,192,115001,1,0,0:0:0:0:
320,192,115119,1,0,0:0:0:0:
320,192,115236,1,0,0:0:0:0:
64,192,115470,1,0,0:0:0:0:
64,192,115587,1,0,0:0:0:0:
64,192,115705,1,0,0:0:0:0:
320,192,116056,128,0,116134:0:0:0:0:
192,192,116134,1,0,0:0:0:0:
192,192,116525,128,0,116642:0:0:0:0:
64,192,116642,128,0,117931:0:0:0:0:
448,192,116876,1,0,0:0:0:0:
448,192,116993,1,0,0:0:0:0:
448,192,117111,1,0,0:0:0:0:
192,192,117345,1,0,0:0:0:0:
192,192,117462,1,0,0:0:0:0:
192,192,117579,1,0,0:0:0:0:
192,192,117931,128,0,118165:0:0:0:0:
320,192,117931,128,0,118165:0:0:0:0:
64,192,118165,128,0,118400:0:0:0:0:
448,192,118165,128,0,118400:0:0:0:0:
192,192,118400,128,0,118634:0:0:0:0:
320,192,118400,128,0,118634:0:0:0:0:
64,192,118634,128,0,118868:0:0:0:0:
448,192,118634,128,0,118868:0:0:0:0:
192,192,118868,128,0,119571:0:0:0:0:
320,192,118868,128,0,119571:0:0:0:0:
64,192,119571,128,0,120040:0:0:0:0:
448,192,119571,128,0,120040:0:0:0:0:
192,192,120040,1,0,0:0:0:0:
320,192,120040,1,0,0:0:0:0:
64,192,120274,128,0,120392:0:0:0:0:
192,192,120392,1,0,0:0:0:0:
448,192,120626,1,0,0:0:0:0:
192,192,120626,1,0,0:0:0:0:
448,192,120743,1,0,0:0:0:0:
192,192,120743,1,0,0:0:0:0:
448,192,120860,1,0,0:0:0:0:
192,192,120860,1,0,0:0:0:0:
64,192,121095,1,0,0:0:0:0:
320,192,121095,1,0,0:0:0:0:
64,192,121212,1,0,0:0:0:0:
320,192,121212,1,0,0:0:0:0:
64,192,121329,1,0,0:0:0:0:
320,192,121329,1,0,0:0:0:0:
64,192,121681,1,0,0:0:0:0:
192,192,121710,1,0,0:0:0:0:
448,192,122149,128,0,122267:0:0:0:0:
320,192,122267,1,0,0:0:0:0:
64,192,122501,1,0,0:0:0:0:
320,192,122501,1,0,0:0:0:0:
448,192,122618,1,0,0:0:0:0:
192,192,122618,1,0,0:0:0:0:
64,192,122735,1,0,0:0:0:0:
320,192,122735,1,0,0:0:0:0:
448,192,122970,1,0,0:0:0:0:
192,192,122970,1,0,0:0:0:0:
64,192,123087,1,0,0:0:0:0:
320,192,123087,1,0,0:0:0:0:
448,192,123204,1,0,0:0:0:0:
192,192,123204,1,0,0:0:0:0:
448,192,123555,1,0,0:0:0:0:
320,192,123585,1,0,0:0:0:0:
64,192,124024,128,0,124141:0:0:0:0:
192,192,124141,1,0,0:0:0:0:
448,192,124376,1,0,0:0:0:0:
320,192,124376,1,0,0:0:0:0:
64,192,124493,1,0,0:0:0:0:
192,192,124493,1,0,0:0:0:0:
448,192,124610,1,0,0:0:0:0:
320,192,124610,1,0,0:0:0:0:
64,192,124844,1,0,0:0:0:0:
192,192,124844,1,0,0:0:0:0:
320,192,124962,1,0,0:0:0:0:
448,192,124962,1,0,0:0:0:0:
64,192,125079,1,0,0:0:0:0:
192,192,125079,1,0,0:0:0:0:
64,192,125430,1,0,0:0:0:0:
192,192,125460,1,0,0:0:0:0:
448,192,125899,128,0,126016:0:0:0:0:
320,192,126016,1,0,0:0:0:0:
64,192,126251,1,0,0:0:0:0:
192,192,126251,1,0,0:0:0:0:
64,192,126368,1,0,0:0:0:0:
192,192,126368,1,0,0:0:0:0:
64,192,126485,1,0,0:0:0:0:
192,192,126485,1,0,0:0:0:0:
448,192,126719,1,0,0:0:0:0:
320,192,126719,1,0,0:0:0:0:
448,192,126836,1,0,0:0:0:0:
320,192,126836,1,0,0:0:0:0:
448,192,126954,1,0,0:0:0:0:
320,192,126954,1,0,0:0:0:0:
448,192,127071,128,0,127540:0:0:0:0:
320,192,127540,1,0,0:0:0:0:
64,192,127774,128,0,127891:0:0:0:0:
192,192,127891,1,0,0:0:0:0:
64,192,128125,1,0,0:0:0:0:
192,192,128125,1,0,0:0:0:0:
320,192,128125,1,0,0:0:0:0:
64,192,128243,1,0,0:0:0:0:
192,192,128243,1,0,0:0:0:0:
448,192,128243,1,0,0:0:0:0:
448,192,128360,1,0,0:0:0:0:
320,192,128360,1,0,0:0:0:0:
64,192,128360,1,0,0:0:0:0:
192,192,128594,1,0,0:0:0:0:
64,192,128594,1,0,0:0:0:0:
448,192,128594,1,0,0:0:0:0:
192,192,128711,1,0,0:0:0:0:
320,192,128711,1,0,0:0:0:0:
448,192,128711,1,0,0:0:0:0:
64,192,128829,1,0,0:0:0:0:
192,192,128829,1,0,0:0:0:0:
448,192,128829,1,0,0:0:0:0:
448,192,129180,128,0,129414:0:0:0:0:
320,192,129414,1,0,0:0:0:0:
64,192,129649,128,0,129766:0:0:0:0:
192,192,129766,1,0,0:0:0:0:
320,192,130000,1,0,0:0:0:0:
448,192,130000,1,0,0:0:0:0:
192,192,130000,1,0,0:0:0:0:
192,192,130117,1,0,0:0:0:0:
320,192,130117,1,0,0:0:0:0:
64,192,130117,1,0,0:0:0:0:
192,192,130235,1,0,0:0:0:0:
320,192,130235,1,0,0:0:0:0:
448,192,130235,1,0,0:0:0:0:
64,192,130469,1,0,0:0:0:0:
192,192,130469,1,0,0:0:0:0:
320,192,130469,1,0,0:0:0:0:
192,192,130586,1,0,0:0:0:0:
320,192,130586,1,0,0:0:0:0:
448,192,130586,1,0,0:0:0:0:
320,192,130703,1,0,0:0:0:0:
192,192,130703,1,0,0:0:0:0:
64,192,130703,1,0,0:0:0:0:
64,192,131055,128,0,131289:0:0:0:0:
192,192,131289,1,0,0:0:0:0:
448,192,131524,128,0,131641:0:0:0:0:
320,192,131641,1,0,0:0:0:0:
64,192,131875,1,0,0:0:0:0:
192,192,131875,1,0,0:0:0:0:
320,192,131875,1,0,0:0:0:0:
64,192,131992,1,0,0:0:0:0:
320,192,131992,1,0,0:0:0:0:
192,192,131992,1,0,0:0:0:0:
64,192,132109,1,0,0:0:0:0:
192,192,132109,1,0,0:0:0:0:
320,192,132109,1,0,0:0:0:0:
192,192,132344,1,0,0:0:0:0:
320,192,132344,1,0,0:0:0:0:
448,192,132344,1,0,0:0:0:0:
192,192,132461,1,0,0:0:0:0:
448,192,132461,1,0,0:0:0:0:
320,192,132461,1,0,0:0:0:0:
192,192,132578,1,0,0:0:0:0:
320,192,132578,1,0,0:0:0:0:
448,192,132578,1,0,0:0:0:0:
64,192,132930,128,0,133164:0:0:0:0:
320,192,132930,128,0,133164:0:0:0:0:
192,192,133164,128,0,133398:0:0:0:0:
448,192,133164,128,0,133398:0:0:0:0:
320,192,133398,128,0,133633:0:0:0:0:
64,192,133398,128,0,133633:0:0:0:0:
192,192,133633,128,0,133867:0:0:0:0:
448,192,133633,128,0,133867:0:0:0:0:
64,192,133867,128,0,134570:0:0:0:0:
320,192,133867,128,0,134570:0:0:0:0:
192,192,134570,128,0,135039:0:0:0:0:
448,192,134570,128,0,135039:0:0:0:0:
64,192,135039,128,0,135508:0:0:0:0:
320,192,135039,128,0,135273:0:0:0:0:
448,192,135273,1,0,0:0:0:0:
320,192,135508,1,0,0:0:0:0:
448,192,135508,1,0,0:0:0:0:
64,192,135742,128,0,135859:0:0:0:0:
320,192,135976,1,0,0:0:0:0:
448,192,135976,1,0,0:0:0:0:
192,192,135976,128,0,136094:0:0:0:0:
64,192,136328,128,0,136445:0:0:0:0:
320,192,136445,1,0,0:0:0:0:
448,192,136445,1,0,0:0:0:0:
192,192,136679,128,0,136797:0:0:0:0:
64,192,136914,128,0,137031:0:0:0:0:
320,192,136914,1,0,0:0:0:0:
448,192,136914,1,0,0:0:0:0:
192,192,137031,128,0,137148:0:0:0:0:
64,192,137148,128,0,137265:0:0:0:0:
192,192,137383,128,0,137500:0:0:0:0:
320,192,137383,1,0,0:0:0:0:
448,192,137383,1,0,0:0:0:0:
64,192,137734,128,0,137851:0:0:0:0:
192,192,137851,128,0,137968:0:0:0:0:
320,192,137851,1,0,0:0:0:0:
448,192,137851,1,0,0:0:0:0:
64,192,138086,128,0,138203:0:0:0:0:
320,192,138320,1,0,0:0:0:0:
448,192,138320,1,0,0:0:0:0:
448,192,138554,128,0,138671:0:0:0:0:
320,192,138789,128,0,139257:0:0:0:0:
64,192,138789,1,0,0:0:0:0:
192,192,138789,1,0,0:0:0:0:
64,192,139257,1,0,0:0:0:0:
192,192,139257,1,0,0:0:0:0:
320,192,139492,128,0,139609:0:0:0:0:
64,192,139726,1,0,0:0:0:0:
192,192,139726,1,0,0:0:0:0:
448,192,139726,128,0,139843:0:0:0:0:
320,192,140078,128,0,140195:0:0:0:0:
64,192,140195,1,0,0:0:0:0:
192,192,140195,1,0,0:0:0:0:
448,192,140429,128,0,140546:0:0:0:0:
320,192,140664,128,0,140781:0:0:0:0:
64,192,140664,1,0,0:0:0:0:
192,192,140664,1,0,0:0:0:0:
448,192,140781,128,0,140898:0:0:0:0:
320,192,140898,128,0,141015:0:0:0:0:
448,192,141132,128,0,141249:0:0:0:0:
64,192,141132,1,0,0:0:0:0:
192,192,141132,1,0,0:0:0:0:
320,192,141484,128,0,141601:0:0:0:0:
448,192,141601,128,0,141718:0:0:0:0:
64,192,141601,1,0,0:0:0:0:
192,192,141601,1,0,0:0:0:0:
320,192,141835,128,0,141952:0:0:0:0:
64,192,142070,128,0,142538:0:0:0:0:
448,192,142070,128,0,142538:0:0:0:0:
192,192,142538,128,0,143007:0:0:0:0:
64,192,143007,1,0,0:0:0:0:
64,192,143241,128,0,143359:0:0:0:0:
320,192,143476,1,0,0:0:0:0:
448,192,143476,1,0,0:0:0:0:
192,192,143476,128,0,143593:0:0:0:0:
64,192,143827,128,0,143945:0:0:0:0:
320,192,143945,1,0,0:0:0:0:
448,192,143945,1,0,0:0:0:0:
192,192,144179,128,0,144296:0:0:0:0:
64,192,144413,128,0,144530:0:0:0:0:
320,192,144413,1,0,0:0:0:0:
448,192,144413,1,0,0:0:0:0:
192,192,144530,128,0,144648:0:0:0:0:
64,192,144648,128,0,144765:0:0:0:0:
192,192,144882,128,0,144999:0:0:0:0:
320,192,144882,1,0,0:0:0:0:
448,192,144882,1,0,0:0:0:0:
64,192,145233,128,0,145351:0:0:0:0:
192,192,145351,128,0,145468:0:0:0:0:
320,192,145351,1,0,0:0:0:0:
448,192,145351,1,0,0:0:0:0:
64,192,145585,128,0,145702:0:0:0:0:
320,192,145819,1,0,0:0:0:0:
448,192,145819,1,0,0:0:0:0:
448,192,146054,128,0,146171:0:0:0:0:
320,192,146288,128,0,146757:0:0:0:0:
64,192,146288,1,0,0:0:0:0:
192,192,146288,1,0,0:0:0:0:
64,192,146757,1,0,0:0:0:0:
192,192,146757,1,0,0:0:0:0:
320,192,146991,128,0,147108:0:0:0:0:
64,192,147226,1,0,0:0:0:0:
192,192,147226,1,0,0:0:0:0:
448,192,147226,128,0,147343:0:0:0:0:
320,192,147577,128,0,147694:0:0:0:0:
64,192,147694,1,0,0:0:0:0:
192,192,147694,1,0,0:0:0:0:
448,192,147929,128,0,148046:0:0:0:0:
320,192,148163,128,0,148280:0:0:0:0:
64,192,148163,1,0,0:0:0:0:
192,192,148163,1,0,0:0:0:0:
448,192,148280,128,0,148397:0:0:0:0:
320,192,148397,128,0,148514:0:0:0:0:
448,192,148632,128,0,148749:0:0:0:0:
64,192,148632,1,0,0:0:0:0:
192,192,148632,1,0,0:0:0:0:
320,192,148983,128,0,149100:0:0:0:0:
448,192,149100,128,0,149218:0:0:0:0:
64,192,149100,1,0,0:0:0:0:
192,192,149100,1,0,0:0:0:0:
320,192,149335,128,0,149452:0:0:0:0:
64,192,149569,128,0,153787:0:0:0:0:
192,192,149569,128,0,153787:0:0:0:0:
448,192,149569,128,0,153787:0:0:0:0:
320,192,149569,128,0,153787:0:0:0:0:
