osu file format v14

[General]
AudioFilename: audio.mp3
AudioLeadIn: 0
PreviewTime: 85581
Countdown: 0
SampleSet: None
StackLeniency: 0.9
Mode: 0
LetterboxInBreaks: 0
WidescreenStoryboard: 1

[Editor]
DistanceSpacing: 1.1
BeatDivisor: 4
GridSize: 16
TimelineZoom: 1.200001

[Metadata]
Title:Marigold (VIP Remix)
TitleUnicode:Marigold (VIP Remix)
Artist:M2U feat. Guriri
ArtistUnicode:M2U feat. Guriri
Creator:Esti
Version:Normal
Source:Deemo
Tags:Diversity NICODE Rayark electronic wub
BeatmapID:2049780
BeatmapSetID:979430

[Difficulty]
HPDrainRate:4
CircleSize:3
OverallDifficulty:4
ApproachRate:5
SliderMultiplier:1.2
SliderTickRate:1

[Events]
//Background and Video events
0,0,"__original_drawn_by_mocha_cotton__06d2dce506877efa23964757d3958494.png",0,0
//Break Periods
//Storyboard Layer 0 (Background)
//Storyboard Layer 1 (Fail)
//Storyboard Layer 2 (Pass)
//Storyboard Layer 3 (Foreground)
//Storyboard Sound Samples

[TimingPoints]
269,375,4,2,0,20,1,0
644,-166.666666666667,4,2,0,25,0,0
15644,-133.333333333333,4,2,0,45,0,0
26144,-125,4,2,1,35,0,0
30644,-125,4,2,0,35,0,0
31956,-166.666666666667,4,2,0,30,0,0
33644,-125,4,2,0,25,0,0
42644,-125,4,2,0,35,0,0
43019,-125,4,2,0,35,0,0
44331,-125,4,2,0,30,0,0
45081,-125,4,2,0,25,0,0
52019,-125,4,2,0,30,0,0
52394,-125,4,2,0,35,0,0
52769,-125,4,2,0,40,0,0
53144,-125,4,2,0,35,0,0
53894,-125,4,2,0,45,0,0
55019,-125,4,2,0,40,0,0
56144,-111.111111111111,4,2,0,40,0,0
65144,-111.111111111111,4,2,0,35,0,0
68144,-142.857142857143,4,2,0,30,0,0
71144,-111.111111111111,4,2,0,40,0,0
74144,-100,4,2,0,45,0,0
84081,-100,4,2,0,45,0,0
84644,-100,4,2,0,25,0,0
85206,-200,4,2,0,45,0,0
86144,-100,4,3,0,65,0,1
95144,-125,4,2,0,50,0,0
95894,-100,4,2,0,45,0,0
96269,-100,4,2,0,35,0,1
96456,-100,4,2,0,45,0,1
96831,-100,4,2,0,55,0,1
97394,-100,4,3,0,65,0,1
108456,-100,4,3,0,35,0,1
108644,-111.111111111111,4,2,0,35,0,0
109394,-142.857142857143,4,2,0,20,0,0
110144,-142.857142857143,4,2,0,25,0,0
119144,-142.857142857143,4,2,0,30,0,0
119519,-142.857142857143,4,2,0,35,0,0
119894,-142.857142857143,4,2,0,40,0,0
121019,-142.857142857143,4,2,0,30,0,0
122144,-111.111111111111,4,2,0,35,0,0
128144,-125,4,2,0,30,0,0
133394,-125,4,2,0,25,0,0
134144,-142.857142857143,4,2,0,20,0,0
136956,-166.666666666667,4,2,0,15,0,0

[Colours]
Combo1 : 255,128,0
Combo2 : 128,128,255
Combo3 : 223,223,0
Combo4 : 255,128,192

[HitObjects]
102,111,644,6,0,P|142:92|182:90,1,71.9999978027344,2|0,0:0|0:0,0:0:0:0:
238,133,1394,2,0,P|286:146|317:141,1,71.9999978027344,2|0,0:0|0:0,0:0:0:0:
388,127,2144,2,0,L|381:212,1,71.9999978027344,2|0,0:0|0:0,0:0:0:0:
329,262,2894,2,0,P|387:283|407:280,1,71.9999978027344,2|0,0:0|0:0,0:0:0:0:
446,217,3644,6,0,P|388:196|369:199,1,71.9999978027344,2|0,0:0|0:0,0:0:0:0:
297,203,4394,2,0,P|232:204|215:197,1,71.9999978027344,2|0,0:0|0:0,0:0:0:0:
179,134,5144,2,0,P|206:85|207:59,1,71.9999978027344,2|0,0:0|0:0,0:0:0:0:
122,72,5894,2,0,P|95:121|95:145,1,71.9999978027344,2|0,0:0|0:0,0:0:0:0:
135,207,6644,5,2,0:0:0:0:
78,269,7019,2,0,L|-2:275,2,71.9999978027344,0|2|2,0:0|0:0|0:0,0:0:0:0:
147,316,8144,2,0,L|232:310,1,71.9999978027344,2|0,0:0|0:0,0:0:0:0:
305,308,8894,1,2,0:0:0:0:
391,305,9269,1,0,0:0:0:0:
348,229,9644,6,0,P|336:189|340:150,1,71.9999978027344,2|0,0:0|0:0,0:0:0:0:
411,125,10206,1,0,0:0:0:0:
411,125,10394,2,0,L|494:113,1,71.9999978027344,2|0,0:0|0:0,0:0:0:0:
429,39,10956,1,0,0:0:0:0:
429,39,11144,2,0,L|314:57,1,107.999996704102,2|0,0:0|0:0,0:0:0:0:
279,63,11894,1,2,0:0:0:0:
193,77,12269,6,0,L|145:85,2,35.9999989013672,2|0|2,0:0|0:0|0:0,0:0:0:0:
227,163,13019,2,0,L|278:154,2,35.9999989013672,0|0|2,0:0|0:0|0:0,0:0:0:0:
177,231,13769,1,0,0:0:0:0:
241,285,14144,2,0,L|328:271,1,71.9999978027344,2|0,0:0|0:0,0:0:0:0:
372,329,14706,1,0,0:0:0:0:
372,329,14894,2,0,L|459:317,1,71.9999978027344,2|0,0:0|0:0,0:0:0:0:
407,217,15644,6,0,P|402:152|266:107,1,225.000008583069,4|2,0:0|0:0,0:0:0:0:
176,100,16769,1,2,0:0:0:0:
138,189,17144,2,0,L|242:195,1,90.0000034332277,8|2,3:0|0:0,0:0:0:0:
303,282,17894,2,0,L|204:276,1,90.0000034332277,4|0,3:0|3:0,0:0:0:0:
101,313,18644,6,0,P|98:238|113:212,1,90.0000034332277,8|0,3:0|0:0,0:0:0:0:
163,135,19394,1,4,3:0:0:0:
163,135,19769,1,2,0:0:0:0:
128,31,20144,2,0,B|188:36|188:36|238:71|238:71|308:73,1,180.000006866455,8|4,3:0|3:0,0:0:0:0:
385,33,21269,1,0,0:0:0:0:
412,123,21644,2,0,P|450:174|480:183,1,90.0000034332277,8|2,3:0|0:0,0:0:0:0:
389,233,22394,6,0,L|282:234,1,90.0000034332277,10|12,0:0|0:0,0:0:0:0:
226,316,23144,2,0,L|329:313,1,90.0000034332277,8|2,3:0|0:0,0:0:0:0:
413,371,23894,2,0,P|434:319|425:270,1,90.0000034332277,6|2,3:0|0:0,0:0:0:0:
361,203,24644,2,0,P|347:136|365:102,1,90.0000034332277,4|2,3:0|0:0,0:0:0:0:
448,50,25394,5,10,0:0:0:0:
432,150,25769,1,10,0:0:0:0:
417,261,26144,2,0,L|402:378,2,96,6|2|2,3:0|0:0|0:0,0:0:0:0:
430,149,27269,1,2,0:0:0:0:
321,175,27644,2,0,P|269:135|227:138,1,96,4|2,3:0|2:0,0:0:0:0:
141,193,28394,2,0,P|124:122|137:80,1,96,2|6,0:0|3:0,0:0:0:0:
229,56,29144,6,0,P|370:92|320:175,1,288,2|2,0:0|2:0,0:0:0:0:
211,236,30644,6,0,P|324:271|437:197,1,240,4|2,0:0|0:0,0:0:0:0:
371,117,31956,6,0,P|299:188|262:80,1,251.999992309571,2|0,0:0|0:0,0:0:0:0:
152,91,33644,6,0,L|47:113,1,96,2|2,0:0|0:0,0:0:0:0:
93,220,34394,1,2,0:0:0:0:
121,331,34769,1,2,0:0:0:0:
229,333,35144,2,0,P|257:279|299:257,1,96,2|2,0:0|0:0,0:0:0:0:
400,248,35894,2,0,P|454:276|476:321,1,96,2|2,0:0|0:0,0:0:0:0:
369,359,36644,6,0,L|263:337,1,96,2|2,0:0|0:0,0:0:0:0:
163,310,37394,1,2,0:0:0:0:
51,280,37769,1,2,0:0:0:0:
118,198,38144,2,0,P|73:90|133:43,1,192,2|2,0:0|0:0,0:0:0:0:
223,89,39269,1,2,0:0:0:0:
330,47,39644,6,0,P|342:102|320:148,1,96,2|2,0:0|0:0,0:0:0:0:
250,223,40394,1,2,0:0:0:0:
339,295,40769,1,2,0:0:0:0:
432,237,41144,2,0,L|421:127,1,96,2|2,0:0|0:0,0:0:0:0:
328,62,41894,2,0,L|340:167,1,96,2|2,0:0|0:0,0:0:0:0:
232,139,42644,2,0,L|245:247,1,96,6|2,0:0|0:0,0:0:0:0:
321,319,43394,6,0,P|256:352|219:347,1,96,14|2,0:0|0:0,0:0:0:0:
161,262,44144,2,0,P|73:256|111:330,1,192,10|10,0:0|0:0,0:0:0:0:
210,338,45269,1,2,0:0:0:0:
313,302,45644,2,0,P|376:292|416:301,1,96,10|0,0:0|0:0,0:0:0:0:
419,201,46394,2,0,P|356:211|311:201,1,96,10|0,0:0|0:0,0:0:0:0:
278,105,47144,6,0,P|212:165|317:304,1,288,10|0,0:0|0:0,0:0:0:0:
412,324,48644,2,0,P|351:207|290:210,1,192,10|10,0:0|0:0,0:0:0:0:
226,269,49769,1,2,0:0:0:0:
140,215,50144,2,0,L|155:103,1,96,10|0,0:0|0:0,0:0:0:0:
252,73,50894,2,0,L|237:182,1,96,8|2,0:0|0:0,0:0:0:0:
225,284,51644,6,0,P|305:273|331:290,1,96,10|10,0:0|0:0,0:0:0:0:
396,362,52394,2,0,P|429:303|421:258,1,96,10|10,0:0|0:0,0:0:0:0:
359,184,53144,2,0,P|354:116|377:78,2,96,10|10|10,0:0|0:0|0:0,0:0:0:0:
451,144,54269,1,10,0:0:0:0:
451,144,54644,2,0,L|248:120,1,192,14|10,0:0|0:0,0:0:0:0:
142,138,55769,5,0,0:0:0:0:
142,138,56144,2,0,P|83:189|120:272,1,161.999995056153,4|2,3:0|0:0,0:0:0:0:
157,290,56894,2,0,L|338:273,1,161.999995056153,10|2,0:0|0:0,0:0:0:0:
377,269,57644,1,4,3:0:0:0:
353,120,58206,1,0,0:0:0:0:
353,120,58394,2,0,P|397:184|489:167,1,161.999995056153,8|0,0:0|0:0,0:0:0:0:
512,115,59144,6,0,P|468:51|375:74,1,161.999995056153,0|0,0:0|0:0,0:0:0:0:
361,109,59894,2,0,P|261:117|225:63,1,161.999995056153,8|0,0:0|0:0,0:0:0:0:
174,49,60644,2,0,P|113:29|50:114,1,161.999995056153,0|0,0:0|0:0,0:0:0:0:
66,149,61394,2,0,L|91:270,1,107.999996704102,8|8,0:0|0:0,0:0:0:0:
192,239,62144,6,0,P|271:199|339:251,1,161.999995056153,0|0,0:0|0:0,0:0:0:0:
376,291,62894,2,0,L|366:127,1,161.999995056153,8|0,0:0|0:0,0:0:0:0:
395,60,63644,2,0,P|299:98|251:50,1,161.999995056153,0|0,0:0|0:0,0:0:0:0:
208,38,64394,1,8,0:0:0:0:
73,205,65144,6,0,P|142:167|242:188,1,161.999995056153,0|0,0:0|0:0,0:0:0:0:
276,200,65894,2,0,P|347:211|431:148,1,161.999995056153,8|0,0:0|0:0,0:0:0:0:
389,114,66644,2,0,L|414:292,1,161.999995056153,0|0,0:0|0:0,0:0:0:0:
378,324,67394,2,0,L|354:151,1,161.999995056153,8|0,0:0|0:0,0:0:0:0:
319,134,68144,6,0,P|228:85|197:94,1,125.999996154785,2|2,0:0|0:0,0:0:0:0:
181,123,68894,2,0,P|103:121|75:70,1,125.999996154785,2|2,0:0|0:0,0:0:0:0:
41,58,69644,2,0,L|49:192,1,125.999996154785,2|2,0:0|0:0,0:0:0:0:
86,210,70394,2,0,L|96:349,1,125.999996154785,2|2,0:0|0:0,0:0:0:0:
143,301,71144,6,0,P|234:283|307:318,1,161.999995056153,4|2,3:0|0:0,0:0:0:0:
324,360,71894,2,0,B|319:308|319:308|333:254|333:254|326:179,1,161.999995056153,8|2,3:0|0:0,0:0:0:0:
355,147,72644,2,0,P|260:187|182:98,1,215.999993408203,4|12,3:0|3:0,0:0:0:0:
281,87,73769,1,8,0:0:0:0:
281,87,74144,6,0,L|271:166,3,60,12|2|8|2,3:0|0:0|0:0|0:0,0:0:0:0:
226,188,74894,2,0,L|216:269,3,60,8|2|8|2,0:0|0:0|0:0|0:0,0:0:0:0:
263,288,75644,2,0,L|331:280,1,60,8|2,0:0|0:0,0:0:0:0:
375,316,76019,2,0,L|450:310,1,60,8|2,0:0|0:0,0:0:0:0:
488,275,76394,6,0,L|467:200,3,60,8|2|8|2,0:0|0:0|0:0|0:0,0:0:0:0:
419,181,77144,2,0,L|396:100,1,60,8|2,0:0|0:0,0:0:0:0:
342,107,77519,2,0,L|318:23,1,60,8|2,0:0|0:0,0:0:0:0:
273,69,77894,6,0,L|86:102,1,180,8|2,0:0|0:0,0:0:0:0:
55,144,78644,2,0,L|70:214,1,60,8|8,0:0|0:0,0:0:0:0:
106,233,79019,2,0,L|124:305,1,60,8|8,0:0|0:0,0:0:0:0:
162,340,79394,2,0,L|90:359,2,60,8|2|10,0:0|0:0|0:0,0:0:0:0:
215,323,79956,1,2,0:0:0:0:
268,306,80144,6,0,L|345:284,1,60,8|2,0:0|0:0,0:0:0:0:
325,229,80519,2,0,L|400:207,1,60,8|2,0:0|0:0,0:0:0:0:
447,210,80894,2,0,L|427:288,2,60,8|2|8,0:0|0:0|0:0,0:0:0:0:
463,156,81456,1,2,0:0:0:0:
425,114,81644,6,0,P|386:126|360:120,1,60,8|2,0:0|0:0,0:0:0:0:
326,73,82019,2,0,P|279:73|257:85,1,60,8|2,0:0|0:0,0:0:0:0:
241,137,82394,2,0,L|266:200,2,60,8|2|8,0:0|0:0|0:0,0:0:0:0:
188,117,82956,1,2,0:0:0:0:
132,110,83144,6,0,P|65:133|81:248,1,180,8|2,0:0|0:0,0:0:0:0:
118,247,83894,2,0,B|204:230|204:230|313:257,1,180,8|2,0:0|0:0,0:0:0:0:
342,286,84644,2,0,P|393:193|477:206,1,180,12|8,0:0|0:0,0:0:0:0:
474,240,85394,2,0,L|461:309,1,60,12|8,0:0|0:0,0:0:0:0:
342,286,86144,6,0,P|278:253|210:271,1,120,4|8,0:0|2:0,0:0:0:0:
158,324,86706,1,8,2:0:0:0:
158,324,86894,2,0,L|139:179,1,120,8|2,0:0|0:0,0:0:0:0:
60,168,87456,2,0,P|139:115|180:123,1,120,8|2,0:0|1:1,0:0:0:0:
235,155,88019,1,2,0:1:0:0:
235,155,88206,2,0,L|260:81,2,60,0|8|2,0:1|0:0|0:0,0:0:0:0:
312,201,88769,6,0,L|285:276,1,60,12|8,0:0|0:0,0:0:0:0:
339,346,89144,2,0,P|250:351|214:325,1,120,12|10,0:0|0:1,0:0:0:0:
124,291,89706,1,2,0:1:0:0:
124,291,89894,2,0,P|194:230|236:232,1,120,10|10,0:1|0:0,0:0:0:0:
313,175,90456,2,0,B|290:124|290:124|311:40,1,120,2|2,0:1|0:1,0:0:0:0:
395,58,91019,2,0,L|378:139,1,60,10|2,0:1|0:0,0:0:0:0:
430,193,91394,6,0,P|380:205|313:174,1,120,8|8,0:0|0:0,0:0:0:0:
163,87,92144,2,0,L|181:222,1,120,12|8,0:0|0:0,0:0:0:0:
235,275,92706,1,2,0:0:0:0:
272,192,92894,2,0,L|351:177,2,60,8|10|8,0:0|0:0|0:0,0:0:0:0:
178,205,93456,2,0,L|102:217,2,60,10|8|10,0:0|0:0|0:0,0:0:0:0:
146,120,94019,6,0,P|170:47|229:40,1,120,8|10,0:0|0:0,0:0:0:0:
410,69,94769,2,0,L|334:74,1,60,8|2,0:0|0:0,0:0:0:0:
276,165,95144,2,0,L|386:156,1,96,12|2,3:3|0:0,0:0:0:0:
474,154,95706,1,2,0:0:0:0:
474,154,95894,2,0,L|457:282,1,120,10|8,0:0|0:0,0:0:0:0:
373,334,96456,6,0,P|333:318|293:323,1,60,12|8,0:0|0:0,0:0:0:0:
211,347,96831,2,0,P|153:353|135:344,2,60,8|8|8,0:0|0:0|0:3,0:0:0:0:
175,261,97394,2,0,P|167:181|209:161,1,120,12|8,0:0|0:0,0:0:0:0:
357,93,98144,2,0,L|216:96,1,120,12|10,0:0|0:0,0:0:0:0:
150,98,98706,1,8,0:0:0:0:
55,100,98894,2,0,L|-15:103,2,60,10|6|10,0:0|0:0|0:0,0:0:0:0:
150,98,99456,6,0,L|165:166,1,60,2|8,0:0|0:0,0:0:0:0:
118,227,99831,2,0,L|133:295,1,60,2|10,0:0|0:0,0:0:0:0:
204,326,100206,1,2,0:0:0:0:
204,326,100394,2,0,P|284:294|329:303,1,120,8|8,0:0|0:0,0:0:0:0:
473,240,101144,2,0,P|413:206|339:203,1,120,12|8,0:0|0:0,0:0:0:0:
280,215,101706,5,0,0:0:0:0:
204,176,101894,2,0,L|214:92,1,60,8|2,0:0|0:0,0:0:0:0:
128,98,102269,1,8,0:0:0:0:
128,98,102456,2,0,L|139:12,1,60,2|2,0:0|0:3,0:0:0:0:
52,50,102831,2,0,L|35:179,1,120,2|2,0:1|0:1,0:0:0:0:
105,216,103394,6,0,P|146:291|196:305,1,120,12|12,0:0|0:0,0:0:0:0:
318,215,104144,2,0,P|248:192|204:207,1,120,8|10,0:0|0:1,0:0:0:0:
256,276,104706,1,2,0:0:0:0:
256,276,104894,2,0,L|250:358,1,60,8|2,0:0|0:1,0:0:0:0:
173,304,105269,1,10,0:1:0:0:
173,304,105457,2,0,L|167:386,1,60,4|2,0:1|0:1,0:0:0:0:
89,335,105831,6,0,P|47:338|19:330,1,60,10|12,0:1|0:0,0:0:0:0:
63,256,106206,1,0,0:0:0:0:
63,256,106394,2,0,P|38:173|60:126,1,120,8|8,0:0|0:0,0:0:0:0:
211,105,107144,2,0,P|177:172|125:193,1,120,4|8,0:0|0:0,0:0:0:0:
121,101,107706,1,10,0:0:0:0:
121,101,107894,2,0,L|113:23,2,60,8|2|8,0:0|0:0|0:0,0:0:0:0:
37,98,108456,6,0,B|30:135|66:164|66:164|3:179|-4:255,1,180,12|8,0:0|0:0,0:0:0:0:
82,248,109206,1,0,0:0:0:0:
82,248,109394,2,0,P|124:241|175:250,1,83.9999974365235,8|2,0:0|0:0,0:0:0:0:
256,320,110144,6,0,P|277:256|234:158,1,167.999994873047,8|8,0:0|0:0,0:0:0:0:
157,161,111081,2,0,L|107:165,2,41.9999987182618,2|0|2,0:0|0:0|0:0,0:0:0:0:
159,76,111644,2,0,L|290:68,1,125.999996154785,12|8,0:0|0:0,0:0:0:0:
326,67,112394,1,8,0:0:0:0:
431,118,112769,1,8,0:0:0:0:
342,195,113144,6,0,P|429:231|441:304,1,167.999994873047,8|8,0:0|0:0,0:0:0:0:
387,361,114269,1,2,0:0:0:0:
357,280,114644,2,0,B|305:279|305:279|252:302|252:302|176:297,1,167.999994873047,8|8,0:0|0:0,0:0:0:0:
111,356,115769,1,2,0:0:0:0:
85,258,116144,2,0,P|137:224|152:190,1,83.9999974365235,8|0,0:0|0:0,0:0:0:0:
58,158,116894,1,8,0:0:0:0:
58,158,117081,6,0,L|7:158,2,41.9999987182618,2|2|0,0:0|0:0|0:0,0:0:0:0:
58,158,117644,2,0,P|103:117|137:110,1,83.9999974365235,8|8,0:0|0:0,0:0:0:0:
224,123,118394,2,0,P|278:136|317:121,1,83.9999974365235,8|8,0:0|0:0,0:0:0:0:
393,81,119144,2,0,L|384:176,2,83.9999974365235,8|8|8,0:0|0:0|0:0,0:0:0:0:
306,28,120269,1,8,0:0:0:0:
217,75,120644,2,0,P|157:60|129:74,1,83.9999974365235,12|8,0:0|0:0,0:0:0:0:
168,163,121394,6,0,P|191:225|297:221,1,167.999994873047,10|8,0:0|0:3,0:0:0:0:
401,79,122706,1,2,0:0:0:0:
401,79,122894,2,0,L|387:257,1,161.999995056153,8|2,0:0|0:0,0:0:0:0:
410,289,123644,2,0,P|340:263|258:299,1,161.999995056153,8|2,0:3|0:0,0:0:0:0:
218,326,124394,2,0,P|145:357|70:331,1,161.999995056153,8|2,0:0|0:0,0:0:0:0:
40,286,125144,2,0,L|53:175,1,107.999996704102,8|0,0:3|0:0,0:0:0:0:
149,131,125894,6,0,L|136:242,1,107.999996704102,8|2,0:0|0:0,0:0:0:0:
161,285,126456,1,2,0:0:0:0:
161,285,126644,2,0,P|221:269|271:283,1,107.999996704102,8|2,0:3|0:0,0:0:0:0:
366,313,127394,2,0,P|424:323|477:307,1,107.999996704102,8|8,0:0|0:0,0:0:0:0:
419,228,128144,6,0,P|362:186|358:147,1,96,8|2,0:3|0:0,0:0:0:0:
378,122,128706,1,2,0:0:0:0:
378,122,128894,2,0,B|332:107|332:107|273:118,1,96,8|2,0:0|0:0,0:0:0:0:
263,158,129456,1,2,0:0:0:0:
263,158,129644,2,0,B|206:172|206:172|119:152,1,144,8|2,0:3|0:0,0:0:0:0:
87,120,130394,2,0,L|78:233,1,96,8|2,0:0|0:0,0:0:0:0:
53,308,131144,6,0,P|131:298|157:317,1,96,8|2,0:3|0:0,0:0:0:0:
181,333,131706,1,2,0:0:0:0:
181,333,131894,2,0,P|243:347|285:333,1,96,8|2,0:0|0:0,0:0:0:0:
311,309,132456,1,2,0:0:0:0:
311,309,132644,2,0,P|381:294|453:320,1,144,10|2,0:0|0:0,0:0:0:0:
482,357,133394,2,0,L|481:252,1,96,2|2,0:0|0:0,0:0:0:0:
389,244,134144,6,0,L|387:155,1,83.9999974365235,2|0,0:0|0:0,0:0:0:0:
344,141,134706,1,2,0:0:0:0:
344,141,134894,2,0,L|342:44,1,83.9999974365235,2|0,0:0|0:0,0:0:0:0:
301,35,135456,1,2,0:0:0:0:
301,35,135644,2,0,P|233:78|187:56,1,125.999996154785,2|2,0:0|0:0,0:0:0:0:
157,38,136394,2,0,L|151:135,1,83.9999974365235,2|0,0:0|0:0,0:0:0:0:
118,143,136956,5,2,0:0:0:0:
118,143,137144,2,0,P|136:189|131:217,1,71.9999978027344,2|0,0:0|0:0,0:0:0:0:
106,239,137706,1,2,0:0:0:0:
106,239,137894,2,0,P|95:278|104:311,1,71.9999978027344,2|0,0:0|0:0,0:0:0:0:
137,325,138456,1,2,0:0:0:0:
137,325,138644,2,0,L|221:317,1,71.9999978027344,2|0,0:0|0:0,0:0:0:0:
248,315,139206,1,2,0:0:0:0:
256,192,139394,12,2,142019,0:0:0:0:
