osu file format v14

[General]
AudioFilename: audio.mp3
AudioLeadIn: 0
PreviewTime: 85581
Countdown: 0
SampleSet: None
StackLeniency: 0.9
Mode: 0
LetterboxInBreaks: 0
WidescreenStoryboard: 1

[Editor]
DistanceSpacing: 0.7
BeatDivisor: 4
GridSize: 16
TimelineZoom: 1.200001

[Metadata]
Title:Marigold (VIP Remix)
TitleUnicode:Marigold (VIP Remix)
Artist:M2U feat. Guriri
ArtistUnicode:M2U feat. Guriri
Creator:Esti
Version:Insane
Source:Deemo
Tags:Diversity NICODE Rayark electronic wub
BeatmapID:2049779
BeatmapSetID:979430

[Difficulty]
HPDrainRate:6
CircleSize:4
OverallDifficulty:7
ApproachRate:9
SliderMultiplier:2
SliderTickRate:1

[Events]
//Background and Video events
0,0,"__original_drawn_by_mocha_cotton__06d2dce506877efa23964757d3958494.png",0,0
//Break Periods
//Storyboard Layer 0 (Background)
//Storyboard Layer 1 (Fail)
//Storyboard Layer 2 (Pass)
//Storyboard Layer 3 (Foreground)
//Storyboard Sound Samples

[TimingPoints]
269,375,4,2,0,20,1,0
644,-200,4,2,0,25,0,0
15644,-133.333333333333,4,2,0,45,0,0
26144,-100,4,2,1,35,0,0
30644,-125,4,2,0,35,0,0
31956,-166.666666666667,4,2,0,30,0,0
33644,-125,4,2,0,25,0,0
42644,-125,4,2,0,35,0,0
43019,-125,4,2,0,35,0,0
44331,-125,4,2,0,30,0,0
45081,-125,4,2,0,25,0,0
52019,-125,4,2,0,30,0,0
52394,-125,4,2,0,35,0,0
52769,-125,4,2,0,40,0,0
53144,-125,4,2,0,35,0,0
53894,-125,4,2,0,45,0,0
55019,-125,4,2,0,40,0,0
56144,-111.111111111111,4,2,0,40,0,0
65144,-111.111111111111,4,2,0,35,0,0
68144,-142.857142857143,4,2,0,30,0,0
71144,-111.111111111111,4,2,0,40,0,0
74144,-100,4,2,0,45,0,0
84081,-66.6666666666667,4,2,0,45,0,0
84644,-200,4,2,0,25,0,0
85206,-200,4,2,0,45,0,0
86144,-76.9230769230769,4,3,0,65,0,1
86519,-62.5,4,3,0,65,0,1
86894,-83.3333333333333,4,3,0,65,0,1
87269,-62.5,4,3,0,65,0,1
87456,-71.4285714285714,4,3,0,65,0,1
87831,-55.5555555555556,4,3,0,65,0,1
88769,-71.4285714285714,4,3,0,65,0,1
89144,-76.9230769230769,4,3,0,65,0,1
89331,-55.5555555555556,4,3,0,65,0,1
91394,-71.4285714285714,4,3,0,65,0,1
92144,-83.3333333333333,4,3,0,65,0,1
92519,-71.4285714285714,4,3,0,65,0,1
92894,-62.5,4,3,0,65,0,1
93081,-76.9230769230769,4,3,0,65,0,1
94019,-76.9230769230769,4,3,0,65,0,1
94394,-62.5,4,3,0,65,0,1
94769,-71.4285714285714,4,3,0,65,0,1
94956,-62.5,4,3,0,65,0,1
95144,-125,4,2,0,50,0,0
95894,-83.3333333333333,4,2,0,45,0,0
96269,-55.5555555555556,4,2,0,35,0,1
96456,-76.9230769230769,4,2,0,45,0,1
96831,-66.6666666666667,4,2,0,55,0,1
97394,-76.9230769230769,4,3,0,65,0,1
98144,-76.9230769230769,4,3,0,65,0,1
98519,-62.5,4,3,0,65,0,1
98894,-71.4285714285714,4,3,0,65,0,1
99456,-76.9230769230769,4,3,0,65,0,1
99831,-62.5,4,3,0,65,0,1
100206,-55.5555555555556,4,3,0,65,0,1
100769,-66.6666666666667,4,3,0,65,0,1
101144,-83.3333333333333,4,3,0,65,0,1
101519,-71.4285714285714,4,3,0,65,0,1
102644,-55.5555555555556,4,3,0,65,0,1
103394,-71.4285714285714,4,3,0,65,0,1
104144,-66.6666666666667,4,3,0,65,0,1
104519,-55.5555555555556,4,3,0,65,0,1
106394,-66.6666666666667,4,3,0,65,0,1
107144,-83.3333333333333,4,3,0,65,0,1
107519,-71.4285714285714,4,3,0,65,0,1
107894,-62.5,4,3,0,65,0,1
108269,-71.4285714285714,4,3,0,65,0,1
108456,-71.4285714285714,4,3,0,35,0,1
108644,-111.111111111111,4,2,0,35,0,0
109394,-142.857142857143,4,2,0,20,0,0
110144,-142.857142857143,4,2,0,25,0,0
119144,-142.857142857143,4,2,0,30,0,0
119519,-142.857142857143,4,2,0,35,0,0
119894,-142.857142857143,4,2,0,40,0,0
121019,-142.857142857143,4,2,0,30,0,0
122144,-111.111111111111,4,2,0,35,0,0
128144,-125,4,2,0,30,0,0
133394,-125,4,2,0,25,0,0
134144,-166.666666666667,4,2,0,20,0,0
136956,-250,4,2,0,15,0,0

[Colours]
Combo1 : 255,128,0
Combo2 : 128,128,255
Combo3 : 223,223,0
Combo4 : 255,128,192

[HitObjects]
122,117,644,6,0,P|177:117|217:161,1,100,2|0,0:0|0:0,0:0:0:0:
377,90,1394,2,0,P|322:90|282:46,1,100,2|0,0:0|0:0,0:0:0:0:
209,146,2144,1,2,0:0:0:0:
276,244,2519,1,0,0:0:0:0:
178,322,2894,2,0,L|59:305,1,100,2|0,0:0|0:0,0:0:0:0:
201,196,3644,6,0,L|301:174,1,100,2|0,0:0|0:0,0:0:0:0:
417,276,4394,2,0,L|317:298,1,100,2|0,0:0|0:0,0:0:0:0:
200,192,5144,2,0,P|238:247|235:290,1,100,2|0,0:0|0:0,0:0:0:0:
149,362,5894,1,2,0:0:0:0:
62,291,6269,1,0,0:0:0:0:
161,260,6644,1,2,0:0:0:0:
233,177,7019,5,0,0:0:0:0:
199,72,7394,1,2,0:0:0:0:
88,67,7675,1,0,0:0:0:0:
88,67,7769,1,2,0:0:0:0:
134,176,8144,2,0,P|199:170|251:183,1,100,2|0,0:0|0:0,0:0:0:0:
348,204,8894,2,0,P|413:210|465:197,1,100,2|0,0:0|0:0,0:0:0:0:
512,75,9644,6,0,P|447:69|395:82,1,100,2|0,0:0|0:0,0:0:0:0:
340,133,10206,1,0,0:0:0:0:
242,115,10394,2,0,L|252:224,1,100,2|0,0:0|0:0,0:0:0:0:
332,276,10956,1,0,0:0:0:0:
255,346,11144,2,0,P|174:335|137:342,1,100,2|0,0:0|0:0,0:0:0:0:
72,283,11706,1,0,0:0:0:0:
152,223,11894,2,0,P|233:212|270:219,1,100,2|2,0:0|0:0,0:0:0:0:
345,264,12456,5,0,0:0:0:0:
345,264,12644,2,0,L|326:145,1,100,2|0,0:0|0:0,0:0:0:0:
234,115,13206,1,0,0:0:0:0:
234,115,13394,2,0,L|253:234,1,100,2|0,0:0|0:0,0:0:0:0:
180,313,13956,1,0,0:0:0:0:
180,313,14050,1,0,0:0:0:0:
180,313,14144,2,0,L|161:194,1,100,2|0,0:0|0:0,0:0:0:0:
198,126,14706,5,0,0:0:0:0:
198,126,14894,2,0,L|138:122,1,50,2|0,0:0|0:0,0:0:0:0:
64,117,15269,1,0,0:0:0:0:
131,239,15456,5,2,0:0:0:0:
131,239,15550,1,0,0:0:0:0:
131,239,15644,2,0,P|117:285|116:333,1,75.0000028610231,4|0,0:0|0:0,0:0:0:0:
264,284,16019,1,2,0:0:0:0:
294,279,16112,1,2,0:0:0:0:
327,273,16206,1,2,0:0:0:0:
358,268,16300,1,2,0:0:0:0:
391,262,16394,2,0,L|447:250,3,37.5000014305115,2|0|2|0,0:0|0:0|0:0|0:0,0:0:0:0:
486,127,16769,6,0,L|405:145,1,75.0000028610231,2|0,0:0|0:0,0:0:0:0:
254,72,17144,2,0,L|407:38,1,150.000005722046,8|2,3:0|0:0,0:0:0:0:
340,332,17894,2,0,L|328:250,1,75.0000028610231,4|2,3:0|0:0,0:0:0:0:
321,179,18175,1,2,0:0:0:0:
321,179,18269,2,0,P|369:174|405:156,1,75.0000028610231,0|2,3:0|0:0,0:0:0:0:
207,114,18644,6,0,P|159:119|123:137,1,75.0000028610231,8|2,3:0|0:0,0:0:0:0:
59,164,18925,1,2,0:0:0:0:
59,164,19019,2,0,L|36:74,1,75.0000028610231,0|2,0:0|0:0,0:0:0:0:
139,230,19394,2,0,L|162:320,1,75.0000028610231,4|0,3:0|0:0,0:0:0:0:
290,338,19769,2,0,L|267:248,1,75.0000028610231,2|0,0:0|0:0,0:0:0:0:
339,133,20144,2,0,L|362:223,1,75.0000028610231,8|0,3:0|0:0,0:0:0:0:
389,282,20425,1,2,0:0:0:0:
389,282,20519,6,0,P|448:233|523:272,1,150.000005722046,0|4,0:0|3:0,0:0:0:0:
254,346,21269,1,0,0:0:0:0:
222,78,21644,2,0,L|211:176,1,75.0000028610231,8|0,3:0|0:0,0:0:0:0:
134,267,22019,1,2,0:0:0:0:
164,263,22112,1,2,0:0:0:0:
195,260,22206,1,2,0:0:0:0:
226,258,22300,1,2,0:0:0:0:
255,255,22394,6,0,L|328:248,1,37.5000014305115,10|0,0:0|0:0,0:0:0:0:
301,166,22581,2,0,L|344:145,1,37.5000014305115,10|0,0:0|0:0,0:0:0:0:
292,70,22769,2,0,L|328:-3,1,75.0000028610231,12|2,0:0|0:0,0:0:0:0:
202,58,23144,2,0,P|126:23|58:52,1,150.000005722046,8|2,3:0|0:0,0:0:0:0:
128,170,23706,1,0,0:0:0:0:
128,170,23894,2,0,P|204:205|274:176,1,150.000005722046,6|2,3:0|0:0,0:0:0:0:
364,96,24456,5,0,0:0:0:0:
364,96,24644,2,0,L|353:194,1,75.0000028610231,4|0,3:0|0:0,0:0:0:0:
415,237,24925,1,0,0:0:0:0:
415,237,25019,2,0,L|404:335,1,75.0000028610231,2|2,0:0|0:0,0:0:0:0:
272,329,25394,2,0,P|213:312|177:321,1,75.0000028610231,10|2,0:0|0:0,0:0:0:0:
86,234,25769,2,0,P|123:233|157:218,1,75.0000028610231,10|2,0:0|0:0,0:0:0:0:
232,132,26144,6,0,P|271:130|330:156,1,100,6|2,3:0|2:0,0:0:0:0:
493,212,26519,1,2,0:0:0:0:
357,233,26706,1,4,3:0:0:0:
426,132,26894,2,0,L|439:28,1,100,2|2,0:0|0:0,0:0:0:0:
307,54,27269,1,2,0:0:0:0:
187,3,27456,1,2,0:0:0:0:
67,79,27644,5,4,3:0:0:0:
129,220,27831,1,0,0:0:0:0:
129,220,27925,1,0,0:0:0:0:
129,220,28019,2,0,L|238:226,1,100,2|4,2:0|3:0,0:0:0:0:
414,203,28394,1,2,0:0:0:0:
423,238,28487,1,2,0:0:0:0:
418,275,28581,1,2,0:0:0:0:
401,306,28675,1,2,0:0:0:0:
370,326,28769,1,6,3:0:0:0:
228,225,28956,5,2,0:0:0:0:
228,225,29050,1,2,0:0:0:0:
228,225,29144,2,0,L|252:174,1,50,2|2,0:0|2:0,0:0:0:0:
199,108,29331,2,0,L|184:57,1,50,2|2,2:0|2:0,0:0:0:0:
107,87,29519,2,0,L|-2:57,1,100,2|2,2:0|2:0,0:0:0:0:
116,252,29894,5,2,2:0:0:0:
265,204,30081,1,2,2:0:0:0:
265,204,30175,1,2,2:0:0:0:
265,204,30269,2,0,L|238:315,1,100,2|2,2:0|2:0,0:0:0:0:
363,229,30644,2,0,P|276:187|343:81,1,240,4|0,0:0|0:0,0:0:0:0:
442,117,31394,5,2,0:0:0:0:
346,156,31581,1,2,0:0:0:0:
226,142,31769,1,2,0:0:0:0:
144,73,31956,2,0,P|2:79|53:181,1,299.999990844727,2|0,0:0|0:0,0:0:0:0:
325,142,33644,6,0,P|414:139|471:182,1,160,2|2,0:0|0:0,0:0:0:0:
216,232,34394,2,0,P|127:235|70:192,1,160,2|2,0:0|0:0,0:0:0:0:
112,44,35144,1,2,0:0:0:0:
260,9,35519,1,2,0:0:0:0:
393,102,35894,2,0,L|353:263,1,160,2|2,0:0|0:0,0:0:0:0:
237,177,36644,6,0,P|144:154|86:194,1,160,2|2,0:0|0:0,0:0:0:0:
291,331,37394,2,0,P|384:354|442:314,1,160,2|2,0:0|0:0,0:0:0:0:
324,129,38144,1,2,0:0:0:0:
362,240,38331,1,0,0:0:0:0:
291,329,38519,1,2,0:0:0:0:
172,313,38706,1,0,0:0:0:0:
141,197,38894,6,0,P|71:158|-8:200,1,160,2|2,0:0|0:0,0:0:0:0:
69,262,39456,1,0,0:0:0:0:
69,262,39644,2,0,L|86:101,2,160,2|2|2,0:0|0:0|0:0,0:0:0:0:
154,335,40581,1,0,0:0:0:0:
253,281,40769,1,2,0:0:0:0:
347,349,40956,1,0,0:0:0:0:
443,289,41144,6,0,B|424:242|424:242|424:192|424:192|396:124,1,160,2|2,0:0|0:0,0:0:0:0:
308,200,41706,1,0,0:0:0:0:
310,87,41894,2,0,P|346:50|383:41,1,80,2|0,0:0|0:0,0:0:0:0:
463,93,42269,2,0,P|427:130|390:139,1,80,2|0,0:0|0:0,0:0:0:0:
308,200,42644,2,0,P|358:212|384:240,1,80,6|0,0:0|0:0,0:0:0:0:
488,212,43019,5,2,0:0:0:0:
480,243,43112,1,2,0:0:0:0:
471,278,43206,1,2,0:0:0:0:
463,309,43300,1,2,0:0:0:0:
452,346,43394,2,0,P|402:331|365:341,1,80,14|0,0:0|0:0,0:0:0:0:
233,363,43769,2,0,P|282:377|319:367,1,80,2|2,0:0|0:0,0:0:0:0:
284,201,44144,5,10,0:0:0:0:
82,183,44331,1,0,0:0:0:0:
179,191,44519,2,0,L|188:286,1,80,2|0,0:0|0:0,0:0:0:0:
377,323,44894,1,10,0:0:0:0:
222,368,45081,5,2,0:0:0:0:
377,323,45269,2,0,P|414:337|461:333,1,80,2|0,0:0|0:0,0:0:0:0:
442,242,45644,2,0,P|477:154|354:138,1,240,10|0,0:0|0:0,0:0:0:0:
229,52,46394,2,0,P|303:49|332:67,1,80,10|0,0:0|0:0,0:0:0:0:
306,206,46769,2,0,P|267:143|268:109,1,80,0|0,0:0|0:0,0:0:0:0:
365,124,47144,6,0,P|419:97|510:163,1,160,10|0,0:0|0:0,0:0:0:0:
427,183,47706,1,0,0:0:0:0:
427,183,47894,2,0,L|408:346,1,160,10|0,0:0|0:0,0:0:0:0:
316,286,48456,1,2,0:0:0:0:
316,286,48644,2,0,P|216:271|163:308,1,160,10|0,0:0|0:0,0:0:0:0:
96,371,49206,1,2,0:0:0:0:
96,371,49394,2,0,P|72:304|78:274,1,80,10|0,0:0|0:0,0:0:0:0:
142,152,49769,6,0,P|166:219|160:249,1,80,2|0,0:0|0:0,0:0:0:0:
64,212,50144,2,0,P|48:116|229:108,1,320,10|8,0:0|0:0,0:0:0:0:
312,34,51081,1,2,0:0:0:0:
312,34,51269,2,0,B|356:48|393:35,1,80,2|0,0:0|0:0,0:0:0:0:
469,118,51644,2,0,L|326:178,1,120,10|0,0:0|0:0,0:0:0:0:
330,178,52019,6,0,L|450:177,1,120,10|0,0:0|0:0,0:0:0:0:
482,177,52394,6,0,L|374:231,1,120,10|0,0:0|0:0,0:0:0:0:
348,247,52769,6,0,L|475:245,1,120,10|0,0:0|0:0,0:0:0:0:
494,244,53144,6,0,L|401:290,1,80,10|0,0:0|0:0,0:0:0:0:
339,350,53519,1,10,0:0:0:0:
305,338,53612,1,2,0:0:0:0:
277,328,53706,1,2,0:0:0:0:
246,315,53800,1,2,0:0:0:0:
217,303,53894,2,0,L|230:212,1,80,10|0,0:0|0:0,0:0:0:0:
69,187,54269,6,0,L|141:243,1,80,10|0,0:0|0:0,0:0:0:0:
243,115,54644,6,0,L|157:149,1,80,14|0,0:0|0:0,0:0:0:0:
75,98,55019,1,10,0:0:0:0:
61,140,55112,1,2,0:0:0:0:
65,182,55206,1,2,0:0:0:0:
90,221,55300,1,2,0:0:0:0:
127,244,55394,2,0,B|202:271|288:228|288:228|261:273|293:333,1,240,10|0,0:0|0:0,0:0:0:0:
390,273,56144,6,0,P|393:170|333:120,1,179.999994506836,4|0,3:0|0:0,0:0:0:0:
256,164,56706,1,2,0:0:0:0:
256,164,56894,2,0,P|263:60|351:31,1,179.999994506836,10|0,0:0|0:0,0:0:0:0:
451,83,57456,1,2,0:0:0:0:
451,83,57644,2,0,P|444:187|356:216,1,179.999994506836,4|0,3:0|0:0,0:0:0:0:
351,120,58206,5,0,0:0:0:0:
351,120,58394,2,0,L|156:101,1,179.999994506836,8|0,0:0|0:0,0:0:0:0:
89,170,58956,1,0,0:0:0:0:
164,246,59144,2,0,L|359:265,1,179.999994506836,0|0,0:0|0:0,0:0:0:0:
471,258,59894,6,0,P|368:287|367:356,1,179.999994506836,8|0,0:0|0:0,0:0:0:0:
434,324,60456,1,0,0:0:0:0:
434,324,60644,2,0,P|396:248|481:181,1,179.999994506836,0|0,0:0|0:0,0:0:0:0:
169,34,61394,2,0,L|149:158,1,89.9999972534181,8|0,0:0|0:0,0:0:0:0:
294,252,61769,2,0,L|283:144,1,89.9999972534181,8|0,0:0|0:0,0:0:0:0:
372,44,62144,6,0,P|409:106|514:87,1,179.999994506836,0|0,0:0|0:0,0:0:0:0:
452,37,62706,1,0,0:0:0:0:
452,37,62894,2,0,L|428:220,1,179.999994506836,8|0,0:0|0:0,0:0:0:0:
329,256,63456,1,0,0:0:0:0:
329,256,63644,2,0,P|412:315|495:296,1,179.999994506836,0|0,0:0|0:0,0:0:0:0:
312,370,64206,1,0,0:0:0:0:
312,370,64394,2,0,P|229:311|146:330,1,179.999994506836,8|0,0:0|0:0,0:0:0:0:
72,376,64956,5,0,0:0:0:0:
72,376,65144,2,0,L|45:183,1,179.999994506836,0|0,0:0|0:0,0:0:0:0:
143,106,65706,1,0,0:0:0:0:
143,106,65894,2,0,L|170:299,1,179.999994506836,8|0,0:0|0:0,0:0:0:0:
292,344,66456,1,0,0:0:0:0:
292,344,66644,2,0,L|265:151,1,179.999994506836,0|0,0:0|0:0,0:0:0:0:
370,81,67206,1,0,0:0:0:0:
370,81,67394,2,0,L|397:274,1,179.999994506836,8|0,0:0|0:0,0:0:0:0:
492,326,67956,5,0,0:0:0:0:
492,326,68144,2,0,P|404:376|343:366,1,139.999995727539,2|0,0:0|0:0,0:0:0:0:
266,300,68706,1,2,0:0:0:0:
266,300,68894,2,0,P|266:198|305:150,1,139.999995727539,2|0,0:0|0:0,0:0:0:0:
409,123,69456,1,2,0:0:0:0:
409,123,69644,2,0,P|496:174|518:232,1,139.999995727539,2|0,0:0|0:0,0:0:0:0:
393,249,70206,1,2,0:0:0:0:
393,249,70394,2,0,L|232:240,1,139.999995727539,2|2,0:0|0:0,0:0:0:0:
156,318,70956,5,2,0:0:0:0:
156,318,71144,2,0,B|128:249|128:249|154:130,1,179.999994506836,4|2,3:0|0:0,0:0:0:0:
265,113,71706,1,2,0:0:0:0:
265,113,71894,2,0,P|187:32|108:32,1,179.999994506836,8|2,3:0|0:0,0:0:0:0:
46,115,72456,1,2,0:0:0:0:
121,211,72644,2,0,L|216:193,1,89.9999972534181,4|2,3:0|0:0,0:0:0:0:
247,186,72925,5,2,3:0:0:0:
278,199,73019,1,2,3:0:0:0:
307,211,73112,1,2,3:0:0:0:
339,224,73206,1,2,3:0:0:0:
369,237,73300,1,2,3:0:0:0:
397,250,73394,2,0,L|490:227,1,89.9999972534181,12|2,3:0|0:0,0:0:0:0:
512,77,73769,6,0,L|419:100,1,89.9999972534181,8|2,0:0|0:0,0:0:0:0:
271,34,74144,1,12,3:0:0:0:
271,34,74331,1,2,0:0:0:0:
271,34,74519,2,0,L|254:142,1,100,8|2,0:0|0:0,0:0:0:0:
166,274,74894,5,8,0:0:0:0:
166,274,75081,1,2,0:0:0:0:
166,274,75269,2,0,L|149:166,1,100,8|2,0:0|0:0,0:0:0:0:
56,109,75644,5,8,0:0:0:0:
161,41,75831,1,2,0:0:0:0:
258,124,76019,1,8,0:0:0:0:
361,52,76206,1,2,0:0:0:0:
463,123,76394,5,8,0:0:0:0:
479,246,76581,1,2,0:0:0:0:
389,333,76769,1,8,0:0:0:0:
268,305,76956,1,2,0:0:0:0:
268,305,77050,1,2,0:0:0:0:
268,305,77144,6,0,L|165:317,1,100,8|2,0:0|0:0,0:0:0:0:
0,223,77519,2,0,L|122:235,1,100,8|2,0:0|0:0,0:0:0:0:
238,195,77894,1,8,0:0:0:0:
107,236,78081,1,2,0:0:0:0:
279,319,78269,1,8,0:0:0:0:
101,240,78456,1,2,0:0:0:0:
230,95,78644,5,8,0:0:0:0:
230,95,78831,1,8,0:0:0:0:
230,95,79019,2,0,L|239:214,1,100,8|8,0:0|0:0,0:0:0:0:
170,318,79394,1,8,0:0:0:0:
243,190,79581,1,2,0:0:0:0:
324,360,79769,1,10,0:0:0:0:
235,190,79956,1,2,0:0:0:0:
235,190,80050,1,2,0:0:0:0:
235,190,80144,6,0,P|296:177|336:183,1,100,8|2,0:0|0:0,0:0:0:0:
456,312,80519,2,0,P|394:300|360:278,1,100,8|2,0:0|0:0,0:0:0:0:
441,176,80894,1,8,0:0:0:0:
441,176,81081,1,2,0:0:0:0:
329,78,81269,1,8,0:0:0:0:
235,190,81456,1,2,0:0:0:0:
357,280,81644,5,8,0:0:0:0:
243,327,81831,1,2,0:0:0:0:
122,295,82019,1,8,0:0:0:0:
64,185,82206,1,2,0:0:0:0:
64,185,82300,1,0,0:0:0:0:
64,185,82394,1,8,0:0:0:0:
126,73,82581,5,2,0:0:0:0:
126,73,82675,1,2,0:0:0:0:
126,73,82769,2,0,B|173:87|173:87|227:79,1,100,8|2,0:0|0:0,0:0:0:0:
311,180,83144,2,0,B|264:166|264:166|210:174,1,100,8|2,0:0|0:0,0:0:0:0:
188,178,83425,1,2,0:0:0:0:
188,178,83519,1,10,0:0:0:0:
124,305,83706,5,2,0:0:0:0:
124,305,83800,1,2,0:0:0:0:
124,305,83894,2,0,L|112:232,1,50,8|2,0:0|0:0,0:0:0:0:
19,132,84081,2,0,P|20:171|42:218,1,75.0000028610231,2|2,0:0|0:0,0:0:0:0:
188,178,84269,2,0,P|153:159|101:154,1,75.0000028610231,0|2,0:0|0:0,0:0:0:0:
60,304,84456,2,0,P|93:283|123:241,1,75.0000028610231,2|2,0:0|0:0,0:0:0:0:
227,313,84644,6,0,P|307:320|342:350,1,125,12|0,0:0|0:0,0:0:0:0:
339,346,85206,1,8,0:0:0:0:
439,292,85394,1,12,0:0:0:0:
443,185,85581,1,2,0:0:0:0:
352,92,85769,2,0,L|279:84,1,50,8|2,0:0|0:0,0:0:0:0:
202,162,86144,6,0,L|399:186,1,194.999991073609,4|0,0:0|0:0,0:0:0:0:
411,181,86519,2,0,B|412:143|412:143|433:97,1,80,8|0,2:0|0:0,0:0:0:0:
512,191,86706,2,0,B|511:229|511:229|490:275,1,80,8|0,2:0|0:0,0:0:0:0:
402,308,86894,2,0,P|359:258|260:298,1,179.999994506836,8|0,0:0|0:0,0:0:0:0:
329,327,87269,5,2,0:0:0:0:
329,327,87362,1,0,0:0:0:0:
329,327,87456,2,0,B|342:252|342:252|330:194|330:194|344:114,1,209.999993591309,8|0,0:0|0:0,0:0:0:0:
347,98,87831,2,0,L|449:108,1,89.9999972534181,2|0,1:1|0:1,0:0:0:0:
512,228,88019,2,0,L|410:218,1,89.9999972534181,2|0,0:1|0:0,0:0:0:0:
292,184,88206,5,0,0:1:0:0:
292,184,88300,1,0,0:1:0:0:
292,184,88394,2,0,L|316:276,2,89.9999972534181,8|0|2,0:0|0:0|0:0,0:0:0:0:
77,137,88769,2,0,B|156:151|187:192|187:192|183:118|255:93,1,209.999993591309,12|0,0:0|0:0,0:0:0:0:
244,101,89144,2,0,L|322:114,1,64.9999970245363,12|0,0:0|0:0,0:0:0:0:
512,56,89331,5,2,0:1:0:0:
512,56,89425,1,0,0:0:0:0:
512,56,89519,2,0,L|483:156,1,89.9999972534181,10|0,0:1|0:0,0:0:0:0:
361,212,89706,1,2,0:1:0:0:
361,212,89800,1,0,0:0:0:0:
361,212,89894,2,0,P|422:248|482:243,1,89.9999972534181,10|0,0:1|1:0,0:0:0:0:
319,329,90081,5,2,0:1:0:0:
290,336,90175,1,2,0:0:0:0:
263,344,90269,1,10,0:0:0:0:
237,351,90362,1,2,0:0:0:0:
210,358,90456,2,0,L|113:335,1,89.9999972534181,2|0,0:1|0:0,0:0:0:0:
16,256,90644,5,10,0:0:0:0:
16,256,90737,1,2,0:0:0:0:
16,256,90831,2,0,L|24:358,1,89.9999972534181,2|0,0:1|0:0,0:0:0:0:
152,241,91019,2,0,L|144:139,1,89.9999972534181,10|0,0:1|0:0,0:0:0:0:
43,84,91206,1,2,0:0:0:0:
43,84,91300,1,2,0:0:0:0:
43,84,91394,6,0,B|143:62|143:62|225:88|225:88|331:65,1,279.999991455078,8|8,0:0|0:0,0:0:0:0:
464,200,92144,6,0,P|351:162|306:245,1,179.999994506836,12|0,0:0|0:0,0:0:0:0:
314,216,92519,2,0,B|256:232|256:232|171:211,1,139.999995727539,8|2,0:0|0:0,0:0:0:0:
114,83,92894,2,0,L|89:248,1,160,8|10,0:0|0:0,0:0:0:0:
284,208,93269,5,8,0:0:0:0:
114,83,93456,2,0,L|92:222,1,129.999994049073,10|8,0:0|0:0,0:0:0:0:
284,208,93831,5,10,0:0:0:0:
163,210,94019,2,0,P|244:191|306:228,1,129.999994049073,8|0,0:0|0:0,0:0:0:0:
464,241,94394,1,10,0:0:0:0:
468,206,94487,1,2,0:0:0:0:
474,167,94581,1,2,0:0:0:0:
480,131,94675,1,2,0:0:0:0:
487,92,94769,6,0,L|403:95,1,69.9999978637696,8|0,0:0|0:0,0:0:0:0:
285,209,94956,2,0,L|382:204,1,80,2|0,0:0|0:0,0:0:0:0:
512,326,95144,2,0,L|344:334,1,160,12|2,3:3|0:0,0:0:0:0:
160,349,95706,1,2,0:0:0:0:
160,349,95894,2,0,L|173:253,1,59.9999981689454,10|0,0:0|0:0,0:0:0:0:
147,264,96081,2,0,L|160:168,1,59.9999981689454,8|0,0:0|0:0,0:0:0:0:
135,176,96269,2,0,L|152:71,1,89.9999972534181,8|0,0:0|0:0,0:0:0:0:
128,50,96456,5,12,0:0:0:0:
325,33,96644,1,8,0:0:0:0:
325,33,96831,2,0,L|430:52,1,75.0000028610231,8|0,0:0|0:0,0:0:0:0:
504,229,97019,2,0,L|399:210,1,75.0000028610231,8|0,0:0|0:0,0:0:0:0:
330,153,97206,1,8,0:3:0:0:
330,153,97300,1,8,0:3:0:0:
330,153,97394,6,0,B|305:210|305:210|313:298,1,129.999994049073,12|0,0:0|0:0,0:0:0:0:
108,348,97769,2,0,P|163:300|164:237,1,129.999994049073,8|0,0:0|0:0,0:0:0:0:
30,154,98144,6,0,B|118:204|125:104|242:172,1,194.999991073609,12|0,0:0|0:0,0:0:0:0:
255,176,98519,2,0,L|249:263,1,80,10|0,0:0|0:0,0:0:0:0:
364,280,98706,2,0,L|358:367,1,80,8|0,0:0|0:0,0:0:0:0:
480,262,98894,6,0,L|490:117,1,139.999995727539,10|6,0:0|0:0,0:0:0:0:
255,176,99269,1,10,0:0:0:0:
480,262,99456,2,0,L|490:126,1,129.999994049073,2|8,0:0|0:0,0:0:0:0:
372,11,99831,2,0,L|361:184,1,160,2|10,0:0|0:0,0:0:0:0:
255,176,100206,1,2,0:0:0:0:
224,195,100300,1,2,0:0:0:0:
188,201,100394,1,8,0:0:0:0:
152,196,100487,1,2,0:0:0:0:
122,174,100581,6,0,L|118:76,1,89.9999972534181,2|2,0:0|0:0,0:0:0:0:
11,216,100769,2,0,L|22:385,1,150.000005722046,8|2,0:0|0:0,0:0:0:0:
146,260,101144,2,0,P|226:226|309:294,1,179.999994506836,12|0,0:0|0:0,0:0:0:0:
316,293,101519,2,0,P|378:315|414:249,1,139.999995727539,8|0,0:0|0:0,0:0:0:0:
487,138,101894,6,0,L|494:282,1,139.999995727539,8|2,0:0|0:0,0:0:0:0:
307,242,102269,1,8,0:0:0:0:
170,327,102456,1,2,0:0:0:0:
38,229,102644,1,2,0:3:0:0:
45,198,102737,1,2,0:0:0:0:
53,167,102831,1,2,0:1:0:0:
234,35,103019,5,8,0:0:0:0:
242,66,103113,1,2,0:0:0:0:
249,97,103206,1,2,0:1:0:0:
258,128,103300,1,0,0:0:0:0:
266,156,103394,2,0,P|403:172|341:242,1,279.999991455078,12|12,0:0|0:0,0:0:0:0:
132,347,104144,5,8,0:0:0:0:
235,215,104331,1,2,0:1:0:0:
235,215,104425,1,2,0:1:0:0:
235,215,104519,2,0,P|225:293|192:349,1,89.9999972534181,10|0,0:1|0:0,0:0:0:0:
369,241,104706,5,2,0:0:0:0:
369,241,104800,1,2,0:0:0:0:
369,241,104894,2,0,P|378:162|411:106,1,89.9999972534181,8|0,0:0|0:0,0:0:0:0:
493,288,105081,5,2,0:1:0:0:
488,299,105175,1,0,0:1:0:0:
484,310,105269,1,10,0:1:0:0:
479,321,105362,1,0,0:0:0:0:
475,332,105456,2,0,L|377:321,1,89.9999972534181,4|0,0:1|0:0,0:0:0:0:
306,353,105644,5,2,0:1:0:0:
306,353,105737,1,0,0:0:0:0:
306,353,105831,2,0,P|357:274|297:172,1,179.999994506836,10|12,0:1|0:0,0:0:0:0:
115,331,106206,1,0,0:0:0:0:
115,331,106300,1,0,0:0:0:0:
115,331,106394,2,0,P|126:220|266:267,1,300.000011444092,8|8,0:0|0:0,0:0:0:0:
184,280,107144,6,0,L|160:90,1,179.999994506836,4|0,0:0|0:0,0:0:0:0:
159,78,107519,2,0,B|224:60|224:60|310:79,1,139.999995727539,8|10,0:0|0:0,0:0:0:0:
501,121,107894,1,8,0:0:0:0:
296,70,108081,1,2,0:0:0:0:
365,264,108269,1,8,0:0:0:0:
501,121,108456,5,12,0:0:0:0:
296,70,108644,2,0,P|231:89|191:136,1,89.9999972534181,12|2,0:0|0:0,0:0:0:0:
100,206,109019,2,0,P|172:208|217:226,1,89.9999972534181,8|0,0:0|0:0,0:0:0:0:
335,288,109394,2,0,P|246:318|258:367,1,139.999995727539,8|2,0:0|0:0,0:0:0:0:
439,331,110144,6,0,P|357:258|470:167,1,279.999991455078,8|8,0:0|0:0,0:0:0:0:
444,247,111081,1,2,0:0:0:0:
444,247,111269,2,0,P|393:234|351:242,1,69.9999978637696,0|2,0:0|0:0,0:0:0:0:
301,314,111644,2,0,P|268:229|295:169,1,139.999995727539,12|12,0:0|0:0,0:0:0:0:
395,131,112206,1,8,0:0:0:0:
395,131,112394,2,0,L|296:119,1,69.9999978637696,8|8,0:0|0:0,0:0:0:0:
238,32,112769,2,0,L|337:44,1,69.9999978637696,8|8,0:0|0:0,0:0:0:0:
284,188,113144,6,0,B|248:187|234:194|234:194|227:148|179:112,1,139.999995727539,8|2,0:0|0:0,0:0:0:0:
73,200,113706,1,2,0:0:0:0:
73,200,113894,2,0,P|158:202|158:233,1,139.999995727539,8|2,0:0|0:0,0:0:0:0:
107,318,114456,1,2,0:0:0:0:
107,318,114644,2,0,L|252:304,1,139.999995727539,8|2,0:0|0:0,0:0:0:0:
395,260,115206,1,2,0:0:0:0:
395,260,115394,2,0,L|298:245,1,69.9999978637696,8|2,0:0|0:0,0:0:0:0:
241,135,115769,6,0,L|259:226,1,69.9999978637696,2|2,0:0|0:0,0:0:0:0:
196,348,116144,2,0,L|168:186,1,139.999995727539,8|0,0:0|0:0,0:0:0:0:
65,56,116894,1,8,0:0:0:0:
65,56,117081,1,2,0:0:0:0:
65,56,117269,2,0,P|124:77|161:71,1,69.9999978637696,2|0,0:0|0:0,0:0:0:0:
164,162,117644,6,0,P|217:130|247:128,1,69.9999978637696,8|0,0:0|0:0,0:0:0:0:
311,47,118019,2,0,P|330:90|366:118,1,69.9999978637696,8|0,0:0|0:0,0:0:0:0:
417,222,118394,2,0,P|426:176|445:147,1,69.9999978637696,8|0,0:0|0:0,0:0:0:0:
314,258,118769,2,0,P|351:293|367:339,1,69.9999978637696,8|0,0:0|0:0,0:0:0:0:
434,377,119144,6,0,L|470:268,1,104.999996795654,8|2,0:0|0:0,0:0:0:0:
417,222,119519,2,0,L|395:106,1,104.999996795654,8|2,0:0|0:0,0:0:0:0:
326,100,119894,2,0,L|227:35,1,104.999996795654,8|2,0:0|0:0,0:0:0:0:
161,82,120269,2,0,L|260:147,1,104.999996795654,8|2,0:0|0:0,0:0:0:0:
324,196,120644,2,0,L|202:226,1,104.999996795654,12|2,0:0|0:0,0:0:0:0:
198,237,121019,5,8,0:0:0:0:
178,269,121112,1,8,0:0:0:0:
174,301,121206,1,8,0:0:0:0:
186,334,121300,1,8,0:0:0:0:
215,352,121394,2,0,P|167:284|53:315,1,209.999993591309,10|2,0:0|0:0,0:0:0:0:
128,360,122144,6,0,P|144:270|62:213,1,179.999994506836,8|2,0:3|0:0,0:0:0:0:
16,122,122706,1,2,0:0:0:0:
16,122,122894,2,0,P|125:131|195:94,1,179.999994506836,8|2,0:0|0:0,0:0:0:0:
269,23,123456,1,2,0:0:0:0:
269,23,123644,2,0,L|256:216,1,179.999994506836,8|2,0:3|0:0,0:0:0:0:
373,277,124206,1,2,0:0:0:0:
373,277,124394,2,0,L|386:84,1,179.999994506836,8|2,0:0|0:0,0:0:0:0:
269,130,124956,5,2,0:0:0:0:
269,130,125144,2,0,P|159:173|118:109,1,179.999994506836,8|0,0:3|0:0,0:0:0:0:
0,339,125894,2,0,P|110:296|151:360,1,179.999994506836,8|2,0:0|0:0,0:0:0:0:
223,286,126456,1,2,0:0:0:0:
303,345,126644,2,0,L|326:165,1,179.999994506836,8|2,0:3|0:0,0:0:0:0:
397,83,127394,6,0,P|444:112|486:112,1,89.9999972534181,8|2,0:0|0:0,0:0:0:0:
238,162,127769,2,0,P|314:161|349:184,1,89.9999972534181,8|2,0:0|0:0,0:0:0:0:
157,226,128144,2,0,P|189:141|137:73,1,160,8|2,0:3|0:0,0:0:0:0:
100,156,128706,1,2,0:0:0:0:
43,86,128894,2,0,P|11:171|63:239,1,160,8|2,0:0|0:0,0:0:0:0:
27,332,129456,5,2,0:0:0:0:
27,332,129644,2,0,L|196:320,1,160,8|2,0:3|0:0,0:0:0:0:
277,264,130206,1,2,0:0:0:0:
216,177,130394,2,0,P|173:248|204:345,1,160,8|2,0:0|0:0,0:0:0:0:
277,264,130956,5,2,0:0:0:0:
277,264,131144,2,0,P|378:276|441:248,1,160,8|2,0:3|0:0,0:0:0:0:
351,160,131706,1,2,0:0:0:0:
351,160,131894,2,0,P|271:105|256:34,1,160,8|2,0:0|0:0,0:0:0:0:
172,120,132456,1,2,0:0:0:0:
172,120,132644,2,0,P|72:89|47:135,1,160,10|2,0:0|0:0,0:0:0:0:
125,225,133206,1,2,0:0:0:0:
125,225,133394,2,0,P|226:222|276:156,1,160,2|2,0:0|0:0,0:0:0:0:
342,78,133956,5,2,0:0:0:0:
342,78,134144,2,0,L|337:219,1,119.999996337891,2|0,0:0|0:0,0:0:0:0:
444,278,134706,1,2,0:0:0:0:
444,278,134894,2,0,L|449:137,1,119.999996337891,2|0,0:0|0:0,0:0:0:0:
335,198,135456,1,2,0:0:0:0:
335,198,135644,2,0,P|256:162|212:175,1,119.999996337891,2|0,0:0|0:0,0:0:0:0:
159,51,136206,1,2,0:0:0:0:
159,51,136394,2,0,P|238:87|282:74,1,119.999996337891,2|0,0:0|0:0,0:0:0:0:
385,51,136956,5,2,0:0:0:0:
385,51,137144,2,0,P|443:53|479:69,1,80,2|0,0:0|0:0,0:0:0:0:
407,168,137706,1,2,0:0:0:0:
407,168,137894,2,0,P|354:193|335:217,1,80,2|0,0:0|0:0,0:0:0:0:
248,257,138456,1,2,0:0:0:0:
248,257,138644,2,0,P|252:198|241:170,1,80,2|0,0:0|0:0,0:0:0:0:
186,94,139206,1,2,0:0:0:0:
256,192,139394,12,2,142019,0:0:0:0:
