osu file format v14

[General]
AudioFilename: audio.mp3
AudioLeadIn: 0
PreviewTime: 85760
Countdown: 0
SampleSet: Soft
StackLeniency: 0.7
Mode: 2
LetterboxInBreaks: 0
WidescreenStoryboard: 1

[Editor]
DistanceSpacing: 1.1
BeatDivisor: 4
GridSize: 32
TimelineZoom: 2.3

[Metadata]
Title:Marigold (VIP Remix)
TitleUnicode:Marigold (VIP Remix)
Artist:M2U feat. Guriri
ArtistUnicode:M2U feat. Guriri
Creator:-Joakh
Version:Jeir's Platter
Source:Deemo
Tags:Syamu -MomoX Greaper JierYagtama JeirYagtama rayark inc magnolia myosotis square musiq square-musiq narae hans alice alternate story symphonic boss piano violin electronic english dnb drum'n'bass drum deemo
BeatmapID:2614246
BeatmapSetID:1257779

[Difficulty]
HPDrainRate:5
CircleSize:4
OverallDifficulty:8
ApproachRate:8
SliderMultiplier:1.5
SliderTickRate:2

[Events]
//Background and Video events
0,0,"BG.jpg",0,0
//Break Periods
//Storyboard Layer 0 (Background)
//Storyboard Layer 1 (Fail)
//Storyboard Layer 2 (Pass)
//Storyboard Layer 3 (Foreground)
//Storyboard Layer 4 (Overlay)
//Storyboard Sound Samples

[TimingPoints]
635,375,4,2,1,40,1,0
635,-125,4,2,1,40,0,0
12635,-100,4,2,1,20,0,0
12822,-100,4,2,1,35,0,0
14041,-100,4,2,1,65,0,0
14135,-100,4,2,1,55,0,0
15447,-100,4,2,1,65,0,0
15635,-83.3333333333333,4,2,1,65,0,0
25760,-83.3333333333333,4,2,1,50,0,0
26135,-83.3333333333333,4,2,1,65,0,0
26322,-83.3333333333333,4,2,1,45,0,0
29135,-83.3333333333333,4,2,1,40,0,0
32135,-83.3333333333333,4,2,1,5,0,0
33635,-83.3333333333333,4,2,1,50,0,0
44135,-83.3333333333333,4,2,1,60,0,0
49760,-83.3333333333333,4,2,1,60,0,0
50135,-83.3333333333333,4,2,1,60,0,0
56135,-83.3333333333333,4,2,1,65,0,0
73760,-83.3333333333333,4,2,1,75,0,0
74135,-83.3333333333333,4,2,1,45,0,0
77135,-83.3333333333333,4,2,1,50,0,0
80135,-83.3333333333333,4,2,1,55,0,0
83886,-83.3333333333333,4,2,1,50,0,0
85760,-83.3333333333333,4,2,1,65,0,0
86135,-83.3333333333333,4,2,1,65,0,1
86510,-83.3333333333333,4,2,1,65,0,1
86885,-83.3333333333333,4,2,1,65,0,1
88760,-83.3333333333333,4,2,1,65,0,1
88947,-83.3333333333333,4,2,1,65,0,1
92510,-83.3333333333333,4,2,1,65,0,1
92697,-83.3333333333333,4,2,1,65,0,1
95135,-83.3333333333333,4,2,1,65,0,0
96260,-83.3333333333333,4,2,1,65,0,0
96447,-83.3333333333333,4,2,1,65,0,0
97760,-83.3333333333333,4,2,1,65,0,0
98135,-83.3333333333333,4,2,1,65,0,1
98510,-83.3333333333333,4,2,1,65,0,1
98697,-83.3333333333333,4,2,1,65,0,1
101510,-83.3333333333333,4,2,1,65,0,1
101697,-83.3333333333333,4,2,1,65,0,1
104135,-83.3333333333333,4,2,1,65,0,1
104697,-83.3333333333333,4,2,1,65,0,1
107510,-83.3333333333333,4,2,1,65,0,1
107697,-83.3333333333333,4,2,1,65,0,1
108447,-83.3333333333333,4,2,1,65,0,0
110135,-83.3333333333333,4,2,1,50,0,0
116135,-83.3333333333333,4,2,1,50,0,0
122135,-83.3333333333333,4,2,1,65,0,0
134135,-83.3333333333333,4,2,1,40,0,0
139484,-83.3333333333333,4,2,1,5,0,0

[Colours]
Combo1 : 0,128,64
Combo2 : 192,192,192
Combo3 : 217,217,0
Combo4 : 50,225,240

[HitObjects]
71,203,635,6,0,L|189:146,3,120,2|2|2|2,0:0|0:0|0:0|0:0,0:0:0:0:
372,205,2135,6,0,L|251:151,3,120,2|2|2|2,0:0|0:0|0:0|0:0,0:0:0:0:
71,106,3635,5,2,0:0:0:0:
211,105,4010,1,0,0:0:0:0:
390,178,4385,2,0,L|496:108,2,120,2|2|2,0:0|0:0|0:0,0:0:0:0:
244,178,5510,1,0,0:0:0:0:
412,169,5885,5,2,0:0:0:0:
277,170,6260,1,2,0:0:0:0:
117,168,6635,1,0,0:0:0:0:
332,170,7010,6,0,L|456:126,2,120,2|2|2,0:0|0:0|0:0,0:0:0:0:
30,245,8135,6,0,P|60:133|166:89,1,240,2|2,0:0|0:0,0:0:0:0:
4,64,9260,1,0,0:0:0:0:
187,130,9635,6,0,L|372:69,1,180,2|0,0:0|0:0,0:0:0:0:
479,110,10385,2,0,L|299:166,1,180,2|0,0:0|0:0,0:0:0:0:
178,195,11135,6,0,P|117:114|163:44,1,180,2|0,0:0|0:0,0:0:0:0:
294,195,11885,2,0,P|355:114|304:49,1,180,2|0,0:0|0:0,0:0:0:0:
184,83,12635,6,0,L|365:51,1,150,2|0,0:0|0:0,0:0:0:0:
201,61,13385,2,0,L|199:243,1,150,2|0,0:0|0:0,0:0:0:0:
373,222,14135,6,0,P|421:175|372:129,1,150,2|0,0:0|0:0,0:0:0:0:
170,125,14885,2,0,L|1:122,1,150,2|0,0:0|0:0,0:0:0:0:
458,184,15635,6,0,P|493:108|426:58,1,179.999994506836,4|0,3:0|0:0,0:0:0:0:
305,55,16197,1,0,0:0:0:0:
183,54,16385,2,0,L|124:54,2,44.999998626709,8|0|0,0:0|0:0|0:0,0:0:0:0:
291,57,16760,1,8,0:1:0:0:
183,54,16947,1,0,0:0:0:0:
438,207,17135,6,0,P|495:132|418:99,1,179.999994506836,4|0,3:0|0:0,0:0:0:0:
191,151,17885,2,0,P|108:149|74:100,1,134.999995880127,10|2,0:0|0:0,0:0:0:0:
112,76,18260,2,0,L|220:76,1,89.9999972534181,2|0,0:0|0:0,0:0:0:0:
409,152,18635,6,0,P|326:150|292:101,1,134.999995880127,0|2,3:0|0:0,0:0:0:0:
336,77,19010,2,0,L|444:77,1,89.9999972534181,8|0,0:1|0:0,0:0:0:0:
173,122,19385,5,8,0:0:0:0:
352,120,19760,1,8,0:0:0:0:
150,83,20135,6,0,P|95:118|99:182,1,134.999995880127,4|2,3:0|0:0,0:0:0:0:
150,180,20510,2,0,L|246:178,1,89.9999972534181,2|0,0:0|0:0,0:0:0:0:
367,147,20885,2,0,L|367:27,1,89.9999972534181,8|0,0:0|0:0,0:0:0:0:
493,135,21260,2,0,L|493:15,1,89.9999972534181,8|0,0:1|0:0,0:0:0:0:
232,72,21635,5,4,3:0:0:0:
413,214,22010,1,0,0:0:0:0:
453,194,22103,1,0,0:0:0:0:
472,154,22197,1,0,0:0:0:0:
462,111,22291,1,0,0:0:0:0:
428,84,22385,1,8,0:0:0:0:
245,84,22572,1,0,0:0:0:0:
362,88,22760,2,0,L|458:67,1,89.9999972534181,8|0,0:1|0:0,0:0:0:0:
198,93,23135,6,0,L|95:92,1,89.9999972534181,4|0,3:0|0:0,0:0:0:0:
244,140,23510,2,0,L|244:28,1,89.9999972534181,8|0,0:1|0:0,0:0:0:0:
116,188,23885,1,8,0:0:0:0:
76,172,23978,1,0,0:0:0:0:
57,132,24072,1,0,0:0:0:0:
71,91,24166,1,0,0:0:0:0:
110,71,24260,1,8,0:1:0:0:
234,69,24447,1,0,0:0:0:0:
409,152,24635,6,0,P|326:150|292:101,1,134.999995880127,0|0,3:0|0:0,0:0:0:0:
354,80,25010,2,0,L|462:80,1,89.9999972534181,8|0,0:1|0:0,0:0:0:0:
196,76,25385,2,0,L|106:76,1,89.9999972534181,8|0,0:0|0:0,0:0:0:0:
246,70,25760,1,2,0:0:0:0:
296,68,25853,1,0,0:0:0:0:
346,68,25947,1,0,3:0:0:0:
96,83,26135,6,0,L|-1:60,2,89.9999972534181,6|0|0,0:0|0:0|0:0,0:0:0:0:
239,94,26697,1,0,3:0:0:0:
125,96,26885,1,0,0:0:0:0:
232,90,27072,2,0,L|282:50,2,44.999998626709
125,96,27447,1,0,0:0:0:0:
383,118,27635,6,0,L|383:212,1,89.9999972534181,0|0,3:0|0:0,0:0:0:0:
262,205,28010,2,0,L|264:91,1,89.9999972534181,0|0,0:0|3:0,0:0:0:0:
149,197,28385,1,0,3:0:0:0:
106,188,28478,1,0,0:0:0:0:
81,152,28572,1,0,0:0:0:0:
87,108,28666,1,0,0:0:0:0:
121,81,28760,1,0,3:0:0:0:
230,79,28947,1,0,0:0:0:0:
384,79,29135,6,0,L|284:81,2,89.9999972534181,4|0|0,3:0|0:0|0:0,0:0:0:0:
266,78,29697,1,0,0:0:0:0:
156,77,29885,1,2,0:0:0:0:
261,94,30072,2,0,L|311:54,2,44.999998626709
139,92,30447,1,0,0:0:0:0:
393,233,30635,6,0,P|433:193|362:80,1,179.999994506836,2|0,0:0|0:0,0:0:0:0:
288,91,31197,1,0,0:0:0:0:
126,90,31385,2,0,L|215:88,2,89.9999972534181,2|2|2,0:0|0:0|0:0,0:0:0:0:
304,82,31947,5,2,0:0:0:0:
256,192,32135,12,0,32885,0:0:0:0:
110,200,33635,6,0,P|191:208|221:93,2,179.999994506836,2|0|0,0:0|0:0|0:0,0:0:0:0:
227,192,34572,2,0,L|344:193,2,89.9999972534181,2|2|2,0:0|0:0|0:0,0:0:0:0:
427,207,35135,6,0,P|425:149|250:118,1,269.999991760254,2|2,0:0|0:0,0:0:0:0:
82,231,35885,2,0,P|28:158|107:77,1,179.999994506836,2|0,0:0|0:0,0:0:0:0:
175,88,36447,1,0,0:0:0:0:
442,185,36635,6,0,P|487:106|415:61,1,179.999994506836,2|0,0:0|0:0,0:0:0:0:
338,69,37197,1,2,0:0:0:0:
173,73,37385,2,0,L|262:81,1,89.9999972534181,2|0,0:0|0:0,0:0:0:0:
435,76,37760,2,0,L|345:84,1,89.9999972534181,2|0,0:0|0:0,0:0:0:0:
94,236,38135,5,2,0:0:0:0:
20,192,38322,1,0,0:0:0:0:
23,106,38510,1,0,0:0:0:0:
101,69,38697,1,2,0:0:0:0:
267,238,38885,5,2,0:0:0:0:
353,212,39072,1,0,0:0:0:0:
427,160,39260,1,0,0:0:0:0:
328,158,39447,1,0,0:0:0:0:
73,212,39635,6,0,L|272:204,1,179.999994506836,2|0,0:0|0:0,0:0:0:0:
248,135,40197,1,0,0:0:0:0:
140,134,40385,1,0,0:0:0:0:
310,73,40572,2,0,L|415:75,2,89.9999972534181,2|2|2,0:0|0:0|0:0,0:0:0:0:
139,240,41135,6,0,P|73:198|178:71,1,269.999991760254,2|2,0:0|0:0,0:0:0:0:
318,75,41885,2,0,L|510:70,1,179.999994506836,2|0,0:0|0:0,0:0:0:0:
399,69,42447,1,0,0:0:0:0:
139,94,42635,6,0,L|19:73,1,89.9999972534181,2|0,0:0|0:0,0:0:0:0:
215,97,43010,2,0,L|335:76,1,89.9999972534181,2|0,0:0|0:0,0:0:0:0:
130,103,43385,1,6,0:3:0:0:
346,105,43760,1,6,0:3:0:0:
129,233,44135,6,0,P|85:208|138:82,1,179.999994506836,6|0,0:3|0:0,0:0:0:0:
207,96,44697,1,0,0:0:0:0:
315,96,44885,1,8,0:1:0:0:
167,93,45072,2,0,L|57:84,2,89.9999972534181,2|2|2,0:0|0:0|0:0,0:0:0:0:
334,206,45635,6,0,P|417:168|322:48,1,269.999991760254,2|2,0:0|0:0,0:0:0:0:
180,206,46385,2,0,P|97:168|192:48,1,269.999991760254,8|0,0:1|0:0,0:0:0:0:
344,147,47135,6,0,P|252:140|150:92,1,179.999994506836,2|0,0:0|0:0,0:0:0:0:
289,75,47697,1,2,0:0:0:0:
119,228,47885,2,0,P|57:177|100:93,1,179.999994506836,8|0,0:1|0:0,0:0:0:0:
201,97,48447,1,2,0:0:0:0:
364,92,48635,6,0,L|275:94,2,89.9999972534181,2|0|0,0:0|0:0|0:0,0:0:0:0:
256,91,49197,1,2,0:0:0:0:
106,176,49385,2,0,P|26:99|68:38,1,179.999994506836,8|2,0:1|0:0,0:0:0:0:
283,245,50135,5,2,0:0:0:0:
357,204,50322,1,0,0:0:0:0:
352,119,50510,1,0,0:0:0:0:
272,89,50697,1,0,0:0:0:0:
109,189,50885,5,8,0:1:0:0:
35,148,51072,1,2,0:0:0:0:
40,63,51260,1,2,0:0:0:0:
120,33,51447,1,2,0:0:0:0:
287,57,51635,6,0,L|483:53,3,179.999994506836,2|2|2|2,0:0|0:0|0:0|0:0,0:0:0:0:
151,140,53135,6,0,L|54:138,1,89.9999972534181,2|0,0:0|0:0,0:0:0:0:
178,71,53510,2,0,L|85:50,1,89.9999972534181,2|0,0:0|0:0,0:0:0:0:
366,80,53885,5,6,0:3:0:0:
186,79,54260,1,6,0:3:0:0:
392,80,54635,1,2,0:0:0:0:
176,306,55010,5,0,0:0:0:0:
140,281,55103,1,0,0:0:0:0:
128,238,55197,1,0,0:0:0:0:
146,198,55291,1,0,0:0:0:0:
204,219,55385,2,0,P|326:199|351:42,1,269.999991760254,2|0,0:0|0:0,0:0:0:0:
97,199,56135,6,0,P|33:131|175:73,1,269.999991760254,2|2,3:0|0:0,0:0:0:0:
311,189,56885,2,0,P|444:143|365:60,1,269.999991760254,10|2,0:0|0:0,0:0:0:0:
236,109,57635,6,0,B|27:100|27:100|89:38,1,269.999991760254,2|2,3:0|0:0,0:0:0:0:
236,109,58385,2,0,B|445:100|445:100|383:38,1,269.999991760254,10|2,0:0|0:0,0:0:0:0:
135,250,59135,6,0,P|49:202|150:88,1,269.999991760254,0|0,3:0|0:0,0:0:0:0:
292,251,59885,2,0,P|277:172|164:153,1,179.999994506836,10|0,0:0|0:0,0:0:0:0:
89,136,60447,1,2,0:0:0:0:
257,176,60635,6,0,P|313:120|254:34,1,179.999994506836,2|0,3:0|0:0,0:0:0:0:
165,43,61197,1,0,0:0:0:0:
323,68,61385,2,0,L|440:44,1,89.9999972534181,10|0,0:0|0:0,0:0:0:0:
152,78,61760,2,0,L|35:54,1,89.9999972534181,2|0,0:0|0:0,0:0:0:0:
342,256,62135,6,0,P|384:230|274:96,1,269.999991760254,2|2,3:0|0:0,0:0:0:0:
463,226,62885,2,0,P|479:184|310:84,1,269.999991760254,10|2,0:0|0:0,0:0:0:0:
82,251,63635,6,0,P|25:147|137:69,1,269.999991760254,2|2,3:0|0:0,0:0:0:0:
302,96,64385,2,0,P|174:133|49:72,1,269.999991760254,10|0,0:0|0:0,0:0:0:0:
334,231,65135,6,0,P|394:191|290:54,1,269.999991760254,0|2,3:0|0:0,0:0:0:0:
146,104,65885,2,0,L|444:107,1,269.999991760254,10|2,0:0|0:0,0:0:0:0:
145,229,66635,6,0,P|85:189|189:52,1,269.999991760254,2|2,3:0|0:0,0:0:0:0:
325,250,67385,1,10,0:0:0:0:
405,209,67572,1,0,0:0:0:0:
399,119,67760,1,0,0:0:0:0:
318,80,67947,1,2,0:0:0:0:
65,219,68135,6,0,P|13:153|138:39,1,269.999991760254,2|2,0:0|0:0,0:0:0:0:
285,237,68885,2,0,P|343:126|244:51,1,269.999991760254,2|2,0:0|0:0,0:0:0:0:
77,61,69635,6,0,L|366:65,1,269.999991760254,2|2,0:0|0:0,0:0:0:0:
173,239,70385,2,0,P|112:211|187:48,1,269.999991760254,2|2,0:0|0:0,0:0:0:0:
419,197,71135,6,0,P|294:153|164:181,1,269.999991760254,6|2,3:0|0:0,0:0:0:0:
309,207,71885,2,0,P|274:327|150:315,1,269.999991760254,12|2,0:0|0:0,0:0:0:0:
397,72,72635,5,6,3:0:0:0:
489,120,72822,1,0,3:0:0:0:
489,120,72916,1,0,3:0:0:0:
489,120,73010,1,0,3:0:0:0:
397,72,73197,1,2,3:0:0:0:
270,42,73385,2,0,L|158:41,1,89.9999972534181,2|0,3:0|0:0,0:0:0:0:
429,101,73760,6,0,L|508:41,1,89.9999972534181,8|0,0:0|0:0,0:0:0:0:
325,64,74135,5,0,3:0:0:0:
238,80,74322,1,0,0:0:0:0:
189,152,74510,1,8,0:1:0:0:
204,238,74697,1,0,0:0:0:0:
345,241,74885,1,2,0:0:0:0:
312,158,75072,1,0,0:0:0:0:
235,116,75260,1,8,0:1:0:0:
148,134,75447,1,0,0:0:0:0:
307,222,75635,6,0,P|315:266|307:310,1,89.9999972534181,2|0,0:0|0:0,0:0:0:0:
199,315,76010,2,0,L|293:312,1,89.9999972534181,8|0,0:1|0:0,0:0:0:0:
397,306,76385,2,0,L|471:233,2,89.9999972534181,2|0|8,0:0|0:0|0:1,0:0:0:0:
240,122,76947,1,8,0:1:0:0:
191,122,77041,1,8,0:1:0:0:
142,124,77135,6,0,L|139:7,1,89.9999972534181,2|0,0:0|0:0,0:0:0:0:
275,132,77510,2,0,L|272:15,1,89.9999972534181,8|0,0:1|0:0,0:0:0:0:
18,134,77885,2,0,L|15:17,1,89.9999972534181,2|0,0:0|0:0,0:0:0:0:
151,142,78260,2,0,L|148:25,1,89.9999972534181,8|0,0:1|0:0,0:0:0:0:
399,133,78635,6,0,P|408:176|402:221,1,89.9999972534181,2|0,0:0|0:0,0:0:0:0:
278,237,79010,2,0,P|265:279|278:322,1,89.9999972534181,8|0,0:1|0:0,0:0:0:0:
387,319,79385,2,0,L|297:319,1,89.9999972534181,2|0,0:0|0:0,0:0:0:0:
410,176,79760,2,0,P|420:219|411:263,1,89.9999972534181,8|8,0:1|0:1,0:0:0:0:
152,80,80135,6,0,L|58:51,3,89.9999972534181,8|8|8|8,0:1|0:1|0:1|0:1,0:0:0:0:
241,83,80885,2,0,L|147:54,3,89.9999972534181,8|8|8|8,0:1|0:1|0:1|0:1,0:0:0:0:
417,81,81635,6,0,L|511:52,3,89.9999972534181,8|8|8|8,0:1|0:1|0:1|0:1,0:0:0:0:
328,84,82385,2,0,L|422:55,3,89.9999972534181,8|8|8|8,0:1|0:1|0:1|0:1,0:0:0:0:
165,72,83135,6,0,L|105:71,2,44.999998626709,8|8|8,0:1|0:1|0:1,0:0:0:0:
264,72,83510,1,8,0:1:0:0:
362,72,83697,1,8,0:1:0:0:
116,211,83885,5,8,0:1:0:0:
78,189,83978,1,8,0:1:0:0:
62,148,84072,1,8,0:1:0:0:
75,106,84166,1,8,0:1:0:0:
112,81,84260,1,8,0:1:0:0:
274,81,84447,5,8,0:1:0:0:
256,192,84635,12,2,85760,0:0:0:0:
361,188,86135,6,0,L|482:170,1,89.9999972534181,0|0,3:0|0:0,0:0:0:0:
185,197,86510,2,0,L|71:160,2,89.9999972534181,2|2|8,0:0|0:0|0:0,0:0:0:0:
301,197,87072,1,0,0:0:0:0:
345,192,87166,1,0,0:0:0:0:
389,186,87260,1,0,3:0:0:0:
144,233,87447,6,0,P|91:171|152:117,1,179.999994506836,2|2,3:0|0:0,0:0:0:0:
317,98,88010,1,2,0:0:0:0:
171,98,88197,2,0,L|117:97,2,44.999998626709,0|0|8,3:0|0:0|0:0,0:0:0:0:
279,98,88572,1,2,0:0:0:0:
106,104,88760,2,0,L|-21:94,1,89.9999972534181,2|2,0:0|0:0,0:0:0:0:
289,149,89135,6,0,P|312:108|292:69,1,89.9999972534181,0|0,3:0|3:0,0:0:0:0:
233,62,89416,1,0,3:0:0:0:
175,60,89510,1,2,3:0:0:0:
343,64,89697,2,0,L|426:66,2,44.999998626709,2|2|10,0:0|0:0|0:0,0:0:0:0:
170,214,90072,5,0,0:0:0:0:
133,190,90165,1,0,0:0:0:0:
117,149,90259,1,8,3:1:0:0:
129,107,90353,1,0,0:0:0:0:
165,81,90447,1,2,3:0:0:0:
333,76,90635,5,2,0:0:0:0:
283,73,90728,1,2,0:0:0:0:
233,72,90822,1,2,0:0:0:0:
382,85,91010,2,0,L|495:68,1,89.9999972534181,2|0,0:0|3:0,0:0:0:0:
197,143,91385,5,8,0:0:0:0:
377,141,91760,1,8,0:0:0:0:
187,251,92135,6,0,P|132:192|195:141,1,179.999994506836,0|2,3:0|0:0,0:0:0:0:
326,137,92697,1,2,0:0:0:0:
197,95,92885,2,0,L|108:97,2,89.9999972534181,8|8|8,0:0|0:1|0:1,0:0:0:0:
322,89,93447,1,0,3:0:0:0:
406,120,93635,1,8,0:1:0:0:
443,201,93822,1,8,0:1:0:0:
317,213,94010,6,0,L|206:209,1,89.9999972534181,2|2,0:0|0:0,0:0:0:0:
88,163,94385,2,0,L|88:216,2,44.999998626709,8|0|0,0:0|0:0|0:0,0:0:0:0:
347,129,94760,6,0,L|449:129,1,89.9999972534181,2|2,0:0|0:0,0:0:0:0:
256,192,95135,12,0,96260,0:0:0:0:
332,327,96635,5,0,0:0:0:0:
287,250,96822,1,0,0:0:0:0:
208,210,97010,1,0,0:0:0:0:
120,220,97197,1,0,3:0:0:0:
246,185,97385,2,0,L|344:158,1,89.9999972534181,8|0,0:0|0:0,0:0:0:0:
160,186,97760,2,0,L|62:159,1,89.9999972534181,8|0,0:0|0:0,0:0:0:0:
346,246,98135,6,0,P|394:197|317:105,1,179.999994506836,0|2,3:0|0:0,0:0:0:0:
191,107,98697,1,2,0:0:0:0:
360,117,98885,2,0,L|270:117,2,89.9999972534181,8|8|8,0:0|0:1|0:0,0:0:0:0:
81,73,99447,2,0,L|36:73,2,44.999998626709,0|0|2,0:3|0:0|0:0,0:0:0:0:
224,74,99822,1,2,0:0:0:0:
107,74,100010,1,2,0:0:0:0:
272,224,100197,5,0,3:0:0:0:
314,212,100290,1,0,0:0:0:0:
344,179,100384,1,8,0:0:0:0:
352,135,100478,1,0,0:0:0:0:
335,94,100572,1,0,0:0:0:0:
299,68,100665,1,0,0:0:0:0:
251,68,100760,1,2,0:0:0:0:
130,70,100947,1,2,0:0:0:0:
406,168,101134,6,0,P|468:115|418:51,1,179.999994506836,0|2,3:0|0:0,0:0:0:0:
265,53,101697,1,2,0:0:0:0:
431,55,101885,2,0,L|341:57,2,89.9999972534181,8|2|8,0:0|0:0|0:1,0:0:0:0:
275,64,102447,5,0,3:0:0:0:
125,58,102635,2,0,L|80:55,2,44.999998626709,2|2|2,0:0|0:0|0:0,0:0:0:0:
274,152,103010,1,2,0:0:0:0:
329,136,103103,1,0,0:0:0:0:
385,120,103197,1,0,3:0:0:0:
128,76,103385,5,8,0:0:0:0:
309,67,103760,1,8,0:0:0:0:
128,239,104135,6,0,L|133:149,1,89.9999972534181,0|0,3:0|3:0,0:0:0:0:
191,123,104416,1,0,3:0:0:0:
251,106,104510,1,2,3:0:0:0:
77,87,104697,2,0,L|32:85,2,44.999998626709,8|8|10,0:1|0:1|0:0,0:0:0:0:
243,198,105072,5,0,0:0:0:0:
280,174,105165,1,0,0:0:0:0:
296,133,105259,1,8,0:1:0:0:
284,91,105353,1,0,0:0:0:0:
248,65,105447,1,2,3:0:0:0:
100,66,105635,5,2,0:0:0:0:
149,64,105728,1,2,0:0:0:0:
198,61,105822,1,2,0:0:0:0:
365,70,106010,2,0,L|453:56,1,89.9999972534181,2|0,0:0|3:0,0:0:0:0:
173,79,106385,5,8,0:0:0:0:
360,74,106760,1,8,0:0:0:0:
178,205,107134,6,0,P|117:149|182:72,1,179.999994506836,0|2,3:0|0:0,0:0:0:0:
317,88,107697,1,2,0:0:0:0:
141,89,107885,2,0,L|230:87,2,89.9999972534181,8|8|0,0:0|0:0|0:0,0:0:0:0:
256,192,108447,12,2,109760,0:0:0:0:
153,293,110135,6,0,P|83:192|179:115,1,269.999991760254,4|0,3:0|0:0,0:0:0:0:
328,118,110885,1,8,0:1:0:0:
204,135,111073,2,0,L|114:132,2,89.9999972534181,2|2|2,0:0|0:0|0:0,0:0:0:0:
382,144,111635,6,0,L|383:244,1,89.9999972534181,2|0,0:0|0:0,0:0:0:0:
289,236,112010,2,0,L|378:238,1,89.9999972534181,0|2,0:0|0:0,0:0:0:0:
121,142,112385,2,0,L|31:144,2,89.9999972534181,2|0|0,0:0|0:0|0:0,0:0:0:0:
224,138,112947,1,0,0:0:0:0:
392,256,113135,6,0,P|460:155|358:91,1,269.999991760254,2|2,0:0|0:0,0:0:0:0:
187,120,113885,2,0,L|456:118,1,269.999991760254,2|2,0:0|0:0,0:0:0:0:
285,269,114635,6,0,P|208:172|297:88,1,269.999991760254,2|2,0:0|0:0,0:0:0:0:
130,196,115385,2,0,P|104:113|160:47,1,179.999994506836,2|2,0:0|0:0,0:0:0:0:
410,273,116136,6,0,P|466:128|311:110,1,359.999989013672,6|8,0:0|0:1,0:0:0:0:
163,112,117072,2,0,L|73:111,2,89.9999972534181,2|2|2,0:0|0:0|0:0,0:0:0:0:
335,108,117635,6,0,L|155:103,3,179.999994506836,2|2|2|2,0:0|0:0|0:0|0:0,0:0:0:0:
331,192,119135,6,0,L|331:293,1,89.9999972534181,2|0,0:0|0:0,0:0:0:0:
465,169,119510,2,0,L|376:163,1,89.9999972534181,2|0,0:0|0:0,0:0:0:0:
130,138,119885,5,8,0:1:0:0:
312,130,120260,1,8,0:1:0:0:
104,138,120635,1,8,0:1:0:0:
338,306,121010,5,0,0:0:0:0:
374,281,121103,1,0,0:0:0:0:
386,238,121197,1,0,0:0:0:0:
368,198,121291,1,0,0:0:0:0:
305,217,121385,2,0,P|180:193|145:70,1,269.999991760254,2|0,0:0|0:0,0:0:0:0:
404,233,122135,6,0,P|494:153|408:68,1,269.999991760254,2|2,3:0|0:0,0:0:0:0:
234,66,122885,2,0,L|503:66,1,269.999991760254,10|2,0:0|0:0,0:0:0:0:
330,214,123635,6,0,P|240:134|326:49,1,269.999991760254,2|2,3:0|0:0,0:0:0:0:
66,229,124385,2,0,P|33:107|142:44,1,269.999991760254,8|2,0:0|0:0,0:0:0:0:
416,235,125135,6,0,P|506:155|420:70,1,269.999991760254,2|0,3:0|0:0,0:0:0:0:
246,79,125885,2,0,L|425:75,1,179.999994506836,10|0,0:0|0:0,0:0:0:0:
323,73,126447,1,2,0:0:0:0:
152,175,126635,6,0,P|97:113|153:53,1,179.999994506836,2|0,3:0|0:0,0:0:0:0:
283,57,127197,1,0,0:0:0:0:
125,82,127385,2,0,L|36:63,1,89.9999972534181,2|0,0:0|0:0,0:0:0:0:
296,92,127760,2,0,L|384:73,1,89.9999972534181,2|0,0:0|0:0,0:0:0:0:
111,279,128135,6,0,P|41:176|123:82,1,269.999991760254,2|2,3:0|0:0,0:0:0:0:
325,272,128885,2,0,P|395:169|313:75,1,269.999991760254,10|2,0:0|0:0,0:0:0:0:
141,84,129635,6,0,L|410:75,1,269.999991760254,2|2,3:0|0:0,0:0:0:0:
240,118,130385,2,0,B|109:161|109:161|62:37,1,269.999991760254,8|2,0:0|0:0,0:0:0:0:
343,237,131135,6,0,P|409:134|309:63,1,269.999991760254,2|2,3:0|0:0,0:0:0:0:
136,241,131885,2,0,P|70:138|170:67,1,269.999991760254,10|2,0:0|0:0,0:0:0:0:
425,112,132635,6,0,B|493:140|493:140|299:175,1,269.999991760254,2|2,3:0|0:0,0:0:0:0:
128,247,133385,1,10,0:0:0:0:
54,204,133572,1,0,0:0:0:0:
54,118,133760,1,2,0:0:0:0:
128,76,133947,1,2,0:0:0:0:
390,213,134135,6,0,P|455:111|352:47,1,269.999991760254,2|2,0:0|0:0,0:0:0:0:
184,45,134885,2,0,P|288:128|420:123,1,269.999991760254,2|2,0:0|0:0,0:0:0:0:
252,229,135635,6,0,P|187:127|290:63,1,269.999991760254,2|2,0:0|0:0,0:0:0:0:
114,241,136385,2,0,P|146:121|269:136,1,269.999991760254,2|2,0:0|0:0,0:0:0:0:
441,125,137135,6,0,L|171:123,1,269.999991760254,2|2,0:0|0:0,0:0:0:0:
341,232,137885,2,0,P|428:145|343:56,1,269.999991760254,2|2,0:0|0:0,0:0:0:0:
165,115,138635,6,0,L|434:113,1,269.999991760254,2|2,0:0|0:0,0:0:0:0:
264,222,139385,1,2,0:0:0:0:
256,192,139760,12,0,143510,0:0:0:0:
