osu file format v14

[General]
AudioFilename: audio.mp3
AudioLeadIn: 0
PreviewTime: 78029
Countdown: 0
SampleSet: Normal
StackLeniency: 0.8
Mode: 0
LetterboxInBreaks: 0
WidescreenStoryboard: 0

[Editor]
DistanceSpacing: 4.5
BeatDivisor: 4
GridSize: 4
TimelineZoom: 1

[Metadata]
Title:Myosotis
TitleUnicode:Myosotis
Artist:M2U Ft. Guriri & Lucy
ArtistUnicode:M2U Ft. Guriri & Lucy
Creator:Gliscorus
Version:Save Us
Source:Deemo
Tags:M2U Ft. Guriri & Lucy Myosotis Save Us
BeatmapID:1076895
BeatmapSetID:506267

[Difficulty]
HPDrainRate:8
CircleSize:4
OverallDifficulty:7
ApproachRate:9.5
SliderMultiplier:1.25
SliderTickRate:1

[Events]
//Background and Video events
0,0,"Myosotis_Full.jpg",0,0
//Break Periods
//Storyboard Layer 0 (Background)
//Storyboard Layer 1 (Fail)
//Storyboard Layer 2 (Pass)
//Storyboard Layer 3 (Foreground)
//Storyboard Sound Samples

[TimingPoints]
29,375.002343764649,4,1,0,40,1,0
15779,-100,4,1,0,40,0,0
19529,-66.6666666666667,4,1,0,40,0,0
24591,-100,4,1,0,40,0,0
25529,-66.6666666666667,4,1,0,40,0,0
30029,-200,4,1,0,40,0,0
30685,-66.6666666666667,4,1,0,40,0,0
73529,-80,4,1,0,40,0,0
75029,-133.333333333333,4,1,0,40,0,0
75779,-133.333333333333,4,1,0,100,0,0
78779,-50,4,1,0,100,0,1
80654,-200,4,1,0,100,0,1
81779,-50,4,1,0,100,0,1
87967,-200,4,1,0,100,0,1
89092,-50,4,1,0,100,0,1
96310,-200,4,1,0,100,0,1
96779,-50,4,1,0,100,0,1
102029,-66.6666666666667,4,1,0,40,0,0
127529,-133.333333333333,4,1,0,40,0,0
128279,-133.333333333333,4,1,0,100,0,0

[HitObjects]
92,128,1529,5,0,0:0:0:0:
240,146,2279,1,0,0:0:0:0:
379,89,3029,6,0,P|401:135|377:204,1,125
269,142,3779,2,0,P|232:172|200:253,1,125
190,366,4529,2,0,B|248:359|313:348|338:269,1,187.5
363,200,5279,1,0,0:0:0:0:
356,125,5654,1,0,0:0:0:0:
338,52,6029,6,0,P|280:39|210:95,1,125
145,165,6779,1,0,0:0:0:0:
319,234,7154,1,0,0:0:0:0:
150,315,7529,6,0,P|217:346|281:335,2,125
74,215,8654,1,0,0:0:0:0:
157,122,9029,2,0,B|199:93|271:64|355:82|397:126,1,250
479,208,10154,1,0,0:0:0:0:
450,329,10529,1,0,0:0:0:0:
450,329,11279,6,0,P|403:346|314:334,1,125
214,290,12029,1,0,0:0:0:0:
142,220,12779,1,0,0:0:0:0:
256,192,13529,12,0,15029,0:0:0:0:
163,97,15404,6,0,P|152:129|166:173,1,62.5
213,231,15779,2,0,P|266:254|291:248,1,62.5
358,224,16154,2,0,P|407:218|437:237,1,62.5
495,275,16529,1,0,0:0:0:0:
376,91,16716,1,0,0:0:0:0:
158,61,16904,5,0,0:0:0:0:
174,107,16997,1,0,0:0:0:0:
208,143,17091,1,0,0:0:0:0:
254,162,17185,1,0,0:0:0:0:
331,172,17279,5,0,0:0:0:0:
370,201,17372,1,0,0:0:0:0:
400,240,17466,1,0,0:0:0:0:
422,284,17560,1,0,0:0:0:0:
451,356,17654,5,0,0:0:0:0:
401,356,17747,1,0,0:0:0:0:
351,347,17841,1,0,0:0:0:0:
305,325,17935,1,0,0:0:0:0:
301,246,18029,5,0,0:0:0:0:
299,196,18122,1,0,0:0:0:0:
284,147,18216,1,0,0:0:0:0:
249,110,18310,1,0,0:0:0:0:
170,109,18404,5,0,0:0:0:0:
195,151,18497,1,0,0:0:0:0:
233,182,18591,1,0,0:0:0:0:
278,201,18685,1,0,0:0:0:0:
355,212,18779,6,0,L|382:212,7,15.625
448,217,19154,2,0,L|466:220,7,15.625
461,160,19529,6,0,P|421:115|377:100,1,93.7500035762788
213,118,19904,1,0,0:0:0:0:
379,55,20091,1,0,0:0:0:0:
380,233,20279,2,0,P|350:282|305:286,1,93.7500035762788
142,252,20654,1,0,0:0:0:0:
267,126,20841,1,0,0:0:0:0:
441,164,21029,2,0,P|439:222|403:238,1,93.7500035762788
237,272,21404,1,0,0:0:0:0:
237,272,21591,2,4,L|206:287,4,23.4375008940697
333,214,21966,5,0,0:0:0:0:
347,102,22154,1,0,0:0:0:0:
252,42,22341,1,0,0:0:0:0:
151,92,22529,1,0,0:0:0:0:
148,204,22716,5,0,0:0:0:0:
184,246,22810,1,0,0:0:0:0:
235,268,22904,1,0,0:0:0:0:
290,272,22997,1,0,0:0:0:0:
345,208,23091,5,0,0:0:0:0:
314,160,23185,1,0,0:0:0:0:
272,122,23279,1,0,0:0:0:0:
219,103,23372,1,0,0:0:0:0:
203,186,23466,5,0,0:0:0:0:
237,230,23560,1,0,0:0:0:0:
291,244,23654,1,0,0:0:0:0:
345,231,23747,1,0,0:0:0:0:
429,240,23841,5,0,0:0:0:0:
404,290,23935,1,0,0:0:0:0:
355,319,24029,1,0,0:0:0:0:
300,330,24122,1,0,0:0:0:0:
215,327,24216,5,0,0:0:0:0:
159,318,24310,1,0,0:0:0:0:
113,284,24404,1,0,0:0:0:0:
93,231,24497,1,0,0:0:0:0:
87,174,24591,1,0,0:0:0:0:
91,117,24685,1,0,0:0:0:0:
107,63,24779,2,0,P|127:26|185:5,1,93.75
218,37,25154,2,0,P|257:58|321:51,1,93.75
387,36,25529,6,0,P|405:88|369:139,1,93.7500035762788
259,251,25904,1,0,0:0:0:0:
488,295,26091,1,0,0:0:0:0:
433,115,26279,2,0,P|393:78|346:63,1,93.7500035762788
172,103,26654,1,0,0:0:0:0:
354,62,26841,1,0,0:0:0:0:
494,186,27029,2,0,P|473:251|434:266,1,93.7500035762788
266,249,27404,1,0,0:0:0:0:
451,274,27591,1,0,0:0:0:0:
354,112,27779,5,0,0:0:0:0:
300,67,27966,1,0,0:0:0:0:
229,59,28154,1,0,0:0:0:0:
170,97,28341,1,0,0:0:0:0:
133,233,28529,1,0,0:0:0:0:
359,173,28716,5,0,0:0:0:0:
388,221,28810,1,0,0:0:0:0:
395,276,28904,1,0,0:0:0:0:
377,329,28997,1,0,0:0:0:0:
333,364,29091,1,0,0:0:0:0:
276,359,29185,1,0,0:0:0:0:
239,315,29279,1,0,0:0:0:0:
239,259,29372,1,0,0:0:0:0:
255,205,29466,1,0,0:0:0:0:
296,167,29560,1,0,0:0:0:0:
350,152,29654,1,0,0:0:0:0:
404,163,29747,1,0,0:0:0:0:
434,210,29841,1,0,0:0:0:0:
427,266,29935,1,0,0:0:0:0:
393,311,30029,2,0,P|348:335|306:335,1,93.75
252,316,30685,5,0,0:0:0:0:
216,272,30779,1,0,0:0:0:0:
181,227,30872,2,0,L|150:189,1,46.8750017881394
380,127,31060,2,0,L|413:91,1,46.8750017881394
176,91,31247,2,0,L|145:129,1,46.8750017881394
112,173,31435,1,0,0:0:0:0:
256,192,31529,12,0,32654,0:0:0:0:
387,118,33029,5,0,0:0:0:0:
162,129,33404,1,0,0:0:0:0:
461,238,33779,2,0,P|432:278|380:293,1,93.7500035762788
208,251,34154,1,0,0:0:0:0:
386,306,34341,1,0,0:0:0:0:
343,122,34529,1,0,0:0:0:0:
343,122,34904,6,0,P|285:100|249:111,1,93.7500035762788
118,235,35279,1,0,0:0:0:0:
488,291,35654,1,0,0:0:0:0:
326,60,36029,6,0,P|248:58|214:157,1,187.500007152558
440,310,36779,2,0,P|432:243|346:155,1,187.500007152558
215,129,37341,1,0,0:0:0:0:
144,251,37529,2,0,P|198:289|316:282,1,187.500007152558
435,210,38091,1,0,0:0:0:0:
360,90,38279,2,0,P|285:73|162:93,1,187.500007152558
62,344,39029,5,0,0:0:0:0:
343,346,39404,1,0,0:0:0:0:
428,78,39779,2,0,P|330:57|314:63,2,93.7500035762788
470,212,40529,2,0,P|437:263|315:292,1,187.500007152558
113,101,41279,1,0,0:0:0:0:
393,79,41654,2,0,P|423:132|436:193,1,93.7500035762788
291,173,42029,2,0,B|254:211|254:211|325:232|325:232|306:268|265:293,1,187.500007152558
123,48,42779,2,0,B|185:64|185:64|155:100|199:155|261:125,1,187.500007152558
456,320,43529,6,0,P|468:252|436:216,1,93.7500035762788
284,156,43904,1,0,0:0:0:0:
460,212,44091,1,0,0:0:0:0:
383,40,44279,2,0,P|334:36|282:71,1,93.7500035762788
166,192,44654,1,0,0:0:0:0:
352,206,44841,1,0,0:0:0:0:
444,42,45029,6,0,P|359:29|330:49,1,93.7500035762788
189,118,45404,1,0,0:0:0:0:
362,47,45591,1,0,0:0:0:0:
409,228,45779,2,0,P|383:278|332:313,1,93.7500035762788
168,276,46154,1,0,0:0:0:0:
237,102,46341,1,0,0:0:0:0:
395,203,46529,6,0,P|367:253|328:264,2,93.7500035762788
357,19,47091,1,0,0:0:0:0:
395,203,47279,2,0,P|367:253|328:264,2,93.7500035762788
357,19,47841,1,0,0:0:0:0:
395,203,48029,6,0,P|367:253|328:264,2,93.7500035762788
357,19,48591,1,0,0:0:0:0:
394,203,48779,2,0,P|352:265|301:283,1,93.7500035762788
151,302,49154,2,0,P|92:264|90:205,1,93.7500035762788
184,84,49529,6,0,P|237:81|275:100,1,93.7500035762788
400,236,49904,1,0,0:0:0:0:
289,85,50091,1,0,0:0:0:0:
115,157,50279,2,0,L|155:245,1,93.7500035762788
220,66,50654,1,0,0:0:0:0:
297,236,50841,1,0,0:0:0:0:
460,143,51029,6,0,L|357:109,1,93.7500035762788
197,186,51404,1,0,0:0:0:0:
376,239,51591,1,0,0:0:0:0:
370,51,51779,2,0,P|436:86|448:124,1,93.7500035762788
461,287,52154,1,0,0:0:0:0:
449,100,52341,1,0,0:0:0:0:
267,51,52529,6,0,P|215:62|184:91,1,93.7500035762788
369,130,52904,2,0,P|417:168|435:209,1,93.7500035762788
244,173,53279,2,0,P|182:168|165:133,1,93.7500035762788
323,250,53654,2,0,P|370:246|415:212,1,93.7500035762788
244,312,54029,6,0,B|194:290|151:207|205:149,1,187.500007152558
385,128,54591,1,0,0:0:0:0:
200,164,54779,1,0,0:0:0:0:
375,229,54966,1,0,0:0:0:0:
427,249,55060,1,0,0:0:0:0:
479,269,55154,1,0,0:0:0:0:
479,269,55341,1,0,0:0:0:0:
468,156,55529,6,0,P|424:107|390:106,1,93.7500035762788
171,162,55904,1,0,0:0:0:0:
397,102,56091,1,0,0:0:0:0:
439,333,56279,2,0,P|397:353|341:354,1,93.7500035762788
140,250,56654,1,0,0:0:0:0:
372,228,56841,1,0,0:0:0:0:
188,81,57029,6,0,P|152:116|141:160,1,93.7500035762788
307,322,57404,1,0,0:0:0:0:
123,177,57591,1,0,0:0:0:0:
350,116,57779,2,0,L|417:193,1,93.7500035762788
183,130,58154,1,0,0:0:0:0:
325,315,58341,1,0,0:0:0:0:
424,102,58529,6,0,L|299:87,2,93.7500035762788
191,77,59091,1,0,0:0:0:0:
424,102,59279,2,0,L|299:87,2,93.7500035762788
191,77,59841,1,0,0:0:0:0:
424,102,60029,6,0,L|299:87,2,93.7500035762788
191,77,60591,1,0,0:0:0:0:
333,94,60779,2,0,L|436:106,1,93.7500035762788
145,72,61154,2,0,L|248:84,1,93.7500035762788
64,305,61529,6,0,P|123:338|172:326,1,93.7500035762788
283,145,61904,1,0,0:0:0:0:
436,321,62091,1,0,0:0:0:0:
441,86,62279,2,0,P|386:70|327:70,1,93.7500035762788
466,272,62654,1,0,0:0:0:0:
240,209,62841,1,0,0:0:0:0:
442,90,63029,6,0,P|383:63|355:73,1,93.7500035762788
158,194,63404,1,0,0:0:0:0:
158,194,63591,1,0,0:0:0:0:
378,276,63779,2,0,P|419:231|410:187,1,93.7500035762788
245,40,64154,1,0,0:0:0:0:
131,244,64341,1,0,0:0:0:0:
338,133,64529,6,0,L|417:63,1,93.7500035762788
199,178,64904,2,0,L|112:114,1,93.7500035762788
337,219,65279,2,0,L|419:144,1,93.7500035762788
187,241,65654,2,0,L|94:179,1,93.7500035762788
372,89,66029,5,0,0:0:0:0:
371,306,66404,1,0,0:0:0:0:
136,315,66779,1,0,0:0:0:0:
137,81,67154,1,0,0:0:0:0:
410,201,67529,5,0,0:0:0:0:
256,353,67904,1,0,0:0:0:0:
84,194,68279,1,0,0:0:0:0:
250,29,68654,1,0,0:0:0:0:
372,89,69029,5,0,0:0:0:0:
371,306,69216,1,0,0:0:0:0:
136,315,69404,1,0,0:0:0:0:
137,81,69591,1,0,0:0:0:0:
410,201,69779,5,0,0:0:0:0:
256,353,69966,1,0,0:0:0:0:
84,194,70154,1,0,0:0:0:0:
250,29,70341,1,0,0:0:0:0:
410,201,70529,5,0,0:0:0:0:
377,246,70623,1,0,0:0:0:0:
334,281,70716,1,0,0:0:0:0:
282,305,70810,1,0,0:0:0:0:
226,314,70904,1,0,0:0:0:0:
169,311,70998,1,0,0:0:0:0:
122,280,71091,1,0,0:0:0:0:
103,226,71185,1,0,0:0:0:0:
101,169,71279,1,0,0:0:0:0:
120,115,71373,1,0,0:0:0:0:
161,78,71466,1,0,0:0:0:0:
214,60,71560,1,0,0:0:0:0:
270,64,71654,1,0,0:0:0:0:
181,270,72029,6,0,P|165:208|187:172,1,93.7500035762788
385,76,72404,1,0,0:0:0:0:
172,174,72591,1,0,0:0:0:0:
379,283,72779,2,0,P|397:222|377:179,1,93.7500035762788
220,360,73154,1,0,0:0:0:0:
218,126,73341,1,0,0:0:0:0:
411,99,73529,6,0,P|422:137|345:222,1,156.25
238,116,74279,2,0,P|190:133|144:238,1,156.25
213,283,75029,6,0,B|255:308|299:206|299:206|222:177|210:146|235:107|235:107|166:139|157:182|163:196|171:202|171:202|195:226|137:251|137:251|136:307|148:353|210:371|266:361|297:340|328:289,1,750.000028610231
375,88,78779,5,0,0:0:0:0:
125,97,79154,2,0,P|95:171|153:245,1,125
228,109,79435,2,0,L|337:41,1,125
281,190,79716,2,0,P|244:248|188:273,1,125
131,275,79998,1,0,0:0:0:0:
68,275,80092,1,0,0:0:0:0:
6,276,80185,1,0,0:0:0:0:
58,162,80279,5,0,0:0:0:0:
94,110,80373,1,0,0:0:0:0:
138,65,80467,1,0,0:0:0:0:
194,38,80560,1,0,0:0:0:0:
221,181,80654,2,0,P|245:204|284:211,1,62.5
397,70,81217,1,0,0:0:0:0:
457,247,81404,1,0,0:0:0:0:
75,99,81779,5,0,0:0:0:0:
258,140,81967,1,0,0:0:0:0:
124,271,82154,1,0,0:0:0:0:
309,300,82342,2,0,B|343:269|343:269|303:244|303:244|338:234|356:207|354:173,1,187.5
344,112,82717,1,0,0:0:0:0:
373,296,82904,2,0,P|300:309|225:291,1,125
253,112,83279,2,0,P|179:119|150:163,1,125
235,199,83560,2,0,L|365:206,1,125
422,211,83842,1,0,0:0:0:0:
204,89,84029,6,0,L|139:62,1,62.5
329,236,84310,2,0,P|397:248|401:120,1,187.5
195,81,84779,2,0,L|137:200,1,125
368,90,85154,6,0,P|412:146|402:212,1,125
286,170,85435,2,0,L|285:300,1,125
210,99,85717,2,0,P|164:150|145:214,1,125
137,264,85998,1,0,0:0:0:0:
124,325,86092,1,0,0:0:0:0:
264,203,86185,5,0,0:0:0:0:
259,265,86279,1,0,0:0:0:0:
259,327,86373,1,0,0:0:0:0:
378,182,86467,5,0,0:0:0:0:
393,241,86560,1,0,0:0:0:0:
411,300,86654,2,0,B|348:263|312:288|234:343|201:239,1,187.5
180,248,87029,6,0,P|176:179|205:122,1,125
331,263,87404,2,0,P|393:285|457:265,1,125
503,241,87685,1,0,0:0:0:0:
450,126,87779,1,0,0:0:0:0:
257,322,87967,2,0,P|285:335|324:326,2,62.5
173,272,88904,1,0,0:0:0:0:
212,88,89092,2,0,B|277:54|277:54|292:115|292:115|325:82|421:186,1,250
229,251,89654,2,0,L|346:328,1,125
389,140,90029,6,0,B|346:60|318:111|195:98,1,187.5
155,241,90404,2,0,L|337:322,1,187.5
389,174,90779,1,0,0:0:0:0:
389,174,90967,1,0,0:0:0:0:
89,88,91154,5,0,0:0:0:0:
92,150,91248,1,0,0:0:0:0:
109,210,91342,1,0,0:0:0:0:
157,248,91435,2,0,B|219:273|219:273|214:204|268:187,1,125
273,171,91717,2,0,B|298:156|298:156|283:195|296:280,1,125
298,313,91998,1,0,0:0:0:0:
299,375,92092,1,0,0:0:0:0:
392,214,92185,5,0,0:0:0:0:
338,181,92279,1,0,0:0:0:0:
284,148,92373,1,0,0:0:0:0:
164,293,92467,5,0,0:0:0:0:
224,304,92560,1,0,0:0:0:0:
284,320,92654,1,0,0:0:0:0:
265,70,93029,6,0,B|268:146|268:146|320:95|389:104,1,187.5
427,148,93404,2,0,P|364:206|242:211,1,187.5
303,98,93779,1,0,0:0:0:0:
332,153,93873,1,0,0:0:0:0:
364,206,93967,1,0,0:0:0:0:
394,259,94060,1,0,0:0:0:0:
429,310,94154,2,0,L|339:328,1,62.5
304,320,94342,6,0,B|226:306|254:277|217:161,1,187.5
196,112,94717,1,0,0:0:0:0:
382,100,94904,2,0,P|448:138|466:208,1,125
285,127,95279,2,0,P|230:72|168:59,1,125
170,152,95560,2,0,B|100:166|100:166|101:224,1,125
227,226,95842,2,0,L|325:323,1,125
390,213,96310,2,0,P|384:192|360:164,1,46.875
131,94,96779,6,0,P|120:162|153:234,1,125
255,120,97154,1,0,0:0:0:0:
255,182,97248,1,0,0:0:0:0:
255,244,97342,1,0,0:0:0:0:
255,305,97435,2,0,P|184:305|139:253,1,125
185,183,97717,2,0,P|215:220|292:202,1,125
336,173,97998,1,0,0:0:0:0:
387,138,98092,1,0,0:0:0:0:
281,72,98185,5,0,0:0:0:0:
228,104,98279,1,0,0:0:0:0:
176,136,98373,1,0,0:0:0:0:
391,259,98467,5,0,0:0:0:0:
443,225,98560,1,0,0:0:0:0:
497,194,98654,1,0,0:0:0:0:
81,103,99029,6,0,P|40:161|107:248,1,187.5
158,264,99404,2,0,L|246:256,1,62.5
383,108,99592,2,0,L|314:109,1,62.5
101,104,99779,1,0,0:0:0:0:
394,212,99967,1,0,0:0:0:0:
192,113,100154,5,0,0:0:0:0:
163,168,100248,1,0,0:0:0:0:
152,229,100342,1,0,0:0:0:0:
159,290,100435,1,0,0:0:0:0:
188,345,100529,1,0,0:0:0:0:
323,62,100717,6,0,B|390:75|390:75|332:134|332:134|399:129|399:226,1,250
256,192,101279,12,0,102029,0:0:0:0:
225,78,102404,6,0,P|165:115|166:200,1,140.625005364418
173,223,102779,1,0,0:0:0:0:
204,257,102873,1,0,0:0:0:0:
248,273,102967,1,0,0:0:0:0:
294,268,103060,1,0,0:0:0:0:
336,247,103154,1,0,0:0:0:0:
218,100,103529,5,0,0:0:0:0:
403,124,103904,2,0,P|439:156|447:208,2,93.7500035762788
282,267,104654,2,0,P|221:295|182:294,1,93.7500035762788
84,143,105029,2,0,P|127:92|168:96,1,93.7500035762788
323,161,105404,1,0,0:0:0:0:
149,90,105592,5,0,0:0:0:0:
139,145,105685,1,0,0:0:0:0:
153,199,105779,2,0,P|214:229|262:228,1,93.7500035762788
418,176,106154,1,0,0:0:0:0:
238,230,106342,1,0,0:0:0:0:
109,94,106529,6,0,P|152:51|270:60,1,187.500007152558
270,60,107279,1,0,0:0:0:0:
270,60,107842,1,0,0:0:0:0:
270,60,108029,1,0,0:0:0:0:
270,60,108404,6,0,P|332:60|362:86,1,93.7500035762788
407,258,108779,1,0,0:0:0:0:
357,76,108967,1,0,0:0:0:0:
247,227,109154,1,0,0:0:0:0:
464,138,109342,1,0,0:0:0:0:
240,70,109529,6,0,P|200:104|186:151,2,93.7500035762788
293,200,110092,1,0,0:0:0:0:
319,238,110185,1,0,0:0:0:0:
354,269,110279,2,0,P|407:288|450:280,2,93.7500035762788
215,141,110842,1,0,0:0:0:0:
380,53,111029,6,0,P|434:98|447:135,1,93.7500035762788
162,91,111404,2,0,L|165:202,1,93.7500035762788
433,100,111779,2,0,L|439:206,1,93.7500035762788
187,64,112154,2,0,P|136:91|102:133,1,93.7500035762788
390,160,112529,2,0,B|388:202|388:202|339:178|294:251|286:254|286:254|235:161|211:158,1,281.250010728836
163,147,113185,1,0,0:0:0:0:
111,169,113279,1,0,0:0:0:0:
111,169,113654,6,0,P|92:224|117:262,1,93.7500035762788
341,260,114029,1,0,0:0:0:0:
106,252,114217,1,0,0:0:0:0:
342,197,114404,1,0,0:0:0:0:
88,185,114592,1,0,0:0:0:0:
344,131,114779,1,0,0:0:0:0:
62,118,114967,1,0,0:0:0:0:
357,68,115154,5,0,0:0:0:0:
404,97,115248,1,0,0:0:0:0:
434,144,115342,1,0,0:0:0:0:
443,199,115435,1,0,0:0:0:0:
426,252,115529,2,0,P|379:273|325:273,1,93.7500035762788
219,71,115904,1,0,0:0:0:0:
165,88,115998,1,0,0:0:0:0:
127,174,116092,1,0,0:0:0:0:
173,204,116185,1,0,0:0:0:0:
226,222,116279,1,0,0:0:0:0:
226,222,116654,1,0,0:0:0:0:
256,192,117029,12,0,118154,0:0:0:0:
383,78,118529,6,0,P|431:134|432:173,1,93.7500035762788
337,254,118904,1,0,0:0:0:0:
431,149,119092,1,0,0:0:0:0:
309,62,119279,2,0,P|242:60|198:83,1,93.7500035762788
135,195,119654,1,0,0:0:0:0:
217,69,119842,1,0,0:0:0:0:
293,208,120029,6,0,P|329:247|374:255,1,93.7500035762788
430,108,120404,1,0,0:0:0:0:
367,254,120592,1,0,0:0:0:0:
212,321,120779,2,0,P|154:307|130:269,1,93.7500035762788
160,114,121154,1,0,0:0:0:0:
137,281,121342,1,0,0:0:0:0:
256,137,121529,6,0,P|291:103|343:78,1,93.7500035762788
502,6,121904,1,0,0:0:0:0:
329,81,122092,1,0,0:0:0:0:
444,227,122279,2,0,P|436:280|385:296,1,93.7500035762788
249,189,122654,1,0,0:0:0:0:
401,299,122842,1,0,0:0:0:0:
386,112,123029,5,0,0:0:0:0:
153,143,123217,1,0,0:0:0:0:
369,230,123404,1,0,0:0:0:0:
146,306,123592,1,0,0:0:0:0:
258,101,123779,1,0,0:0:0:0:
329,324,123967,1,0,0:0:0:0:
154,168,124154,1,0,0:0:0:0:
387,139,124342,1,0,0:0:0:0:
163,70,124529,6,0,P|97:97|83:122,1,93.7500035762788
320,135,124904,1,0,0:0:0:0:
128,271,125092,1,0,0:0:0:0:
349,314,125279,2,0,P|415:287|429:262,1,93.7500035762788
192,249,125654,1,0,0:0:0:0:
384,113,125842,1,0,0:0:0:0:
154,70,126029,6,0,P|126:120|118:164,1,93.7500035762788
339,74,126404,2,0,P|370:122|383:173,1,93.7500035762788
393,353,126779,1,0,0:0:0:0:
147,134,126967,1,0,0:0:0:0:
427,118,127154,1,0,0:0:0:0:
229,245,127342,1,0,0:0:0:0:
280,40,127529,6,0,B|237:97|90:194|90:194|187:129|170:197|99:357|99:357|195:289|303:211,1,750.000028610231
