osu file format v14

[General]
AudioFilename: audio.mp3
AudioLeadIn: 0
PreviewTime: 75868
Countdown: 0
SampleSet: Soft
StackLeniency: 0.3
Mode: 0
LetterboxInBreaks: 0
WidescreenStoryboard: 0

[Editor]
Bookmarks: 44945,61561,68945,76330,105868,124330,131714,139099
DistanceSpacing: 0.8
BeatDivisor: 4
GridSize: 32
TimelineZoom: 1.3

[Metadata]
Title:Zendaimimon
TitleUnicode:前代未聞
Artist:M2U
ArtistUnicode:M2U
Creator:Yoshimaro
Version:Unprecedented
Source:
Tags:
BeatmapID:2035681
BeatmapSetID:972256

[Difficulty]
HPDrainRate:4
CircleSize:3.7
OverallDifficulty:9
ApproachRate:9.4
SliderMultiplier:2
SliderTickRate:1

[Events]
//Background and Video events
0,0,"44293155_p0.jpg",0,0
//Break Periods
2,30376,43968
//Storyboard Layer 0 (Background)
//Storyboard Layer 1 (Fail)
//Storyboard Layer 2 (Pass)
//Storyboard Layer 3 (Foreground)
//Storyboard Sound Samples

[TimingPoints]
638,461.538461538462,4,2,1,100,1,0
638,-100,4,2,1,100,0,0
753,-100,4,2,2,100,0,0
1099,-136.986301369863,4,2,2,100,0,0
1561,-100,4,2,2,100,0,0
2945,-136.986301369863,4,2,2,100,0,0
3407,-66.6666666666667,4,2,2,100,0,0
4330,-100,4,2,2,100,0,0
4791,-136.986301369863,4,2,2,100,0,0
5253,-100,4,2,2,100,0,0
6638,-136.986301369863,4,2,2,100,0,0
8138,-100,4,2,2,100,0,0
8484,-136.986301369863,4,2,2,100,0,0
8945,-100,4,2,2,100,0,0
10330,-136.986301369863,4,2,2,100,0,0
10791,-66.6666666666667,4,2,2,100,0,0
12176,-136.986301369863,4,2,2,100,0,0
12638,-100,4,2,2,100,0,0
15407,-100,4,2,2,100,0,0
15522,-100,4,2,1,100,0,0
15868,-136.986301369863,4,2,1,100,0,0
16330,-100,4,2,1,100,0,0
17714,-136.986301369863,4,2,1,100,0,0
19099,-100,4,2,1,100,0,0
19561,-136.986301369863,4,2,1,100,0,0
20022,-100,4,2,1,100,0,0
25099,-136.986301369863,4,2,1,100,0,0
28791,-100,4,2,1,100,0,0
29022,-111.111111111111,4,2,1,100,0,0
29253,-125,4,2,1,100,0,0
29484,-142.857142857143,4,2,1,100,0,0
29714,-166.666666666667,4,2,1,100,0,0
29945,-200,4,2,1,100,0,0
45176,-136.986301369863,4,2,1,100,0,0
46330,-80,4,2,1,100,0,0
46791,-100,4,2,3,100,0,0
59945,-136.986301369863,4,2,1,100,0,0
61099,-80,4,2,1,100,0,0
61561,-100,4,2,1,100,0,0
61676,-100,4,2,5,100,0,0
65253,-100,4,2,2,100,0,0
65368,-100,4,2,5,100,0,0
68945,-100,4,2,2,100,0,0
69060,-100,4,2,1,100,0,0
75868,-100,4,2,10,100,0,0
76330,-44.4444444444445,4,2,15,100,0,1
76791,-133.333333333333,4,2,15,100,0,1
76907,-133.333333333333,4,2,15,5,0,1
77022,-133.333333333333,4,2,15,100,0,1
77138,-133.333333333333,4,2,15,5,0,1
77253,-133.333333333333,4,2,15,100,0,1
77484,-133.333333333333,4,2,15,5,0,1
77599,-133.333333333333,4,2,15,100,0,1
78061,-133.333333333333,4,2,15,5,0,1
78176,-44.4444444444445,4,2,15,100,0,1
78638,-133.333333333333,4,2,15,100,0,1
78753,-133.333333333333,4,2,15,5,0,1
78868,-133.333333333333,4,2,15,100,0,1
78984,-133.333333333333,4,2,15,5,0,1
79099,-133.333333333333,4,2,15,100,0,1
79330,-133.333333333333,4,2,15,5,0,1
79445,-133.333333333333,4,2,15,100,0,1
79907,-133.333333333333,4,2,15,5,0,1
80022,-44.4444444444445,4,2,15,100,0,1
80484,-133.333333333333,4,2,15,100,0,1
80599,-133.333333333333,4,2,15,5,0,1
80714,-133.333333333333,4,2,15,100,0,1
80830,-133.333333333333,4,2,15,5,0,1
80945,-133.333333333333,4,2,15,100,0,1
81176,-133.333333333333,4,2,15,5,0,1
81291,-133.333333333333,4,2,15,100,0,1
81753,-133.333333333333,4,2,15,5,0,1
81868,-133.333333333333,4,2,15,100,0,0
87407,-133.333333333333,4,2,15,100,0,1
87522,-133.333333333333,4,2,15,5,0,1
87637,-133.333333333333,4,2,15,100,0,1
87753,-133.333333333333,4,2,15,5,0,1
87868,-133.333333333333,4,2,15,100,0,1
87984,-44.4444444444445,4,2,15,100,0,1
88561,-133.333333333333,4,2,15,100,0,1
88676,-133.333333333333,4,2,15,5,0,1
88791,-133.333333333333,4,2,15,100,0,1
88907,-44.4444444444445,4,2,15,100,0,1
89253,-44.4444444444445,4,2,15,100,0,0
91099,-44.4444444444445,4,2,15,100,0,1
91561,-133.333333333333,4,2,15,100,0,1
91676,-133.333333333333,4,2,15,5,0,1
91791,-133.333333333333,4,2,15,100,0,1
92253,-133.333333333333,4,2,15,5,0,1
92368,-133.333333333333,4,2,15,100,0,1
92830,-133.333333333333,4,2,15,5,0,1
92945,-44.4444444444445,4,2,15,100,0,1
93407,-133.333333333333,4,2,15,100,0,1
93522,-133.333333333333,4,2,15,5,0,1
93637,-133.333333333333,4,2,15,100,0,1
94099,-133.333333333333,4,2,15,5,0,1
94214,-133.333333333333,4,2,15,100,0,1
94676,-133.333333333333,4,2,15,5,0,1
94792,-133.333333333333,4,2,15,100,0,1
94907,-133.333333333333,4,2,15,5,0,1
95022,-133.333333333333,4,2,15,100,0,1
95138,-133.333333333333,4,2,15,5,0,1
95253,-133.333333333333,4,2,15,100,0,1
95369,-133.333333333333,4,2,15,5,0,1
95484,-133.333333333333,4,2,15,100,0,1
95599,-133.333333333333,4,2,15,5,0,1
95714,-133.333333333333,4,2,15,100,0,1
95945,-133.333333333333,4,2,15,5,0,1
96060,-133.333333333333,4,2,15,100,0,1
96522,-133.333333333333,4,2,15,5,0,1
96638,-133.333333333333,4,2,15,100,0,0
98484,-133.333333333333,4,2,15,100,0,1
98599,-133.333333333333,4,2,15,5,0,1
98714,-133.333333333333,4,2,15,100,0,1
98830,-133.333333333333,4,2,15,5,0,1
98945,-133.333333333333,4,2,15,100,0,1
99061,-44.4444444444445,4,2,15,100,0,1
99638,-133.333333333333,4,2,15,100,0,1
99753,-133.333333333333,4,2,15,5,0,1
99868,-44.4444444444445,4,2,15,100,0,1
100330,-133.333333333333,4,2,15,100,0,1
100445,-133.333333333333,4,2,15,5,0,1
100560,-133.333333333333,4,2,15,100,0,1
100676,-133.333333333333,4,2,15,5,0,1
100791,-133.333333333333,4,2,15,100,0,1
100907,-44.4444444444445,4,2,15,100,0,1
101484,-133.333333333333,4,2,15,100,0,1
101599,-133.333333333333,4,2,15,5,0,1
101714,-133.333333333333,4,2,15,100,0,1
101830,-133.333333333333,4,2,15,5,0,1
101945,-133.333333333333,4,2,15,100,0,1
102061,-133.333333333333,4,2,15,5,0,1
102176,-133.333333333333,4,2,15,100,0,1
102292,-133.333333333333,4,2,15,5,0,1
102407,-133.333333333333,4,2,15,100,0,1
102522,-133.333333333333,4,2,15,5,0,1
102637,-133.333333333333,4,2,15,100,0,1
102753,-44.4444444444445,4,2,15,100,0,1
103330,-133.333333333333,4,2,15,100,0,1
103445,-133.333333333333,4,2,15,5,0,1
103561,-44.4444444444445,4,2,15,100,0,1
104022,-44.4444444444445,4,2,15,100,0,0
105868,-44.4444444444445,4,2,15,100,0,1
105984,-44.4444444444445,4,2,15,100,0,0

[Colours]
Combo1 : 251,200,26
Combo2 : 153,34,251
Combo3 : 253,64,30
Combo4 : 255,62,226

[HitObjects]
362,130,638,6,0,B|413:82|363:26|363:26|356:48|362:78,1,150,12|4,3:3|1:1,0:0:0:0:
398,201,1099,2,0,P|416:197|434:200,1,36.5000010025025,8|0,3:2|0:0,0:0:0:0:
303,228,1330,2,0,P|307:210|319:197,1,36.5000010025025,4|0,1:1|0:0,0:0:0:0:
432,286,1561,6,0,P|359:285|310:339,1,150,8|4,3:2|1:1,0:0:0:0:
156,266,2022,2,0,P|198:291|248:287,1,100,8|4,3:2|1:1,0:0:0:0:
398,201,2484,5,8,3:2:0:0:
97,40,2830,1,4,1:1:0:0:
232,88,2945,2,0,P|216:96|198:99,1,36.5000010025025,8|0,3:2|0:0,0:0:0:0:
128,137,3176,2,0,P|111:130|97:120,1,36.5000010025025,4|0,1:1|0:0,0:0:0:0:
79,27,3407,6,0,P|99:97|72:165,1,150.000005722046,12|0,3:2|3:2,3:2:0:0:
24,228,3753,1,4,3:2:0:0:
133,259,3868,2,0,B|187:277|205:259|224:240|278:259,1,150.000005722046,12|0,3:2|3:2,3:2:0:0:
241,331,4214,1,4,3:2:0:0:
171,186,4330,5,12,3:2:0:0:
390,256,4676,1,4,1:1:0:0:
353,353,4791,2,0,P|345:337|342:319,1,36.5000010025025,8|0,3:2|0:0,0:0:0:0:
303,249,5022,2,0,P|310:232|321:217,1,36.5000010025025,4|0,1:1|0:0,0:0:0:0:
466,192,5253,6,0,P|399:221|330:199,1,150,8|4,3:2|1:1,0:0:0:0:
170,152,5714,2,0,P|217:166|265:151,1,100,8|4,3:2|1:1,0:0:0:0:
311,48,6176,5,8,3:2:0:0:
313,38,6291,1,0,0:0:0:0:
316,28,6407,1,0,0:0:0:0:
319,18,6522,1,4,1:1:0:0:
321,9,6638,6,0,P|320:26|328:43,1,36.5000010025025,8|0,3:2|0:0,0:0:0:0:
422,101,6868,2,0,P|405:94|387:96,1,36.5000010025025,4|0,1:1|0:0,0:0:0:0:
287,144,7099,5,12,3:2:0:0:
283,154,7214,1,0,0:0:0:0:
282,164,7330,1,0,0:0:0:0:
283,174,7445,1,4,3:2:0:0:
326,240,7561,5,12,3:2:0:0:
327,250,7676,1,0,0:0:0:0:
326,260,7791,1,0,0:0:0:0:
322,270,7907,1,4,3:2:0:0:
279,336,8022,5,12,3:2:0:0:
278,335,8138,2,0,P|235:313|187:322,1,100,0|4,0:0|1:1,0:0:0:0:
54,355,8484,2,0,P|72:355|89:363,1,36.5000010025025,8|0,3:2|0:0,0:0:0:0:
106,253,8714,2,0,P|114:268|117:287,1,36.5000010025025,4|0,1:1|0:0,0:0:0:0:
0,177,8945,6,0,P|69:201|138:177,1,150,8|4,3:2|1:1,0:0:0:0:
309,197,9407,2,0,P|262:182|215:197,1,100,8|4,3:2|1:1,0:0:0:0:
117,286,9868,5,8,3:2:0:0:
325,57,10214,1,4,1:1:0:0:
239,104,10330,6,0,P|256:107|271:117,1,36.5000010025025,8|0,3:2|0:0,0:0:0:0:
386,129,10561,2,0,P|368:126|350:131,1,36.5000010025025,4|0,1:1|0:0,0:0:0:0:
247,222,10791,6,0,B|291:196|291:196|385:221,1,150.000005722046,12|0,3:2|3:2,3:2:0:0:
462,244,11138,1,4,3:2:0:0:
255,307,11253,2,0,B|299:281|299:281|393:306,1,150.000005722046,12|0,3:2|3:2,3:2:0:0:
470,329,11599,1,4,3:2:0:0:
312,367,11714,5,12,3:2:0:0:
90,149,12061,1,4,1:1:0:0:
175,180,12176,6,0,P|169:162|169:144,1,36.5000010025025,8|0,3:2|0:0,0:0:0:0:
129,78,12407,2,0,P|141:64|157:55,1,36.5000010025025,4|0,1:1|0:0,0:0:0:0:
247,222,12638,6,0,P|178:198|110:226,1,150,8|4,3:2|1:1,0:0:0:0:
39,378,13099,2,0,P|60:333|55:283,1,100,8|4,3:2|1:1,0:0:0:0:
0,104,13561,5,8,3:2:0:0:
255,47,13791,2,0,P|261:23|256:0,1,50
169,138,14022,2,0,P|193:132|211:115,3,50,4|0|4|0,3:2|0:0|3:2|0:0,0:0:0:0:
78,78,14484,5,0,0:0:0:0:
80,96,14599,1,0,0:0:0:0:
83,115,14714,1,4,3:2:0:0:
85,134,14830,1,2,0:0:0:0:
101,41,14945,5,0,0:0:0:0:
97,77,15061,1,2,0:0:0:0:
91,115,15176,1,2,0:0:0:0:
87,153,15291,1,0,0:0:0:0:
0,232,15407,6,0,B|54:213|72:232|91:250|145:232,1,150,12|4,3:3|1:1,0:0:0:0:
218,146,15868,2,0,P|214:163|206:179,1,36.5000010025025,8|0,3:2|0:0,0:0:0:0:
175,305,16099,2,0,P|194:305|211:299,1,36.5000010025025,6|0,1:1|0:0,0:0:0:0:
411,242,16330,6,0,P|344:212|276:236,1,150,8|4,3:2|1:1,0:0:0:0:
436,353,16791,2,0,P|415:308|422:260,1,100,8|6,3:2|1:1,0:0:0:0:
512,115,17253,5,8,3:2:0:0:
243,0,17599,1,4,1:1:0:0:
297,94,17714,2,0,P|280:87|261:86,1,36.5000010025025,8|0,3:2|0:0,0:0:0:0:
176,61,17945,2,0,P|161:72|152:87,1,36.5000010025025,6|0,1:1|0:0,0:0:0:0:
115,217,18176,5,12,3:2:0:0:
75,105,18407,1,2,0:0:0:0:
75,105,18522,2,0,L|68:140,1,36.5000010025025,6|12,3:2|3:2,3:2:0:0:
196,171,18753,1,2,0:0:0:0:
196,171,18868,2,0,L|203:206,1,36.5000010025025,2|4,0:0|3:2,0:0:0:0:
33,307,19099,6,0,P|98:273|170:290,1,150,8|4,3:2|1:1,0:0:0:0:
254,384,19561,2,0,P|240:373|231:358,1,36.5000010025025,8|0,3:2|0:0,0:0:0:0:
255,271,19791,2,0,P|257:252|266:237,1,36.5000010025025,6|0,1:1|0:0,0:0:0:0:
413,201,20022,6,0,P|349:236|278:219,1,150,8|4,3:2|1:1,0:0:0:0:
423,87,20484,2,0,P|403:132|409:182,1,100,8|6,3:2|1:1,0:0:0:0:
496,337,20945,5,8,3:2:0:0:
307,369,21176,2,0,P|283:378|258:379,1,50,0|4,0:0|1:1,0:0:0:0:
374,264,21407,2,0,P|370:288|359:311,3,50,8|0|6|0,3:2|0:0|1:1|0:0,0:0:0:0:
197,330,21868,5,12,3:2:0:0:
177,333,21984,1,0,0:0:0:0:
157,328,22099,1,2,0:0:0:0:
139,316,22214,1,6,3:2:0:0:
56,302,22330,5,12,3:2:0:0:
91,307,22445,1,2,0:0:0:0:
126,298,22561,1,2,0:0:0:0:
157,277,22676,1,4,3:2:0:0:
203,175,22791,5,8,3:2:0:0:
215,321,23022,1,2,0:1:0:0:
306,330,23253,5,8,3:2:0:0:
291,154,23484,1,2,0:1:0:0:
379,133,23714,5,8,3:2:0:0:
397,339,23945,1,2,0:1:0:0:
488,348,24176,5,8,3:2:0:0:
467,112,24407,1,2,0:1:0:0:
203,175,24638,5,8,3:2:0:0:
289,227,24868,1,2,0:1:0:0:
289,227,24984,1,4,1:1:0:0:
289,227,25099,2,0,P|289:244|292:262,1,36.5000010025025,8|0,3:2|0:0,0:0:0:0:
218,317,25330,2,0,P|217:334|214:352,1,36.5000010025025,6|0,1:1|0:0,0:0:0:0:
120,209,25561,5,12,3:2:0:0:
130,345,25791,1,2,0:0:0:0:
130,345,25907,2,0,P|132:326|133:308,1,36.5000010025025,6|12,3:2|3:2,3:2:0:0:
10,232,26138,1,2,0:0:0:0:
10,232,26253,2,0,P|7:213|6:195,1,36.5000010025025,2|4,0:0|3:2,0:0:0:0:
71,76,26484,6,0,P|88:70|106:69,3,36.5000010025025,8|0|2|4,3:2|0:0|0:1|1:1,0:0:0:0:
188,32,26945,2,0,P|204:40|217:52,3,36.5000010025025,8|0|6|0,3:2|0:0|1:1|0:0,0:0:0:0:
301,84,27407,5,8,3:2:0:0:
309,100,27522,1,0,0:0:0:0:
311,117,27638,1,2,0:1:0:0:
307,133,27753,1,4,1:1:0:0:
255,207,27868,5,8,3:2:0:0:
249,231,27984,1,0,0:0:0:0:
252,256,28099,1,6,1:1:0:0:
264,280,28214,1,0,0:0:0:0:
335,339,28330,5,8,3:2:0:0:
476,128,28561,2,0,L|477:109,3,18.2500005012512
461,137,28791,2,0,P|440:130|411:132,1,50,4|0,3:2|0:0,0:0:0:0:
377,215,29022,2,0,P|360:229|349:249,1,44.999998626709,4|0,3:2|0:0,0:0:0:0:
283,84,29253,6,0,P|282:104|287:124,1,40
238,193,29484,2,0,P|252:204|269:210,1,34.9999989318848,4|2,3:2|0:0,0:0:0:0:
439,256,29714,6,0,P|429:244|418:235,1,29.9999990844727,0|2,0:0|0:0,0:0:0:0:
344,267,29945,2,0,P|332:268|320:272,1,25,2|0,0:0|0:0,0:0:0:0:
250,362,30176,5,4,3:3:0:0:
433,107,44945,5,8,3:2:0:0:
325,251,45176,2,2,L|326:269,3,18.2500005012512,2|2|2|2,0:1|0:1|0:1|0:1,0:1:0:0:
334,234,45407,6,0,P|317:241|299:240,1,36.5000010025025,2|0,0:1|0:0,0:0:0:0:
219,277,45638,1,2,0:1:0:0:
219,277,45753,2,0,P|204:266|195:250,1,36.5000010025025,2|0,0:1|0:0,0:0:0:0:
124,198,45984,1,2,0:1:0:0:
124,198,46099,2,0,P|125:179|135:164,1,36.5000010025025,2|0,0:1|0:0,0:0:0:0:
241,17,46330,6,0,P|206:101|242:185,1,187.5,0|0,1:2|0:0,0:0:0:0:
324,219,46791,6,0,B|252:183|229:219|205:254|134:219,1,200,0|8,0:0|1:2,0:0:0:0:
49,146,47484,1,2,0:0:0:0:
45,131,47599,1,0,0:0:0:0:
43,116,47714,2,0,L|38:91,2,25
133,218,47945,5,0,0:0:0:0:
137,203,48061,1,0,0:0:0:0:
139,188,48176,2,0,L|143:163,2,25,8|0|0,1:2|0:0|0:0,0:0:0:0:
17,279,48407,2,0,P|41:272|65:279,1,50,2|0,0:0|0:0,0:0:0:0:
150,353,48638,6,0,P|173:359|197:352,1,50
241,250,48868,2,0,L|236:225,2,25
284,330,49099,2,0,P|273:257|317:199,1,150,8|0,1:2|0:0,0:0:0:0:
479,154,49561,5,0,0:0:0:0:
461,162,49676,1,0,0:0:0:0:
441,163,49791,1,0,0:0:0:0:
421,157,49907,1,0,0:0:0:0:
365,86,50022,5,8,1:2:0:0:
346,109,50138,1,0,0:0:0:0:
321,125,50253,1,2,0:0:0:0:
290,132,50368,1,0,0:0:0:0:
183,92,50484,6,0,P|247:128|265:199,1,150
335,315,50945,5,8,1:2:0:0:
310,297,51061,1,0,0:0:0:0:
282,288,51176,1,2,0:0:0:0:
250,289,51291,1,0,0:0:0:0:
150,342,51407,5,0,0:0:0:0:
154,327,51522,1,0,0:0:0:0:
156,312,51638,2,0,L|164:262,1,50
66,144,51868,6,0,L|61:119,2,25,8|0|0,1:2|0:0|0:0,0:0:0:0:
86,232,52099,1,2,0:0:0:0:
227,25,52330,5,0,0:0:0:0:
54,24,52561,5,0,0:0:0:0:
61,34,52676,1,0,0:0:0:0:
70,41,52791,1,8,1:2:0:0:
262,17,53022,5,2,0:0:0:0:
243,18,53138,1,0,0:0:0:0:
227,25,53253,1,0,0:0:0:0:
146,221,53484,5,0,0:0:0:0:
159,195,53599,1,0,0:0:0:0:
162,169,53714,1,8,1:2:0:0:
8,12,53945,5,2,0:0:0:0:
16,61,54061,1,0,0:0:0:0:
25,109,54176,5,0,3:2:0:0:
277,181,54407,2,0,L|252:178,3,25
162,169,54638,1,8,1:2:0:0:
221,31,54868,1,2,0:0:0:0:
226,64,54984,1,0,0:0:0:0:
216,95,55099,5,0,0:0:0:0:
291,39,55214,1,0,0:0:0:0:
206,2,55330,1,0,0:0:0:0:
474,19,55561,1,8,1:2:0:0:
379,109,55791,1,2,0:0:0:0:
374,76,55907,1,0,0:0:0:0:
384,45,56022,5,0,3:2:0:0:
460,181,56253,2,0,L|435:184,3,25
345,193,56484,1,8,1:2:0:0:
404,331,56714,1,2,0:0:0:0:
460,181,56945,6,0,L|435:184,3,25
345,193,57176,1,0,0:0:0:0:
384,45,57407,1,8,1:2:0:0:
237,86,57638,1,2,0:0:0:0:
218,89,57753,1,0,0:0:0:0:
256,175,57868,5,0,3:2:0:0:
264,194,57984,1,0,0:0:0:0:
266,215,58099,1,0,0:0:0:0:
260,235,58214,1,0,0:0:0:0:
247,251,58330,1,8,0:0:0:0:
229,262,58445,1,0,0:0:0:0:
209,267,58561,1,2,0:0:0:0:
188,265,58676,1,0,0:0:0:0:
108,225,58791,6,0,L|111:200,7,25,0|0|0|0|0|0|0|0,3:2|0:0|0:0|0:0|0:0|0:0|0:0|0:0,0:0:0:0:
20,158,59253,1,8,0:0:0:0:
29,212,59368,1,0,0:0:0:0:
39,266,59484,1,2,0:0:0:0:
49,320,59599,1,0,0:0:0:0:
108,225,59714,5,0,3:2:0:0:
183,345,59945,2,2,L|182:363,3,18.2500005012512,2|2|2|2,0:1|0:1|0:1|0:1,0:1:0:0:
174,328,60176,6,0,P|194:327|209:334,1,36.5000010025025,2|0,0:1|0:0,0:0:0:0:
289,375,60407,1,2,0:1:0:0:
289,375,60522,2,0,P|298:357|311:347,1,36.5000010025025,2|0,0:1|0:0,0:0:0:0:
387,298,60753,1,2,0:1:0:0:
387,298,60868,2,0,P|376:281|374:264,1,36.5000010025025,2|0,0:1|0:0,0:0:0:0:
256,97,61099,6,0,P|306:174|286:263,1,187.5,0|0,1:2|0:0,0:0:0:0:
209,308,61561,6,0,B|251:304|251:304|264:309|264:309|306:305,1,100,12|2,0:3|0:0,0:0:0:0:
384,296,61907,1,2,0:0:0:0:
384,296,62022,2,0,P|397:343|373:386,1,100,10|2,1:2|0:0,0:0:0:0:
394,206,62368,1,2,0:0:0:0:
394,206,62484,2,0,P|441:218|466:260,1,100,0|2,0:0|0:0,0:0:0:0:
321,152,62830,1,2,0:0:0:0:
320,152,62945,2,0,P|335:131|355:117,1,50,8|0,1:2|0:0,0:0:0:0:
509,172,63176,2,0,P|489:158|475:138,1,50,2|2,0:0|0:0,0:0:0:0:
431,35,63407,5,0,0:0:0:0:
403,192,63638,2,2,L|405:216,3,25
415,307,63868,1,8,1:2:0:0:
197,349,64099,5,2,0:0:0:0:
249,248,64330,1,0,0:0:0:0:
116,15,64561,5,2,0:0:0:0:
187,152,64791,1,8,1:2:0:0:
0,354,65022,5,2,0:0:0:0:
301,146,65253,5,4,3:3:0:0:
401,327,65484,2,0,P|410:301|404:277,1,50,2|2,0:0|0:0,0:0:0:0:
467,215,65714,2,0,P|420:233|372:225,1,100,8|2,1:2|0:0,0:0:0:0:
313,156,66061,1,2,0:0:0:0:
243,213,66176,5,0,0:0:0:0:
230,196,66291,1,0,0:0:0:0:
223,177,66407,1,2,0:0:0:0:
222,158,66522,1,2,0:0:0:0:
120,204,66638,5,8,1:2:0:0:
115,172,66753,1,0,0:0:0:0:
120,143,66868,1,2,0:0:0:0:
134,116,66984,1,2,0:0:0:0:
212,68,67099,5,0,0:0:0:0:
428,101,67330,2,2,P|416:97|403:96,3,25
301,137,67561,1,8,1:2:0:0:
114,170,67791,6,2,P|125:166|138:165,3,25
228,209,68022,1,0,0:0:0:0:
385,242,68253,6,2,P|373:238|360:237,3,25
283,281,68484,1,8,1:2:0:0:
148,354,68714,1,2,0:0:0:0:
90,46,68945,5,12,3:3:0:0:
0,177,69176,2,2,L|4:226,2,50,2|2|2,1:2|1:2|1:2,1:2:0:0:
170,40,69638,1,2,1:2:0:0:
163,81,69753,1,2,1:2:0:0:
56,119,69868,5,8,3:2:0:0:
95,105,69984,1,0,0:0:0:0:
135,112,70099,2,0,P|157:126|172:145,1,50,2|2,1:2|1:2,1:2:0:0:
245,179,70330,2,0,P|244:203|234:226,1,50,2|0,1:2|0:0,0:0:0:0:
146,295,70561,1,2,0:0:0:0:
444,351,70791,5,8,3:2:0:0:
354,177,71022,2,2,L|356:153,3,25
366,62,71253,2,0,P|341:61|318:70,1,50,2|0,1:2|0:0,0:0:0:0:
217,136,71484,2,0,P|242:136|266:145,1,50,2|0,1:2|0:0,0:0:0:0:
407,270,71714,5,10,3:2:0:0:
366,266,71830,1,2,1:2:0:0:
325,262,71945,2,0,L|329:311,1,50,2|0,1:2|0:0,0:0:0:0:
231,384,72176,2,0,L|240:285,1,100,2|2,1:2|1:2,0:0:0:0:
248,196,72522,1,2,1:2:0:0:
107,349,72638,5,10,3:2:0:0:
81,358,72753,1,0,0:0:0:0:
53,357,72868,1,0,0:0:0:0:
27,346,72984,1,0,0:0:0:0:
155,355,73099,5,10,3:2:0:0:
129,332,73214,1,0,0:0:0:0:
114,303,73330,1,0,0:0:0:0:
109,269,73445,1,0,0:0:0:0:
163,146,73561,6,2,P|171:137|181:129,7,25,10|2|2|2|2|2|2|2,0:0|0:0|0:0|0:0|0:0|0:0|0:0|0:0,0:0:0:0:
266,98,74022,1,10,3:2:0:0:
259,176,74138,1,2,1:2:0:0:
252,255,74253,1,2,1:2:0:0:
245,334,74368,1,2,1:2:0:0:
396,373,74484,5,10,3:1:0:0:
412,372,74599,1,0,0:0:0:0:
433,365,74714,1,0,0:0:0:0:
457,349,74830,1,0,0:0:0:0:
478,321,74945,1,2,0:1:0:0:
487,280,75061,1,0,0:0:0:0:
473,234,75176,1,0,0:0:0:0:
432,198,75291,1,0,0:0:0:0:
372,193,75407,1,2,0:1:0:0:
318,231,75522,1,0,0:0:0:0:
304,301,75638,1,0,0:0:0:0:
350,363,75753,1,0,0:0:0:0:
393,283,75868,5,12,0:2:0:0:
162,162,76330,6,0,B|91:107|71:12|153:-83|256:-6|202:74,1,337.500012874604,14|0,3:2|0:0,0:0:0:0:
110,237,76791,6,0,P|92:240|74:237,1,37.5000014305115,10|0,3:2|0:0,0:0:0:0:
275,158,77022,2,0,P|294:154|312:157,1,37.5000014305115,0|0,1:0|0:0,0:0:0:0:
264,336,77253,5,14,3:2:0:0:
203,73,77368,2,0,P|214:57|229:46,1,37.5000014305115
27,136,77599,6,0,P|12:125|1:110,1,37.5000014305115,0|10,0:0|3:2,0:0:0:0:
275,158,77830,1,0,0:0:0:0:
74,236,77945,2,0,P|92:233|110:237,1,37.5000014305115,0|0,1:0|0:0,0:0:0:0:
402,376,78176,6,0,B|477:281|477:281|421:71,1,337.500012874604,14|0,3:2|0:0,0:0:0:0:
206,0,78638,6,0,L|216:36,1,37.5000014305115,10|0,3:2|0:0,0:0:0:0:
377,260,78868,2,0,L|368:223,1,37.5000014305115,0|0,1:0|0:0,0:0:0:0:
304,0,79099,5,14,3:2:0:0:
117,117,79214,2,0,P|135:114|153:119,1,37.5000014305115
305,314,79445,6,0,P|287:316|269:312,1,37.5000014305115,0|10,0:0|3:2,0:0:0:0:
130,205,79676,1,0,0:0:0:0:
351,173,79791,2,0,P|344:191|331:205,1,37.5000014305115,0|0,1:0|0:0,0:0:0:0:
68,275,80022,6,0,B|188:214|228:275|268:335|388:275,1,337.500012874604,12|0,3:2|0:0,0:0:0:0:
508,80,80484,6,0,P|506:99|497:116,1,37.5000014305115,10|0,3:2|0:0,0:0:0:0:
398,309,80714,2,0,P|391:292|389:274,1,37.5000014305115,0|0,1:0|0:0,0:0:0:0:
449,13,80945,5,14,3:2:0:0:
505,223,81061,2,0,P|488:214|469:213,1,37.5000014305115
256,256,81291,6,0,P|273:247|291:246,1,37.5000014305115,0|10,0:0|3:2,0:0:0:0:
507,335,81522,1,0,0:0:0:0:
354,97,81638,2,0,P|361:114|362:133,1,37.5000014305115,0|0,1:0|0:0,0:0:0:0:
166,345,81868,5,14,3:2:0:0:
248,27,82099,1,0,0:0:0:0:
368,384,82330,5,0,0:0:0:0:
363,363,82445,1,0,0:0:0:0:
362,341,82561,1,2,0:1:0:0:
368,320,82676,1,2,0:1:0:0:
273,348,82791,5,0,0:0:0:0:
280,320,82907,1,0,0:0:0:0:
281,292,83022,1,2,0:1:0:0:
273,264,83138,1,2,0:1:0:0:
368,320,83253,5,12,0:0:0:0:
358,278,83368,1,0,0:0:0:0:
356,236,83484,1,2,0:1:0:0:
368,193,83599,1,2,0:1:0:0:
191,305,83714,5,14,3:2:0:0:
499,188,83945,1,2,3:2:0:0:
388,358,84176,5,8,1:2:0:0:
431,128,84291,1,4,3:2:0:0:
191,305,84522,5,0,1:0:0:0:
409,243,84638,5,14,3:2:0:0:
272,183,84753,1,0,0:0:0:0:
289,332,84868,1,2,3:2:0:0:
135,123,85099,5,8,1:2:0:0:
392,94,85214,1,4,3:2:0:0:
24,69,85445,5,0,1:0:0:0:
42,315,85561,5,14,3:2:0:0:
126,0,85791,1,2,3:2:0:0:
246,176,86022,5,8,1:2:0:0:
33,192,86138,1,4,3:2:0:0:
366,352,86368,5,0,1:0:0:0:
144,245,86484,5,14,3:2:0:0:
255,298,86599,1,0,0:0:0:0:
254,139,86714,6,0,P|248:157|246:175,1,37.5000014305115,6|0,3:2|0:0,0:0:0:0:
394,376,86945,2,0,P|382:362|366:352,1,37.5000014305115,14|0,3:2|0:0,0:0:0:0:
118,379,87176,2,0,P|137:376|153:368,1,37.5000014305115,14|0,3:2|0:0,0:0:0:0:
391,81,87407,6,0,L|354:88,1,37.5000014305115,14|0,3:2|0:0,0:0:0:0:
119,182,87638,2,0,L|155:189,1,37.5000014305115,0|0,1:0|0:0,0:0:0:0:
336,338,87868,5,14,3:2:0:0:
220,76,87984,2,0,B|271:41|271:41|260:106|260:106|269:118|269:118|256:127|256:127|245:192,1,225.000008583069
221,321,88330,5,12,3:2:0:0:
338,176,88445,1,0,0:0:0:0:
96,299,88561,2,0,L|132:306,1,37.5000014305115,0|0,1:0|0:0,0:0:0:0:
387,350,88791,5,14,3:2:0:0:
269,118,88907,2,0,B|228:94|288:60|295:23|295:23|320:50|390:48|367:90,1,225.000008583069
363,263,89253,5,12,3:2:0:0:
476,72,89484,1,4,1:1:0:0:
481,58,89599,1,4,1:1:0:0:
464,108,89714,5,2,0:1:0:0:
448,86,89830,1,2,0:1:0:0:
426,71,89945,1,4,1:1:0:0:
400,65,90061,1,4,1:1:0:0:
481,142,90176,5,2,0:1:0:0:
444,125,90291,1,2,0:1:0:0:
404,122,90407,1,4,1:1:0:0:
366,134,90522,1,4,1:1:0:0:
330,216,90638,5,2,0:1:0:0:
339,197,90753,1,2,0:1:0:0:
340,177,90868,1,10,3:2:0:0:
335,158,90984,1,10,3:2:0:0:
215,99,91099,6,0,B|158:214|158:214|215:329|215:329|251:258,1,337.500012874604,12|0,3:2|0:0,0:0:0:0:
181,15,91561,6,0,B|164:9|164:9|147:15,1,37.5000014305115,10|0,3:2|0:0,0:0:0:0:
335,158,91791,1,0,1:0:0:0:
215,99,91907,1,0,0:0:0:0:
326,25,92022,5,14,3:2:0:0:
224,232,92138,2,0,B|219:249|219:249|224:266,1,37.5000014305115
486,198,92368,6,0,B|473:212|473:212|455:216,1,37.5000014305115,0|10,0:0|3:2,0:0:0:0:
211,89,92599,1,0,0:0:0:0:
375,308,92714,2,0,B|357:304|357:304|344:291,1,37.5000014305115,0|0,1:0|0:0,0:0:0:0:
119,99,92945,6,0,B|65:19|168:-58|250:37|230:132|159:187,1,337.500012874604,12|0,3:2|0:0,0:0:0:0:
1,255,93407,2,0,P|19:250|37:253,1,37.5000014305115,10|0,3:2|0:0,0:0:0:0:
227,372,93638,5,0,1:0:0:0:
116,298,93753,1,0,0:0:0:0:
236,239,93868,5,14,3:2:0:0:
1,341,93984,2,0,P|19:346|37:343,1,37.5000014305115
384,311,94214,6,0,P|366:316|347:313,1,37.5000014305115,0|10,0:0|3:2,0:0:0:0:
271,70,94445,1,0,0:0:0:0:
256,269,94561,2,0,P|243:256|236:239,1,37.5000014305115,0|0,1:0|0:0,0:0:0:0:
417,43,94791,6,0,L|380:50,1,37.5000014305115,14|0,3:2|0:0,0:0:0:0:
125,44,95022,2,0,L|162:50,1,37.5000014305115
350,178,95253,6,0,P|355:196|352:215,1,37.5000014305115,10|0,3:2|0:0,0:0:0:0:
162,50,95484,2,0,P|157:32|160:13,1,37.5000014305115,0|0,1:0|0:0,0:0:0:0:
428,133,95714,5,14,3:2:0:0:
219,246,95830,2,0,P|236:239|249:226,1,37.5000014305115
301,0,96061,6,0,P|284:6|270:20,1,37.5000014305115,0|10,0:0|3:2,0:0:0:0:
310,294,96291,1,0,0:0:0:0:
125,146,96407,2,0,P|140:157|158:162,1,37.5000014305115,0|0,1:0|0:0,0:0:0:0:
473,209,96638,5,14,3:2:0:0:
74,71,96868,1,0,0:0:0:0:
289,347,97099,5,0,0:0:0:0:
293,324,97214,1,0,0:0:0:0:
297,301,97330,1,2,0:1:0:0:
301,279,97445,1,2,0:1:0:0:
206,298,97561,5,0,0:0:0:0:
201,268,97676,1,0,0:0:0:0:
196,238,97791,1,2,0:1:0:0:
191,209,97907,1,2,0:1:0:0:
301,279,98022,5,12,0:0:0:0:
308,240,98138,1,0,0:0:0:0:
314,201,98253,1,2,0:1:0:0:
321,163,98368,1,2,0:1:0:0:
211,328,98484,6,0,P|193:331|175:326,1,37.5000014305115,14|0,3:2|0:0,0:0:0:0:
85,164,98714,2,0,P|90:182|101:197,1,37.5000014305115,0|0,1:0|0:0,0:0:0:0:
291,369,98945,5,14,3:2:0:0:
200,127,99061,2,0,P|144:220|175:324,1,225.000008583069
291,369,99407,5,14,3:2:0:0:
276,237,99522,1,0,0:0:0:0:
434,289,99638,2,0,B|416:295|416:295|398:290,1,37.5000014305115,0|0,1:0|0:0,0:0:0:0:
200,127,99868,5,14,3:2:0:0:
422,85,99984,2,0,B|472:149|472:149|434:289,1,225.000008583069
255,371,100330,6,0,P|273:366|291:369,1,37.5000014305115,14|0,3:2|0:0,0:0:0:0:
512,208,100561,2,0,P|495:213|476:210,1,37.5000014305115,0|0,1:0|0:0,0:0:0:0:
258,56,100791,5,14,3:2:0:0:
351,301,100907,2,0,P|387:196|331:98,1,225.000008583069
117,20,101253,5,14,3:2:0:0:
258,56,101368,1,0,0:0:0:0:
45,167,101484,6,0,L|81:161,1,37.5000014305115,0|0,1:0|0:0,0:0:0:0:
296,205,101714,2,0,L|260:198,1,37.5000014305115,14|0,3:2|0:0,0:0:0:0:
8,81,101945,2,0,L|44:75,1,37.5000014305115,0|0,1:0|0:0,0:0:0:0:
347,33,102176,6,0,B|341:51|341:51|346:69,1,37.5000014305115,14|0,3:2|0:0,0:0:0:0:
214,281,102407,2,0,B|220:263|220:263|215:245,1,37.5000014305115,0|0,1:0|0:0,0:0:0:0:
154,52,102638,5,14,3:2:0:0:
396,182,102753,2,0,B|319:168|319:168|260:198|260:198|182:184,1,225.000008583069
49,160,103099,5,14,3:2:0:0:
244,105,103214,1,0,0:0:0:0:
27,286,103330,2,0,L|33:250,1,37.5000014305115,0|0,1:0|0:0,0:0:0:0:
66,48,103561,5,14,3:2:0:0:
107,329,103676,2,0,B|120:346|120:346|143:304|191:296|191:296|148:273|141:225|141:225|124:238,1,225.000008583069
30,268,104022,5,14,3:2:0:0:
282,348,104253,1,4,1:1:0:0:
278,362,104368,1,4,1:1:0:0:
254,311,104484,5,2,0:1:0:0:
282,315,104599,1,2,0:1:0:0:
310,320,104714,1,4,1:1:0:0:
337,325,104830,1,4,1:1:0:0:
212,292,104945,5,2,0:1:0:0:
254,283,105061,1,2,0:1:0:0:
296,275,105176,1,4,1:1:0:0:
337,268,105291,1,4,1:1:0:0:
392,318,105407,5,2,0:1:0:0:
380,300,105522,1,2,0:1:0:0:
376,281,105638,1,12,1:1:0:0:
378,261,105753,1,12,1:1:0:0:
436,166,105868,5,4,0:0:0:0:
