osu file format v14

[General]
AudioFilename: audio.mp3
AudioLeadIn: 0
PreviewTime: 59604
Countdown: 0
SampleSet: Soft
StackLeniency: 0.7
Mode: 0
LetterboxInBreaks: 0
WidescreenStoryboard: 0

[Editor]
DistanceSpacing: 1.4
BeatDivisor: 4
GridSize: 8
TimelineZoom: 1.7

[Metadata]
Title:Wicked Fate
TitleUnicode:Wicked Fate
Artist:M2U
ArtistUnicode:M2U
Creator:Su1fu7
Version:LV.4
Source:Deemo
Tags:m2ustudio rayark finshie myosotis nicode
BeatmapID:1275371
BeatmapSetID:591635

[Difficulty]
HPDrainRate:3
CircleSize:3.6
OverallDifficulty:5
ApproachRate:5
SliderMultiplier:1
SliderTickRate:1

[Events]
//Background and Video events
0,0,"very-witch-lady-yes-now-is-lower.png",0,0
//Break Periods
2,46519,51976
//Storyboard Layer 0 (Background)
//Storyboard Layer 1 (Fail)
//Storyboard Layer 2 (Pass)
//Storyboard Layer 3 (Foreground)
//Storyboard Sound Samples

[TimingPoints]
3462,428.571428571429,4,2,2,80,1,0
87462,-100,4,2,2,70,0,0
92604,-100,4,2,2,60,0,0
96033,-100,4,2,2,70,0,0
97747,-100,4,2,2,80,0,0
100747,-100,4,2,2,20,0,0

[Colours]
Combo1 : 140,46,0
Combo2 : 140,140,140
Combo3 : 63,102,129

[HitObjects]
70,77,3462,5,12,0:0:0:0:
168,76,3890,1,0,0:0:0:0:
250,29,4319,2,0,P|263:76|250:124,1,100,8|0,0:0|0:0,0:0:0:0:
205,213,5176,6,0,B|253:205|253:205|303:212,1,100,8|0,0:0|0:0,0:0:0:0:
385,260,6033,2,0,P|398:213|385:165,1,100,8|0,0:0|0:0,0:0:0:0:
360,72,6890,5,12,0:0:0:0:
459,80,7318,1,0,0:0:0:0:
484,174,7747,2,0,L|384:165,1,100,8|0,0:0|0:0,0:0:0:0:
285,135,8604,6,0,P|279:184|301:229,1,100,8|0,0:0|0:0,0:0:0:0:
336,322,9462,2,0,B|285:314|285:314|237:322,1,100,8|0,0:0|0:0,0:0:0:0:
134,326,10319,6,0,B|124:294|124:294|131:227,1,100,12|8,0:0|0:0,0:0:0:0:
144,128,11176,1,8,0:0:0:0:
223,188,11604,1,8,0:0:0:0:
313,236,12033,6,0,B|325:204|325:204|323:138,1,100,12|8,0:0|0:0,0:0:0:0:
320,37,12890,1,8,0:0:0:0:
236,90,13318,1,8,0:0:0:0:
223,188,13747,6,0,P|174:176|126:186,2,100,12|8|8,0:0|0:0|0:0,0:0:0:0:
294,258,15033,1,8,0:0:0:0:
393,271,15462,5,8,0:0:0:0:
331,349,15890,2,0,P|282:356|235:340,1,100,8|4,0:0|0:0,0:0:0:0:
80,213,17176,6,0,B|176:197|176:245|280:221,1,200,6|2,0:0|0:0,0:0:0:0:
376,213,18462,2,0,L|371:268,1,50,2|0,0:0|0:0,0:0:0:0:
352,309,18890,6,0,B|296:309|256:333|256:333|216:309|160:309,1,200,2|2,0:0|0:0,0:0:0:0:
224,110,20604,5,2,0:0:0:0:
130,146,21033,2,0,B|134:182|124:209|124:209|137:243|137:243|130:266|132:298,1,150,2|0,0:0|0:0,0:0:0:0:
136,342,21890,1,2,0:0:0:0:
232,344,22318,1,2,0:0:0:0:
320,304,22747,6,0,L|419:314,1,100,2|2,0:0|0:0,0:0:0:0:
382,222,23604,2,0,L|310:215,1,50,2|0,0:0|0:0,0:0:0:0:
282,209,24033,6,0,P|237:205|162:217,2,100,2|2|2,0:0|0:0|0:0,0:0:0:0:
355,133,25319,1,2,0:0:0:0:
263,104,25747,1,2,0:0:0:0:
192,175,26176,6,0,P|128:184|81:163,1,100,2|2,0:0|0:0,0:0:0:0:
146,86,27033,1,2,0:0:0:0:
242,88,27461,1,2,0:0:0:0:
326,143,27890,6,0,L|317:242,1,100,2|2,0:0|0:0,0:0:0:0:
299,341,28747,1,2,0:0:0:0:
200,325,29176,6,0,P|144:334|101:318,1,100,4|8,0:0|0:0,0:0:0:0:
157,236,30033,2,0,P|213:227|256:243,1,100,8|8,0:0|0:0,0:0:0:0:
335,297,30890,6,0,L|340:233,1,50,8|0,0:0|0:0,0:0:0:0:
375,217,31319,2,0,L|380:153,1,50,8|0,0:0|0:0,0:0:0:0:
392,119,31747,2,0,P|336:128|293:112,1,100,8|8,0:0|0:0,0:0:0:0:
256,22,32604,6,0,L|144:12,1,100,8|8,0:0|0:0,0:0:0:0:
84,83,33462,2,0,P|125:109|189:104,1,100,8|8,0:0|0:0,0:0:0:0:
256,56,34319,6,0,L|260:105,1,50,8|0,0:0|0:0,0:0:0:0:
261,155,34747,2,0,L|256:204,1,50,8|0,0:0|0:0,0:0:0:0:
256,256,35176,1,8,0:0:0:0:
256,352,35604,1,8,0:0:0:0:
342,305,36033,6,0,P|354:262|339:202,1,100,6|2,0:0|0:0,0:0:0:0:
269,138,36890,2,0,P|224:153|164:135,1,100,2|2,0:0|0:0,0:0:0:0:
80,104,37747,6,0,L|85:168,1,50,2|0,0:0|0:0,0:0:0:0:
63,199,38176,2,0,L|68:263,1,50,2|0,0:0|0:0,0:0:0:0:
88,293,38604,2,0,B|148:282|148:282|236:298,1,150,2|0,0:0|0:0,0:0:0:0:
283,313,39462,6,0,L|272:193,1,100,2|2,0:0|0:0,0:0:0:0:
369,185,40319,2,0,L|379:285,1,100,2|2,0:0|0:0,0:0:0:0:
455,342,41176,6,0,P|472:304|455:231,2,100,2|2|2,0:0|0:0|0:0,0:0:0:0:
355,336,42462,1,8,0:0:0:0:
255,324,42890,5,12,0:0:0:0:
255,225,43318,1,8,0:0:0:0:
353,207,43747,2,0,B|361:159|361:159|353:109,1,100,8|8,0:0|0:0,0:0:0:0:
269,52,44604,5,8,0:0:0:0:
269,150,45032,1,8,0:0:0:0:
312,240,45462,2,0,B|270:252|270:252|200:248|200:248,1,100,8|8,0:0|0:0,0:0:0:0:
112,240,46319,1,6,0:0:0:0:
72,118,53176,6,0,P|119:131|167:117,1,100,2|2,0:0|0:0,0:0:0:0:
248,69,54033,2,0,P|261:116|247:164,1,100,2|2,0:0|0:0,0:0:0:0:
166,212,54890,5,2,0:0:0:0:
91,260,55319,2,0,P|78:213|90:164,1,100,2|2,0:0|0:0,0:0:0:0:
179,132,56176,2,0,P|183:154|180:187,1,50,2|0,0:0|0:0,0:0:0:0:
170,230,56604,6,0,L|289:219,2,100,2|2|2,0:0|0:0|0:0,0:0:0:0:
137,324,57890,2,0,L|236:314,1,100,2|2,0:0|0:0,0:0:0:0:
321,260,58747,6,0,B|331:292|331:292|324:358,1,100,2|2,0:0|0:2,0:0:0:0:
420,330,59604,1,8,0:1:0:0:
452,236,60033,6,0,L|461:136,1,100,12|8,0:0|0:1,0:0:0:0:
391,63,60890,2,0,P|332:75|285:61,1,100,8|8,0:0|0:1,0:0:0:0:
200,40,61747,6,0,L|209:139,1,100,8|8,0:0|0:1,0:0:0:0:
216,192,62390,2,0,P|255:200|301:306,1,150,8|8,0:0|0:1,0:0:0:0:
216,281,63462,6,0,L|116:272,1,100,8|8,0:0|0:1,0:0:0:0:
108,222,64104,2,0,B|147:200|147:200|252:210,1,150,8|8,0:0|0:1,0:0:0:0:
329,264,65176,6,0,P|347:213|326:153,1,100,8|0,0:0|0:1,0:0:0:0:
296,139,65819,2,0,L|144:125,1,150,8|0,0:1|0:0,0:0:0:0:
97,117,66676,1,8,0:1:0:0:
90,67,66890,6,0,P|134:43|186:50,1,100,8|8,0:0|0:1,0:0:0:0:
250,121,67747,2,0,P|277:130|350:120,1,100,8|8,0:0|0:1,0:0:0:0:
436,78,68604,6,0,B|443:116|443:116|430:194,1,100,8|8,0:0|0:1,0:0:0:0:
417,224,69247,2,0,B|361:224|361:224|321:232|321:232|265:232,1,150,8|8,0:0|0:1,0:0:0:0:
200,166,70319,6,0,P|240:141|296:142,1,100,8|8,0:0|0:1,0:0:0:0:
335,116,70962,2,0,P|270:76|194:74,1,150,8|8,0:0|0:1,0:0:0:0:
105,111,72033,6,0,B|97:71|97:71|105:7,2,100,8|8|8,0:0|0:1|0:0,0:0:0:0:
127,155,73104,1,8,0:1:0:0:
162,190,73319,2,0,P|165:216|153:256,1,50,8|8,0:1|0:0,0:0:0:0:
132,280,73747,5,4,0:0:0:0:
224,304,74175,1,8,0:1:0:0:
324,315,74604,2,0,L|332:215,1,100,8|8,0:0|0:1,0:0:0:0:
250,169,75462,6,0,P|241:193|255:270,2,100,8|8|8,0:0|0:1|0:0,0:0:0:0:
284,133,76533,1,0,0:0:0:0:
284,83,76747,1,8,0:1:0:0:
185,101,77176,6,0,P|136:89|73:111,1,100,8|8,0:0|0:1,0:0:0:0:
52,135,77819,2,0,B|44:181|44:181|66:299,1,150,8|8,0:0|0:1,0:0:0:0:
125,354,78890,6,0,P|151:315|149:246,1,100,8|0,0:0|0:0,0:0:0:0:
128,224,79533,2,0,P|200:240|273:223,1,150,8|8,0:1|0:1,0:0:0:0:
360,176,80604,6,0,B|352:216|352:216|360:296,1,100,8|8,0:0|0:1,0:0:0:0:
440,332,81462,1,8,0:0:0:0:
433,232,81890,1,8,0:1:0:0:
416,128,82319,6,0,P|456:128|512:164,2,100,8|8|0,0:0|0:1|0:0,0:0:0:0:
370,148,83390,1,0,0:0:0:0:
325,170,83604,1,8,0:1:0:0:
237,124,84033,6,0,P|226:172|240:220,1,100,8|0,0:0|0:0,0:0:0:0:
283,245,84676,2,0,B|216:227|194:274|116:243,1,150,8|8,0:1|0:1,0:0:0:0:
50,195,85747,5,8,0:0:0:0:
18,156,85962,2,0,L|12:92,2,50,0|8|4,0:0|0:1|0:0,0:0:0:0:
335,276,87462,6,0,B|285:284|285:284|237:276,1,100,2|0,0:0|0:0,0:0:0:0:
184,189,88319,2,0,B|234:181|234:181|282:189,1,100,2|0,0:0|0:0,0:0:0:0:
367,242,89176,6,0,L|377:122,1,100,2|2,1:2|0:0,0:0:0:0:
291,89,90033,2,0,L|280:208,1,100,2|2,1:2|0:0,0:0:0:0:
199,236,90890,6,0,P|189:208|206:133,1,100,2|0,1:2|0:0,0:0:0:0:
255,63,91747,2,0,P|200:46|159:54,1,100,2|0,1:2|0:0,0:0:0:0:
65,92,92604,5,2,1:2:0:0:
145,156,93033,1,2,1:2:0:0:
153,252,93462,1,2,1:2:0:0:
233,316,93890,1,2,1:2:0:0:
249,215,94319,6,0,B|249:183|249:183|257:151|257:151|257:115,1,100,2|2,0:0|0:0,0:0:0:0:
329,44,95176,2,0,B|329:75|329:75|337:107|337:107|337:143,1,100,2|2,0:0|0:0,0:0:0:0:
324,242,96033,2,0,B|364:234|364:234|436:258,2,100,2|2|2,0:0|0:0|0:0,0:0:0:0:
240,296,97319,1,2,0:0:0:0:
157,242,97747,6,0,P|142:289|152:342,2,100,2|2|2,0:0|0:0|0:0,0:0:0:0:
222,166,99033,1,2,0:0:0:0:
176,78,99462,6,0,P|224:65|272:80,2,100,2|2|2,0:0|0:0|0:0,0:0:0:0:
256,192,100747,12,0,102890,0:0:0:0:
