osu file format v14

[General]
AudioFilename: audio.mp3
AudioLeadIn: 0
PreviewTime: 59604
Countdown: 0
SampleSet: Soft
StackLeniency: 0.3
Mode: 0
LetterboxInBreaks: 0
WidescreenStoryboard: 0

[Editor]
DistanceSpacing: 4.2
BeatDivisor: 4
GridSize: 8
TimelineZoom: 1.7

[Metadata]
Title:Wicked Fate
TitleUnicode:Wicked Fate
Artist:M2U
ArtistUnicode:M2U
Creator:Su1fu7
Version:LV.10
Source:Deemo
Tags:m2ustudio rayark finshie myosotis nicode
BeatmapID:1251955
BeatmapSetID:591635

[Difficulty]
HPDrainRate:5.2
CircleSize:5.2
OverallDifficulty:7.2
ApproachRate:9
SliderMultiplier:1.6
SliderTickRate:1

[Events]
//Background and Video events
0,0,"very-witch-lady-yes-now-is-lower.png",0,0
//Break Periods
//Storyboard Layer 0 (Background)
//Storyboard Layer 1 (Fail)
//Storyboard Layer 2 (Pass)
//Storyboard Layer 3 (Foreground)
//Storyboard Sound Samples

[TimingPoints]
3462,428.571428571429,4,2,1,80,1,0
15462,-80,4,2,1,80,0,0
16319,-133.333333333333,4,2,1,60,0,0
16747,-133.333333333333,4,2,1,70,0,0
17176,-100,4,2,1,80,0,0
17497,-100,4,2,1,5,0,0
17604,-100,4,2,1,80,0,0
18354,-100,4,2,1,80,0,0
18462,-100,4,2,1,80,0,0
19212,-100,4,2,1,5,0,0
19319,-100,4,2,1,80,0,0
19640,-100,4,2,1,5,0,0
19747,-100,4,2,1,80,0,0
24354,-100,4,2,1,5,0,0
24462,-100,4,2,1,80,0,0
25212,-100,4,2,1,5,0,0
25319,-100,4,2,1,80,0,0
25640,-100,4,2,1,5,0,0
25747,-100,4,2,1,80,0,0
28319,-200,4,2,1,80,0,0
28640,-200,4,2,1,5,0,0
28747,-80,4,2,1,80,0,0
29069,-80,4,2,1,5,0,0
29176,-100,4,2,1,80,0,0
35176,-80,4,2,1,80,0,0
35497,-80,4,2,1,5,0,0
35604,-66.6666666666667,4,2,1,80,0,0
35926,-66.6666666666667,4,2,1,5,0,0
36033,-66.6666666666667,4,2,1,80,0,0
41176,-100,4,2,1,80,0,0
46319,-133.333333333333,4,2,1,80,0,0
47497,-133.333333333333,4,2,1,5,0,0
47604,-133.333333333333,4,2,1,80,0,0
48890,-117.647058823529,4,2,1,80,0,0
49212,-117.647058823529,4,2,1,5,0,0
49319,-133.333333333333,4,2,1,80,0,0
49640,-133.333333333333,4,2,1,5,0,0
49747,-117.647058823529,4,2,1,80,0,0
51462,-105.263157894737,4,2,1,80,0,0
52319,-133.333333333333,4,2,1,80,0,0
53176,-100,4,2,1,80,0,0
53497,-100,4,2,1,5,0,0
53604,-100,4,2,1,80,0,0
53926,-100,4,2,1,5,0,0
54033,-100,4,2,1,80,0,0
54354,-100,4,2,1,5,0,0
54462,-100,4,2,1,80,0,0
54783,-100,4,2,1,5,0,0
54890,-100,4,2,1,80,0,0
55212,-100,4,2,1,5,0,0
55319,-100,4,2,1,80,0,0
56604,-90.9090909090909,4,2,1,80,0,0
56926,-90.9090909090909,4,2,1,5,0,0
57033,-90.9090909090909,4,2,1,80,0,0
58319,-66.6666666666667,4,2,1,80,0,0
59604,-80,4,2,1,80,0,0
86283,-80,4,2,1,5,0,0
86390,-100,4,2,1,80,0,0
86819,-100,4,2,1,5,0,0
87033,-100,4,2,1,80,0,0
87462,-100,4,2,1,70,0,0
92604,-100,4,2,1,60,0,0
96033,-100,4,2,1,70,0,0
97747,-90.9090909090909,4,2,1,80,0,0
98176,-83.3333333333333,4,2,1,80,0,0
98604,-76.9230769230769,4,2,1,80,0,0
100319,-133.333333333333,4,2,1,80,0,0
100747,-200,4,2,0,30,0,0
101176,-200,4,2,1,5,0,0

[Colours]
Combo1 : 140,46,0
Combo2 : 140,140,140
Combo3 : 63,102,129

[HitObjects]
106,143,3462,6,0,L|99:63,1,80,12|0,0:0|0:0,0:0:0:0:
170,183,3890,2,0,L|183:104,1,80
221,238,4319,2,0,L|254:165,1,80,8|0,0:0|0:0,0:0:0:0:
256,304,4747,2,0,L|307:242,1,80,0|0,0:0|0:0,0:0:0:0:
406,143,5176,6,0,L|412:63,1,80,8|0,0:0|0:0,0:0:0:0:
342,183,5604,2,0,L|328:104,1,80,0|0,0:0|0:0,0:0:0:0:
291,238,6033,2,0,L|257:165,1,80,8|0,0:0|0:0,0:0:0:0:
256,304,6461,2,0,L|204:242,1,80,0|0,0:0|0:0,0:0:0:0:
99,63,6890,6,0,L|48:125,1,80,12|0,0:0|0:0,0:0:0:0:
134,129,7319,2,0,L|101:202,1,80,0|0,0:0|0:0,0:0:0:0:
185,184,7747,2,0,L|172:263,1,80,8|0,0:0|0:0,0:0:0:0:
249,224,8176,2,0,L|256:304,1,80,0|0,0:0|0:0,0:0:0:0:
399,63,8604,6,0,L|450:125,1,80,8|0,0:0|0:0,0:0:0:0:
364,129,9033,2,0,L|397:202,1,80,0|0,0:0|0:0,0:0:0:0:
313,184,9461,2,0,L|326:263,1,80,8|0,0:0|0:0,0:0:0:0:
249,224,9890,2,0,L|242:304,1,80,0|0,0:0|0:0,0:0:0:0:
464,184,10319,6,0,L|459:240,2,40,12|0|0,0:0|0:0|0:0,0:0:0:0:
360,240,10747,1,8,0:0:0:0:
380,242,10854,1,0,0:0:0:0:
400,243,10961,1,0,0:0:0:0:
176,184,11176,6,0,L|181:240,2,40,8|0|0,0:0|0:0|0:0,0:0:0:0:
280,240,11604,1,8,0:0:0:0:
260,242,11711,1,0,0:0:0:0:
240,243,11818,1,0,0:0:0:0:
373,351,12033,6,0,L|436:356,2,40,12|0|0,0:0|0:0|0:0,0:0:0:0:
438,231,12462,1,8,0:0:0:0:
437,251,12569,1,0,0:0:0:0:
435,271,12676,1,0,0:0:0:0:
460,135,12890,6,0,L|499:138,2,40,8|0|0,0:0|0:0|0:0,0:0:0:0:
288,120,13319,1,8,0:0:0:0:
308,122,13426,1,0,0:0:0:0:
328,123,13533,1,0,0:0:0:0:
104,91,13747,6,0,L|108:131,2,40,12|0|0,0:0|0:0|0:0,0:0:0:0:
110,252,14176,1,8,0:0:0:0:
216,296,14390,1,0,0:0:0:0:
186,299,14497,1,0,0:0:0:0:
163,317,14604,1,8,0:0:0:0:
200,192,14819,1,0,0:0:0:0:
296,288,15033,2,0,P|334:295|383:279,1,80,8|0,0:0|0:0,0:0:0:0:
412,233,15354,1,0,0:0:0:0:
366,184,15462,6,0,L|374:296,1,100,8|0,0:0|0:0,0:0:0:0:
270,199,15890,1,8,0:0:0:0:
262,160,15997,1,0,0:0:0:0:
271,122,16104,1,0,0:0:0:0:
301,95,16212,1,0,0:0:0:0:
350,71,16319,6,0,B|246:39|238:119|142:87,1,210.000008010865,4|0,0:0|0:0,0:0:0:0:
118,71,17176,6,0,L|128:190,1,120,6|4,0:0|0:0,0:0:0:0:
130,220,17604,1,2,0:0:0:0:
54,116,17819,1,0,0:0:0:0:
113,11,18033,2,0,L|123:130,1,120,2|0,0:0|0:0,0:0:0:0:
128,159,18462,1,2,0:0:0:0:
256,206,18676,1,0,0:0:0:0:
398,140,18890,6,0,P|350:124|278:148,1,120,2|0,0:0|0:0,0:0:0:0:
256,206,19319,2,0,P|280:166|264:70,1,120,2|0,0:0|0:0,0:0:0:0:
229,40,19747,2,0,P|205:104|347:115,1,240,2|0,0:0|0:0,0:0:0:0:
159,179,20604,6,0,P|120:169|81:177,1,80,2|0,0:0|0:0,0:0:0:0:
211,228,21033,1,2,0:0:0:0:
118,259,21247,1,0,0:0:0:0:
222,162,21462,2,0,L|229:83,1,80,2|0,0:0|0:0,0:0:0:0:
211,228,21890,1,2,0:0:0:0:
304,197,22104,1,0,0:0:0:0:
397,166,22319,6,0,L|385:293,1,120,2|0,0:0|0:0,0:0:0:0:
386,349,22747,1,2,0:0:0:0:
389,317,22854,1,0,0:0:0:0:
385,285,22961,1,0,0:0:0:0:
375,254,23068,1,0,0:0:0:0:
359,227,23176,2,0,P|325:140|342:53,1,160,2|2,0:0|0:0,0:0:0:0:
244,183,23819,1,0,0:0:0:0:
256,71,24033,6,0,L|130:60,1,120,2|0,0:0|0:0,0:0:0:0:
118,58,24462,1,2,0:0:0:0:
257,20,24676,1,0,0:0:0:0:
250,36,24783,1,0,0:0:0:0:
256,71,24890,2,0,P|268:117|235:194,1,120,2|0,0:0|0:0,0:0:0:0:
213,222,25319,2,0,P|260:186|279:130,1,120,2|0,0:0|0:0,0:0:0:0:
280,64,25747,6,0,P|290:95|278:168,1,80,2|0,0:0|0:0,0:0:0:0:
403,17,26176,1,2,0:0:0:0:
280,64,26390,1,0,0:0:0:0:
395,98,26604,2,0,L|387:177,1,80,2|0,0:0|0:0,0:0:0:0:
403,17,27033,1,2,0:0:0:0:
480,87,27247,1,0,0:0:0:0:
336,78,27462,6,0,L|216:67,1,120,2|0,0:0|0:0,0:0:0:0:
161,53,27890,1,2,0:0:0:0:
190,53,27997,1,0,0:0:0:0:
216,67,28104,1,0,0:0:0:0:
234,91,28211,1,0,0:0:0:0:
253,125,28319,6,0,P|280:136|310:139,1,60,2|0,0:0|0:0,0:0:0:0:
397,135,28747,6,0,P|324:152|251:136,1,150,2|0,0:0|0:0,0:0:0:0:
214,124,29176,5,4,0:0:0:0:
384,208,29390,1,0,0:0:0:0:
386,232,29497,1,0,0:0:0:0:
388,257,29604,2,0,L|384:296,2,40,8|0|0,0:0|0:0|0:0,0:0:0:0:
336,64,30033,1,8,0:0:0:0:
176,192,30247,1,0,0:0:0:0:
174,216,30354,1,0,0:0:0:0:
172,241,30462,2,0,L|175:280,2,40,8|0|0,0:0|0:0|0:0,0:0:0:0:
256,88,30890,5,8,0:0:0:0:
272,256,31104,1,0,0:0:0:0:
392,168,31319,1,8,0:0:0:0:
376,353,31533,1,0,0:0:0:0:
304,176,31747,1,8,0:0:0:0:
400,255,31962,1,0,0:0:0:0:
423,238,32069,1,0,0:0:0:0:
441,218,32176,1,8,0:0:0:0:
453,194,32283,1,0,0:0:0:0:
457,168,32390,1,0,0:0:0:0:
453,142,32497,1,0,0:0:0:0:
442,117,32604,6,0,P|434:97|432:80,1,40,8|0,0:0|0:0,0:0:0:0:
432,16,32819,1,0,0:0:0:0:
451,23,32926,1,0,0:0:0:0:
470,28,33033,1,8,0:0:0:0:
490,28,33140,1,0,0:0:0:0:
510,23,33247,1,0,0:0:0:0:
376,95,33462,1,8,0:0:0:0:
256,191,33676,1,0,0:0:0:0:
232,188,33783,1,0,0:0:0:0:
208,186,33890,1,8,0:0:0:0:
248,39,34104,1,0,0:0:0:0:
135,80,34319,5,8,0:0:0:0:
134,70,34426,1,0,0:0:0:0:
133,60,34533,1,0,0:0:0:0:
132,50,34640,1,0,0:0:0:0:
132,40,34747,5,8,0:0:0:0:
161,50,34854,1,0,0:0:0:0:
190,54,34961,1,0,0:0:0:0:
220,50,35068,1,0,0:0:0:0:
248,39,35176,6,0,P|320:31|400:71,1,150,8|0,0:0|0:0,0:0:0:0:
432,119,35604,6,0,P|352:55|256:47,1,180.000006866455,8|0,0:0|0:0,0:0:0:0:
256,48,36033,5,6,0:0:0:0:
272,160,36247,1,0,0:0:0:0:
271,175,36354,1,0,0:0:0:0:
270,190,36462,1,2,0:0:0:0:
270,190,36676,1,0,0:0:0:0:
200,96,36891,1,2,0:0:0:0:
192,224,37104,1,0,0:0:0:0:
191,209,37211,1,0,0:0:0:0:
190,194,37319,1,2,0:0:0:0:
190,194,37533,1,0,0:0:0:0:
112,272,37747,5,2,0:0:0:0:
224,320,37962,1,0,0:0:0:0:
86,195,38176,1,2,0:0:0:0:
168,296,38391,1,0,0:0:0:0:
168,136,38604,1,2,0:0:0:0:
257,221,38819,1,0,0:0:0:0:
280,218,38926,1,0,0:0:0:0:
304,216,39033,1,2,0:0:0:0:
328,214,39140,1,0,0:0:0:0:
352,212,39247,1,0,0:0:0:0:
376,210,39354,1,0,0:0:0:0:
400,208,39462,5,2,0:0:0:0:
432,312,39676,1,0,0:0:0:0:
417,311,39783,1,0,0:0:0:0:
402,310,39891,1,2,0:0:0:0:
402,310,40104,1,0,0:0:0:0:
400,208,40319,1,2,0:0:0:0:
304,304,40533,1,0,0:0:0:0:
319,305,40640,1,0,0:0:0:0:
334,306,40748,1,2,0:0:0:0:
334,306,40962,1,0,0:0:0:0:
274,208,41177,6,0,P|288:168|264:104,1,80,2|0,0:0|0:0,0:0:0:0:
264,104,41498,1,0,0:0:0:0:
287,101,41604,1,2,0:0:0:0:
311,99,41712,1,0,0:0:0:0:
335,97,41819,1,0,0:0:0:0:
359,95,41926,1,0,0:0:0:0:
383,93,42033,1,2,0:0:0:0:
188,144,42247,6,0,L|182:207,1,40,0|0,0:0|0:0,0:0:0:0:
169,248,42462,1,8,0:0:0:0:
142,247,42568,1,0,0:0:0:0:
116,252,42675,1,0,0:0:0:0:
91,260,42782,1,0,0:0:0:0:
68,274,42890,1,12,0:0:0:0:
220,84,43104,6,0,L|193:141,1,40,0|0,0:0|0:0,0:0:0:0:
184,183,43318,1,8,0:0:0:0:
208,196,43425,1,0,0:0:0:0:
228,213,43532,1,0,0:0:0:0:
246,232,43639,1,0,0:0:0:0:
258,256,43747,1,8,0:0:0:0:
130,16,43962,6,0,L|181:52,1,40,0|0,0:0|0:0,0:0:0:0:
211,83,44176,1,8,0:0:0:0:
197,106,44283,1,0,0:0:0:0:
188,131,44390,1,0,0:0:0:0:
182,157,44497,1,0,0:0:0:0:
184,183,44604,1,8,0:0:0:0:
416,97,44819,6,0,L|364:133,1,40,0|0,0:0|0:0,0:0:0:0:
335,164,45033,1,8,0:0:0:0:
349,187,45140,1,0,0:0:0:0:
358,212,45247,1,0,0:0:0:0:
364,238,45354,1,0,0:0:0:0:
362,264,45461,1,8,0:0:0:0:
416,97,45676,1,0,0:0:0:0:
346,34,45890,1,8,0:0:0:0:
258,15,46104,1,0,0:0:0:0:
171,40,46319,6,0,P|174:134|185:150,1,90.0000034332277,6|0,0:0|0:0,0:0:0:0:
187,168,46747,2,0,L|158:170,3,30.0000011444092,2|0|0|0,0:0|0:0|0:0|0:0,0:0:0:0:
256,168,47176,2,0,P|265:211|256:255,1,90.0000034332277,2|0,0:0|0:0,0:0:0:0:
216,320,47604,2,0,L|303:312,1,60.0000022888184,2|0,0:0|0:0,0:0:0:0:
80,264,48033,6,0,L|20:258,1,60.0000022888184,2|0,0:0|0:0,0:0:0:0:
120,335,48462,1,2,0:0:0:0:
168,239,48676,1,0,0:0:0:0:
124,138,48890,2,0,P|116:87|129:39,1,102.000001945496,2|0,0:0|0:0,0:0:0:0:
148,22,49319,2,0,P|148:69|164:109,1,90.0000034332277,2|0,0:0|0:0,0:0:0:0:
181,130,49747,6,0,P|233:121|281:132,1,102.000001945496,2|0,0:0|0:0,0:0:0:0:
296,145,50176,1,2,0:0:0:0:
383,86,50389,1,0,0:0:0:0:
382,71,50497,1,0,0:0:0:0:
362,49,50604,2,0,P|336:55|287:45,1,68.0000012969971,2|0,0:0|0:0,0:0:0:0:
437,223,51033,1,2,0:0:0:0:
432,202,51140,1,0,0:0:0:0:
432,180,51247,1,0,0:0:0:0:
440,160,51354,1,0,0:0:0:0:
452,143,51462,6,0,P|470:108|468:63,1,75.9999979705811,2|0,0:0|0:0,0:0:0:0:
383,86,51890,1,2,0:0:0:0:
288,111,52104,1,0,0:0:0:0:
184,63,52319,2,0,L|80:53,1,90.0000034332277,2|0,0:0|0:0,0:0:0:0:
24,47,52747,1,2,0:0:0:0:
48,48,52855,1,0,0:0:0:0:
73,57,52962,1,0,0:0:0:0:
93,71,53069,1,0,0:0:0:0:
111,90,53176,6,0,P|128:127|120:207,1,120,2|0,0:0|0:0,0:0:0:0:
112,224,53604,2,0,P|152:211|232:232,1,120,2|0,0:0|0:0,0:0:0:0:
244,240,54033,2,0,P|301:254|360:245,1,120,2|0,0:0|0:0,0:0:0:0:
368,224,54462,2,0,L|357:343,1,120,2|0,0:0|0:0,0:0:0:0:
344,360,54890,6,0,P|334:301|349:243,1,120,2|0,0:0|0:0,0:0:0:0:
368,224,55319,1,2,0:0:0:0:
295,97,55533,1,0,0:0:0:0:
296,112,55640,1,0,0:0:0:0:
316,134,55747,2,0,P|372:118|436:150,1,120,2|0,0:0|0:0,0:0:0:0:
447,156,56176,1,2,0:0:0:0:
455,137,56283,1,0,0:0:0:0:
459,117,56390,1,0,0:0:0:0:
459,98,56497,1,0,0:0:0:0:
454,77,56604,6,0,P|393:49|325:55,1,132.00000402832,2|0,0:0|0:0,0:0:0:0:
313,60,57033,2,0,P|259:66|197:37,1,88.000002685547,2|0,0:0|0:0,0:0:0:0:
215,50,57354,1,0,0:0:0:0:
204,41,57462,1,2,0:0:0:0:
316,134,57676,1,0,0:0:0:0:
208,291,57890,1,2,0:0:0:0:
205,263,57997,1,0,0:0:0:0:
202,236,58104,1,0,0:0:0:0:
200,208,58211,1,0,0:0:0:0:
197,181,58319,6,0,P|147:156|77:157,1,120.000004577637,2|0,0:0|0:0,0:0:0:0:
64,176,58640,1,0,0:0:0:0:
62,144,58747,1,2,0:0:0:0:
80,335,58962,1,0,0:0:0:0:
41,98,59176,2,0,L|58:297,1,180.000006866455,2|0,0:2|0:0,0:0:0:0:
67,305,59604,1,8,0:1:0:0:
69,275,59711,1,0,0:0:0:0:
72,245,59818,1,0,0:0:0:0:
74,215,59926,1,0,0:0:0:0:
77,185,60033,6,0,L|82:113,1,50,12|0,0:0|0:0,0:0:0:0:
100,65,60247,1,0,0:0:0:0:
100,65,60354,1,0,0:0:0:0:
100,65,60462,2,0,L|211:58,1,100,8|0,0:1|0:0,0:0:0:0:
320,192,60890,1,8,0:0:0:0:
334,191,60997,1,0,0:0:0:0:
348,189,61104,1,0,0:0:0:0:
363,187,61211,1,0,0:0:0:0:
403,185,61319,5,8,0:1:0:0:
381,215,61426,1,0,0:0:0:0:
371,251,61533,1,0,0:0:0:0:
374,288,61640,1,0,0:0:0:0:
390,322,61748,5,8,0:0:0:0:
232,184,61962,1,0,0:0:0:0:
207,181,62068,1,0,0:0:0:0:
182,179,62176,1,8,0:1:0:0:
157,177,62282,1,0,0:0:0:0:
132,175,62390,1,8,0:0:0:0:
205,98,62604,1,8,0:0:0:0:
56,86,62819,1,0,0:0:0:0:
44,236,63033,2,0,L|193:248,1,150,8|0,0:1|0:0,0:0:0:0:
213,250,63462,5,8,0:0:0:0:
320,368,63676,1,0,0:0:0:0:
290,365,63783,1,0,0:0:0:0:
260,361,63890,1,8,0:1:0:0:
408,336,64104,1,8,0:0:0:0:
420,313,64211,1,0,0:0:0:0:
425,289,64318,1,0,0:0:0:0:
423,264,64425,1,0,0:0:0:0:
415,241,64532,1,0,0:0:0:0:
400,221,64639,1,0,0:0:0:0:
368,200,64748,5,8,0:1:0:0:
393,197,64854,1,0,0:0:0:0:
418,195,64961,1,0,0:0:0:0:
443,193,65068,1,0,0:0:0:0:
468,191,65176,5,8,0:0:0:0:
288,161,65390,1,0,0:0:0:0:
286,185,65497,1,0,0:0:0:0:
284,210,65604,1,8,0:1:0:0:
219,58,65819,1,0,0:0:0:0:
239,43,65926,1,0,0:0:0:0:
262,35,66033,1,8,0:0:0:0:
287,32,66140,1,0,0:0:0:0:
312,35,66247,1,0,0:0:0:0:
335,44,66354,1,0,0:0:0:0:
356,59,66462,2,0,P|395:109|395:154,1,100,8|0,0:1|0:0,0:0:0:0:
398,144,66890,5,8,0:0:0:0:
468,216,67104,1,0,0:0:0:0:
476,192,67211,1,0,0:0:0:0:
482,167,67319,2,0,P|474:103|442:71,1,100,8|0,0:1|0:0,0:0:0:0:
384,225,67747,1,8,0:0:0:0:
359,231,67854,1,0,0:0:0:0:
335,233,67961,1,0,0:0:0:0:
310,231,68068,1,0,0:0:0:0:
272,209,68176,5,8,0:1:0:0:
270,233,68283,1,0,0:0:0:0:
268,258,68390,1,0,0:0:0:0:
266,283,68497,1,0,0:0:0:0:
264,308,68604,5,8,0:0:0:0:
142,115,68819,1,0,0:0:0:0:
163,129,68926,1,0,0:0:0:0:
187,136,69033,1,8,0:1:0:0:
212,136,69140,1,0,0:0:0:0:
236,129,69247,2,0,P|284:121|332:145,1,100,8|0,0:0|0:0,0:0:0:0:
266,283,69676,1,0,0:0:0:0:
285,59,69890,2,0,L|268:250,1,150,8|0,0:1|0:0,0:0:0:0:
268,258,70319,5,8,0:0:0:0:
200,163,70533,1,0,0:0:0:0:
203,138,70640,1,0,0:0:0:0:
205,113,70747,1,8,0:1:0:0:
132,262,70962,1,8,0:0:0:0:
153,273,71069,1,0,0:0:0:0:
177,280,71176,1,0,0:0:0:0:
202,282,71283,1,0,0:0:0:0:
227,278,71390,1,0,0:0:0:0:
250,269,71497,1,0,0:0:0:0:
270,234,71604,5,8,0:1:0:0:
268,258,71711,1,0,0:0:0:0:
266,283,71818,1,0,0:0:0:0:
264,308,71925,1,0,0:0:0:0:
262,333,72033,5,8,0:0:0:0:
377,305,72247,1,0,0:0:0:0:
379,280,72354,1,0,0:0:0:0:
381,255,72462,1,8,0:1:0:0:
490,174,72676,2,0,L|476:323,1,150,8|0,0:0|0:0,0:0:0:0:
444,360,73104,6,0,P|463:331|491:316,1,50,8|0,0:1|0:0,0:0:0:0:
404,301,73319,1,8,0:1:0:0:
376,224,73533,1,8,0:0:0:0:
400,104,73747,5,4,0:0:0:0:
272,216,73962,1,0,0:0:0:0:
272,240,74069,1,0,0:0:0:0:
308,263,74176,2,0,P|331:308|312:378,1,100,8|0,0:1|0:0,0:0:0:0:
215,148,74604,1,8,0:0:0:0:
192,178,74711,1,0,0:0:0:0:
182,214,74819,1,0,0:0:0:0:
189,250,74925,1,0,0:0:0:0:
211,289,75033,5,8,0:1:0:0:
179,268,75140,1,0,0:0:0:0:
143,261,75247,1,0,0:0:0:0:
106,267,75354,1,0,0:0:0:0:
73,285,75462,5,8,0:0:0:0:
275,215,75676,1,0,0:0:0:0:
276,196,75783,1,0,0:0:0:0:
277,177,75890,1,8,0:1:0:0:
278,158,75997,1,0,0:0:0:0:
296,117,76104,2,0,L|286:228,1,100,8|0,0:0|0:0,0:0:0:0:
370,79,76533,1,0,0:0:0:0:
229,162,76747,2,0,P|220:93|292:31,1,150,8|0,0:1|0:0,0:0:0:0:
297,19,77176,5,8,0:0:0:0:
152,184,77390,1,0,0:0:0:0:
127,181,77497,1,0,0:0:0:0:
102,179,77604,1,8,0:1:0:0:
296,128,77819,1,0,0:0:0:0:
318,116,77926,1,0,0:0:0:0:
342,112,78033,1,8,0:0:0:0:
367,114,78140,1,0,0:0:0:0:
390,122,78247,1,0,0:0:0:0:
411,137,78354,1,0,0:0:0:0:
440,164,78462,5,8,0:1:0:0:
442,139,78569,1,0,0:0:0:0:
444,114,78676,1,0,0:0:0:0:
446,89,78783,1,0,0:0:0:0:
448,64,78890,5,8,0:0:0:0:
343,219,79104,1,0,0:0:0:0:
341,243,79211,1,0,0:0:0:0:
338,268,79319,1,8,0:1:0:0:
306,359,79533,1,0,0:0:0:0:
303,333,79640,1,0,0:0:0:0:
309,307,79747,1,8,0:0:0:0:
319,286,79854,1,0,0:0:0:0:
338,268,79961,1,0,0:0:0:0:
359,256,80068,1,0,0:0:0:0:
382,250,80176,2,0,P|433:221|457:162,1,100,8|0,0:1|0:0,0:0:0:0:
452,186,80604,5,8,0:0:0:0:
368,88,80819,1,0,0:1:0:0:
343,85,80926,1,0,0:0:0:0:
318,83,81033,2,0,L|198:72,1,100,8|0,0:1|0:0,0:0:0:0:
113,127,81462,1,8,0:0:0:0:
138,130,81569,1,0,0:0:0:0:
163,132,81676,1,0,0:0:0:0:
188,134,81783,1,0,0:0:0:0:
215,116,81890,5,8,0:1:0:0:
240,119,81997,1,0,0:0:0:0:
265,121,82104,1,0,0:0:0:0:
290,123,82211,1,0,0:0:0:0:
315,126,82319,5,8,0:0:0:0:
121,32,82533,1,0,0:0:0:0:
109,54,82640,1,0,0:0:0:0:
104,78,82747,1,8,0:1:0:0:
106,103,82854,1,0,0:0:0:0:
113,127,82962,2,0,P|129:191|97:255,1,100,8|0,0:0|0:0,0:0:0:0:
96,312,83390,1,0,0:0:0:0:
215,240,83604,2,0,P|262:223|311:232,1,100,8|0,0:1|0:0,0:0:0:0:
311,232,84033,5,8,0:0:0:0:
363,137,84247,1,0,0:0:0:0:
361,112,84354,1,0,0:0:0:0:
349,89,84462,1,8,0:1:0:0:
426,188,84676,1,0,0:0:0:0:
432,212,84783,1,0,0:0:0:0:
434,237,84890,1,8,0:0:0:0:
431,261,84997,1,0,0:0:0:0:
424,285,85104,1,0,0:0:0:0:
413,308,85211,1,0,0:0:0:0:
390,341,85319,5,8,0:1:0:0:
411,329,85426,1,0,0:0:0:0:
436,323,85533,1,0,0:0:0:0:
461,324,85640,1,0,0:0:0:0:
484,330,85747,5,8,0:0:0:0:
301,302,85962,1,0,0:0:0:0:
278,290,86069,1,0,0:0:0:0:
253,285,86176,2,0,P|227:285|203:292,1,50,8|0,0:1|3:0,0:0:0:0:
155,338,86390,6,0,P|213:306|326:327,1,160,4|0,0:0|0:0,0:0:0:0:
240,224,87033,1,0,0:0:0:0:
344,192,87247,1,0,0:0:0:0:
168,192,87462,6,0,L|64:182,1,80,2|0,0:0|0:0,0:0:0:0:
218,135,87890,2,0,L|142:108,1,80
281,92,88319,2,0,L|214:46,1,80,2|0,0:0|0:0,0:0:0:0:
352,66,88747,2,0,L|299:5,1,80
376,152,89176,6,0,B|383:190|383:190|375:230,1,80,2|0,1:2|0:0,0:0:0:0:
339,304,89604,2,0,B|379:312|379:312|418:305,1,80,2|0,0:0|0:0,0:0:0:0:
258,241,90033,2,0,L|267:344,1,80,2|0,1:2|0:0,0:0:0:0:
168,192,90462,2,0,L|181:271,1,80,2|0,0:0|0:0,0:0:0:0:
296,112,90890,6,0,B|257:104|257:104|217:112,1,80,2|0,1:2|0:0,0:0:0:0:
168,192,91319,2,0,B|208:200|208:200|246:192,1,80,0|0,0:0|0:0,0:0:0:0:
337,242,91747,2,0,L|346:138,1,80,2|0,1:2|0:0,0:0:0:0:
417,305,92176,2,0,L|417:224,1,80,0|0,0:0|0:0,0:0:0:0:
448,360,92604,5,2,1:2:0:0:
320,360,93033,1,2,1:2:0:0:
192,360,93462,1,2,1:2:0:0:
65,360,93890,1,2,1:2:0:0:
65,360,94319,6,0,L|60:312,2,40,2|0|0,0:0|0:0|0:0,0:0:0:0:
320,360,94747,2,0,L|324:312,2,40,2|0|0,0:0|0:0|0:0,0:0:0:0:
193,310,95176,2,0,L|188:262,2,40,2|0|0,0:0|0:0|0:0,0:0:0:0:
448,310,95604,2,0,L|452:262,2,40,2|0|0,0:0|0:0|0:0,0:0:0:0:
320,210,96033,6,0,L|324:162,2,40,2|0|0,0:0|0:0|0:0,0:0:0:0:
65,210,96462,2,0,L|60:162,2,40,2|0|0,0:0|0:0|0:0,0:0:0:0:
193,160,96890,2,0,L|188:112,2,40,2|0|0,0:0|0:0|0:0,0:0:0:0:
448,160,97318,2,0,L|452:112,2,40,2|0|0,0:0|0:0|0:0,0:0:0:0:
269,143,97747,6,0,P|231:120|188:119,1,88.000002685547,2|0,0:0|0:0,0:0:0:0:
171,128,98069,1,0,0:0:0:0:
173,111,98176,1,2,0:0:0:0:
286,185,98390,1,0,0:0:0:0:
301,203,98497,1,0,0:0:0:0:
301,237,98604,6,0,P|317:189|360:162,1,103.999995239258,2|0,0:0|0:0,0:0:0:0:
440,160,98926,1,0,0:0:0:0:
458,182,99033,2,0,P|406:183|360:161,1,103.999995239258,2|0,0:0|0:0,0:0:0:0:
274,126,99354,1,0,0:0:0:0:
300,132,99462,6,0,B|324:180|324:180|308:308,1,155.999992858887,2|0,0:0|0:0,0:0:0:0:
318,329,99890,1,2,0:0:0:0:
322,290,99997,1,0,0:0:0:0:
327,251,100104,1,0,0:0:0:0:
332,212,100211,1,0,0:0:0:0:
360,161,100319,6,0,L|372:54,1,90.0000034332277,2|0,0:0|0:0,0:0:0:0:
341,132,100747,6,0,L|332:211,1,80,2|0,1:2|0:0,0:0:0:0:
256,192,101283,12,0,104604,0:0:0:0:
