osu file format v14

[General]
AudioFilename: audio1.mp3
AudioLeadIn: 0
PreviewTime: 76177
Countdown: 0
SampleSet: Soft
StackLeniency: 0.7
Mode: 3
LetterboxInBreaks: 0
SpecialStyle: 0
WidescreenStoryboard: 1

[Editor]
Bookmarks: 102232
DistanceSpacing: 0.9
BeatDivisor: 12
GridSize: 8
TimelineZoom: 3.299999

[Metadata]
Title:White Rose
TitleUnicode:White Rose
Artist:M2U
ArtistUnicode:M2U
Creator:Meowstic
Version:SHD
Source:EZ2DJ 7th TRAX ~Resistance~
Tags:Jazz M2U EZ2DJ EZ2AC
BeatmapID:1607343
BeatmapSetID:764367

[Difficulty]
HPDrainRate:8
CircleSize:4
OverallDifficulty:8
ApproachRate:5
SliderMultiplier:1.4
SliderTickRate:1

[Events]
//Background and Video events
0,0,"white rose2.jpg",0,0
Video,0,"[EZ2DJ] M2U - White Rose BGA.avi"
//Break Periods
//Storyboard Layer 0 (Background)
//Storyboard Layer 1 (Fail)
//Storyboard Layer 2 (Pass)
//Storyboard Layer 3 (Foreground)
//Storyboard Sound Samples

[TimingPoints]
1998,468.75,4,2,0,10,1,0
46998,-100,4,2,0,10,0,1
60123,-100,4,2,0,10,0,0
91998,-100,4,2,0,10,0,1
106998,-100,4,2,0,10,0,0

[HitObjects]
192,192,1998,5,0,0:0:0:0:
448,192,1998,1,0,0:0:0:0:
64,192,1998,1,0,0:0:0:0:
192,192,2232,1,0,0:0:0:0:
320,192,2232,1,0,0:0:0:0:
448,192,2349,1,0,0:0:0:0:
448,192,2466,1,0,0:0:0:0:
192,192,2583,1,0,0:0:0:0:
320,192,2583,1,0,0:0:0:0:
192,192,2818,1,0,0:0:0:0:
448,192,2935,1,0,0:0:0:0:
320,192,2935,1,0,0:0:0:0:
192,192,3052,1,0,0:0:0:0:
448,192,3287,1,0,0:0:0:0:
320,192,3287,1,0,0:0:0:0:
192,192,3404,1,0,0:0:0:0:
448,192,3404,1,0,0:0:0:0:
192,192,3638,1,0,0:0:0:0:
320,192,3638,1,0,0:0:0:0:
320,192,3873,1,0,0:0:0:0:
64,192,3873,1,0,0:0:0:0:
320,192,4107,1,0,0:0:0:0:
448,192,4107,1,0,0:0:0:0:
64,192,4224,1,0,0:0:0:0:
64,192,4341,1,0,0:0:0:0:
320,192,4458,1,0,0:0:0:0:
448,192,4458,1,0,0:0:0:0:
320,192,4693,1,0,0:0:0:0:
64,192,4810,1,0,0:0:0:0:
448,192,4810,1,0,0:0:0:0:
320,192,4927,1,0,0:0:0:0:
448,192,4927,1,0,0:0:0:0:
64,192,5162,1,0,0:0:0:0:
448,192,5162,1,0,0:0:0:0:
320,192,5279,1,0,0:0:0:0:
64,192,5279,1,0,0:0:0:0:
192,192,5513,1,0,0:0:0:0:
448,192,5513,1,0,0:0:0:0:
64,192,5748,1,0,0:0:0:0:
448,192,5748,1,0,0:0:0:0:
64,192,5982,1,0,0:0:0:0:
192,192,5982,1,0,0:0:0:0:
448,192,6099,1,0,0:0:0:0:
448,192,6216,1,0,0:0:0:0:
64,192,6333,1,0,0:0:0:0:
192,192,6333,1,0,0:0:0:0:
64,192,6568,1,0,0:0:0:0:
448,192,6685,1,0,0:0:0:0:
192,192,6685,1,0,0:0:0:0:
64,192,6802,1,0,0:0:0:0:
448,192,7037,1,0,0:0:0:0:
192,192,7037,1,0,0:0:0:0:
64,192,7154,1,0,0:0:0:0:
448,192,7154,1,0,0:0:0:0:
64,192,7388,1,0,0:0:0:0:
192,192,7388,1,0,0:0:0:0:
320,192,7623,1,0,0:0:0:0:
192,192,7623,1,0,0:0:0:0:
320,192,7857,1,0,0:0:0:0:
64,192,7857,1,0,0:0:0:0:
192,192,7974,1,0,0:0:0:0:
192,192,8091,1,0,0:0:0:0:
320,192,8208,1,0,0:0:0:0:
64,192,8208,1,0,0:0:0:0:
192,192,8443,1,0,0:0:0:0:
64,192,8443,1,0,0:0:0:0:
448,192,8501,1,0,0:0:0:0:
64,192,8560,1,0,0:0:0:0:
192,192,8560,1,0,0:0:0:0:
320,192,8677,1,0,0:0:0:0:
448,192,8677,1,0,0:0:0:0:
192,192,8794,1,0,0:0:0:0:
64,192,8912,1,0,0:0:0:0:
448,192,8912,1,0,0:0:0:0:
192,192,8999,1,0,0:0:0:0:
320,192,8999,1,0,0:0:0:0:
448,192,9146,1,0,0:0:0:0:
320,192,9205,1,0,0:0:0:0:
192,192,9263,1,0,0:0:0:0:
64,192,9263,1,0,0:0:0:0:
320,192,9380,1,0,0:0:0:0:
448,192,9498,1,0,0:0:0:0:
64,192,9498,1,0,0:0:0:0:
192,192,9498,1,0,0:0:0:0:
448,192,9732,1,0,0:0:0:0:
320,192,9732,1,0,0:0:0:0:
64,192,9849,1,0,0:0:0:0:
64,192,9966,1,0,0:0:0:0:
448,192,10083,1,0,0:0:0:0:
320,192,10083,1,0,0:0:0:0:
192,192,10201,1,0,0:0:0:0:
448,192,10318,1,0,0:0:0:0:
64,192,10435,1,0,0:0:0:0:
192,192,10435,1,0,0:0:0:0:
448,192,10552,1,0,0:0:0:0:
64,192,10787,1,0,0:0:0:0:
320,192,10787,1,0,0:0:0:0:
448,192,10904,1,0,0:0:0:0:
64,192,10904,1,0,0:0:0:0:
448,192,11138,1,0,0:0:0:0:
320,192,11138,1,0,0:0:0:0:
320,192,11373,1,0,0:0:0:0:
64,192,11373,1,0,0:0:0:0:
320,192,11607,1,0,0:0:0:0:
192,192,11607,1,0,0:0:0:0:
64,192,11724,1,0,0:0:0:0:
448,192,11724,1,0,0:0:0:0:
64,192,11841,1,0,0:0:0:0:
320,192,11958,1,0,0:0:0:0:
192,192,11958,1,0,0:0:0:0:
448,192,12076,1,0,0:0:0:0:
320,192,12193,1,0,0:0:0:0:
64,192,12310,1,0,0:0:0:0:
192,192,12310,1,0,0:0:0:0:
320,192,12427,1,0,0:0:0:0:
448,192,12427,1,0,0:0:0:0:
64,192,12544,1,0,0:0:0:0:
192,192,12603,1,0,0:0:0:0:
448,192,12662,1,0,0:0:0:0:
320,192,12662,1,0,0:0:0:0:
192,192,12720,1,0,0:0:0:0:
448,192,12779,1,0,0:0:0:0:
320,192,12779,1,0,0:0:0:0:
64,192,12779,1,0,0:0:0:0:
192,192,12896,1,0,0:0:0:0:
320,192,13013,1,0,0:0:0:0:
448,192,13013,1,0,0:0:0:0:
192,192,13130,1,0,0:0:0:0:
64,192,13248,1,0,0:0:0:0:
448,192,13248,1,0,0:0:0:0:
320,192,13248,1,0,0:0:0:0:
192,192,13482,1,0,0:0:0:0:
64,192,13482,1,0,0:0:0:0:
448,192,13599,1,0,0:0:0:0:
448,192,13716,1,0,0:0:0:0:
192,192,13833,1,0,0:0:0:0:
320,192,13951,1,0,0:0:0:0:
192,192,14068,1,0,0:0:0:0:
448,192,14185,1,0,0:0:0:0:
64,192,14185,1,0,0:0:0:0:
192,192,14302,1,0,0:0:0:0:
448,192,14537,1,0,0:0:0:0:
64,192,14537,1,0,0:0:0:0:
192,192,14654,1,0,0:0:0:0:
448,192,14654,1,0,0:0:0:0:
192,192,14888,1,0,0:0:0:0:
64,192,14888,1,0,0:0:0:0:
448,192,15005,1,0,0:0:0:0:
320,192,15064,1,0,0:0:0:0:
64,192,15123,1,0,0:0:0:0:
192,192,15123,1,0,0:0:0:0:
64,192,15240,1,0,0:0:0:0:
448,192,15357,1,0,0:0:0:0:
192,192,15474,1,0,0:0:0:0:
64,192,15474,1,0,0:0:0:0:
320,192,15591,1,0,0:0:0:0:
448,192,15591,1,0,0:0:0:0:
64,192,15708,1,0,0:0:0:0:
448,192,15767,1,0,0:0:0:0:
448,192,15943,1,0,0:0:0:0:
64,192,16060,1,0,0:0:0:0:
320,192,16060,1,0,0:0:0:0:
64,192,16236,1,0,0:0:0:0:
320,192,16236,1,0,0:0:0:0:
64,192,16382,1,0,0:0:0:0:
448,192,16382,1,0,0:0:0:0:
192,192,16529,1,0,0:0:0:0:
448,192,16529,1,0,0:0:0:0:
64,192,16763,1,0,0:0:0:0:
448,192,16763,1,0,0:0:0:0:
64,192,16998,1,0,0:0:0:0:
448,192,16998,1,0,0:0:0:0:
320,192,16998,1,0,0:0:0:0:
192,192,17232,1,0,0:0:0:0:
320,192,17349,1,0,0:0:0:0:
448,192,17466,1,0,0:0:0:0:
64,192,17466,1,0,0:0:0:0:
192,192,17466,1,0,0:0:0:0:
320,192,17583,1,0,0:0:0:0:
64,192,17701,1,0,0:0:0:0:
192,192,17701,1,0,0:0:0:0:
320,192,17818,128,0,18404:0:0:0:0:
448,192,17818,1,0,0:0:0:0:
192,192,17935,1,0,0:0:0:0:
64,192,17935,1,0,0:0:0:0:
64,192,18287,1,0,0:0:0:0:
448,192,18404,1,0,0:0:0:0:
192,192,18521,1,0,0:0:0:0:
64,192,18638,1,0,0:0:0:0:
448,192,18755,1,0,0:0:0:0:
64,192,18873,1,0,0:0:0:0:
320,192,18873,128,0,19224:0:0:0:0:
192,192,18873,1,0,0:0:0:0:
448,192,19107,1,0,0:0:0:0:
64,192,19224,1,0,0:0:0:0:
448,192,19341,1,0,0:0:0:0:
192,192,19341,1,0,0:0:0:0:
192,192,19458,1,0,0:0:0:0:
448,192,19576,1,0,0:0:0:0:
64,192,19576,1,0,0:0:0:0:
320,192,19693,128,0,20044:0:0:0:0:
192,192,19693,1,0,0:0:0:0:
64,192,19810,1,0,0:0:0:0:
448,192,19810,1,0,0:0:0:0:
192,192,19927,1,0,0:0:0:0:
192,192,20162,1,0,0:0:0:0:
448,192,20162,1,0,0:0:0:0:
64,192,20279,1,0,0:0:0:0:
320,192,20279,1,0,0:0:0:0:
192,192,20396,1,0,0:0:0:0:
320,192,20513,1,0,0:0:0:0:
448,192,20513,1,0,0:0:0:0:
64,192,20630,1,0,0:0:0:0:
448,192,20748,1,0,0:0:0:0:
192,192,20748,128,0,21099:0:0:0:0:
320,192,20748,1,0,0:0:0:0:
64,192,20982,1,0,0:0:0:0:
320,192,21099,1,0,0:0:0:0:
448,192,21099,1,0,0:0:0:0:
448,192,21216,1,0,0:0:0:0:
64,192,21216,1,0,0:0:0:0:
320,192,21333,1,0,0:0:0:0:
192,192,21451,128,0,22037:0:0:0:0:
64,192,21451,1,0,0:0:0:0:
448,192,21685,1,0,0:0:0:0:
320,192,21685,1,0,0:0:0:0:
64,192,22037,1,0,0:0:0:0:
448,192,22037,1,0,0:0:0:0:
320,192,22154,1,0,0:0:0:0:
192,192,22154,1,0,0:0:0:0:
64,192,22271,1,0,0:0:0:0:
192,192,22388,1,0,0:0:0:0:
448,192,22388,1,0,0:0:0:0:
320,192,22505,1,0,0:0:0:0:
64,192,22623,1,0,0:0:0:0:
192,192,22623,128,0,22974:0:0:0:0:
448,192,22623,1,0,0:0:0:0:
320,192,22857,1,0,0:0:0:0:
448,192,22974,1,0,0:0:0:0:
64,192,22974,1,0,0:0:0:0:
192,192,23091,1,0,0:0:0:0:
320,192,23091,1,0,0:0:0:0:
64,192,23208,1,0,0:0:0:0:
192,192,23326,1,0,0:0:0:0:
320,192,23443,1,0,0:0:0:0:
192,192,23560,1,0,0:0:0:0:
448,192,23560,1,0,0:0:0:0:
320,192,23677,1,0,0:0:0:0:
64,192,23677,1,0,0:0:0:0:
192,192,23794,1,0,0:0:0:0:
320,192,23912,1,0,0:0:0:0:
448,192,23912,128,0,24146:0:0:0:0:
192,192,24029,1,0,0:0:0:0:
64,192,24146,1,0,0:0:0:0:
320,192,24146,128,0,24498:0:0:0:0:
192,192,24205,1,0,0:0:0:0:
64,192,24263,1,0,0:0:0:0:
448,192,24380,1,0,0:0:0:0:
192,192,24498,1,0,0:0:0:0:
64,192,24498,1,0,0:0:0:0:
448,192,24732,1,0,0:0:0:0:
64,192,24849,1,0,0:0:0:0:
320,192,24849,1,0,0:0:0:0:
448,192,24966,1,0,0:0:0:0:
192,192,24966,1,0,0:0:0:0:
64,192,25083,1,0,0:0:0:0:
448,192,25083,1,0,0:0:0:0:
192,192,25201,1,0,0:0:0:0:
320,192,25201,1,0,0:0:0:0:
64,192,25318,1,0,0:0:0:0:
448,192,25435,1,0,0:0:0:0:
192,192,25435,1,0,0:0:0:0:
320,192,25435,1,0,0:0:0:0:
64,192,25552,1,0,0:0:0:0:
192,192,25669,1,0,0:0:0:0:
320,192,25787,1,0,0:0:0:0:
448,192,25787,1,0,0:0:0:0:
64,192,25904,1,0,0:0:0:0:
192,192,25904,1,0,0:0:0:0:
320,192,26021,1,0,0:0:0:0:
192,192,26138,1,0,0:0:0:0:
448,192,26138,1,0,0:0:0:0:
320,192,26255,1,0,0:0:0:0:
64,192,26373,1,0,0:0:0:0:
448,192,26373,128,0,26724:0:0:0:0:
192,192,26373,1,0,0:0:0:0:
320,192,26607,1,0,0:0:0:0:
192,192,26724,1,0,0:0:0:0:
64,192,26724,1,0,0:0:0:0:
192,192,26841,1,0,0:0:0:0:
320,192,26841,1,0,0:0:0:0:
64,192,26958,1,0,0:0:0:0:
192,192,27076,1,0,0:0:0:0:
320,192,27193,1,0,0:0:0:0:
448,192,27193,1,0,0:0:0:0:
64,192,27310,1,0,0:0:0:0:
192,192,27310,1,0,0:0:0:0:
192,192,27427,1,0,0:0:0:0:
320,192,27427,1,0,0:0:0:0:
448,192,27662,128,0,28013:0:0:0:0:
64,192,27662,1,0,0:0:0:0:
192,192,27779,1,0,0:0:0:0:
64,192,28013,1,0,0:0:0:0:
320,192,28013,1,0,0:0:0:0:
64,192,28248,1,0,0:0:0:0:
448,192,28248,1,0,0:0:0:0:
192,192,28482,1,0,0:0:0:0:
320,192,28482,1,0,0:0:0:0:
64,192,28599,1,0,0:0:0:0:
448,192,28599,1,0,0:0:0:0:
448,192,28716,1,0,0:0:0:0:
192,192,28716,1,0,0:0:0:0:
64,192,28833,1,0,0:0:0:0:
320,192,28833,1,0,0:0:0:0:
192,192,28951,1,0,0:0:0:0:
320,192,29068,1,0,0:0:0:0:
448,192,29185,1,0,0:0:0:0:
64,192,29185,1,0,0:0:0:0:
192,192,29302,1,0,0:0:0:0:
320,192,29419,1,0,0:0:0:0:
192,192,29537,1,0,0:0:0:0:
64,192,29537,1,0,0:0:0:0:
448,192,29654,1,0,0:0:0:0:
320,192,29654,1,0,0:0:0:0:
192,192,29712,1,0,0:0:0:0:
64,192,29771,1,0,0:0:0:0:
320,192,29888,1,0,0:0:0:0:
192,192,29888,1,0,0:0:0:0:
64,192,30005,1,0,0:0:0:0:
192,192,30064,1,0,0:0:0:0:
448,192,30123,1,0,0:0:0:0:
320,192,30123,1,0,0:0:0:0:
448,192,30240,1,0,0:0:0:0:
320,192,30240,1,0,0:0:0:0:
64,192,30357,1,0,0:0:0:0:
192,192,30474,1,0,0:0:0:0:
320,192,30474,1,0,0:0:0:0:
320,192,30591,1,0,0:0:0:0:
448,192,30591,1,0,0:0:0:0:
64,192,30708,1,0,0:0:0:0:
320,192,30767,1,0,0:0:0:0:
448,192,30767,1,0,0:0:0:0:
192,192,30826,1,0,0:0:0:0:
320,192,30943,1,0,0:0:0:0:
448,192,30943,1,0,0:0:0:0:
64,192,30943,1,0,0:0:0:0:
192,192,31060,1,0,0:0:0:0:
64,192,31060,1,0,0:0:0:0:
320,192,31177,1,0,0:0:0:0:
192,192,31236,1,0,0:0:0:0:
64,192,31236,1,0,0:0:0:0:
192,192,31412,1,0,0:0:0:0:
320,192,31412,1,0,0:0:0:0:
64,192,31529,1,0,0:0:0:0:
448,192,31529,1,0,0:0:0:0:
448,192,31763,1,0,0:0:0:0:
192,192,31998,1,0,0:0:0:0:
64,192,31998,1,0,0:0:0:0:
448,192,31998,1,0,0:0:0:0:
192,192,32232,1,0,0:0:0:0:
320,192,32232,1,0,0:0:0:0:
448,192,32349,1,0,0:0:0:0:
448,192,32466,1,0,0:0:0:0:
192,192,32583,1,0,0:0:0:0:
320,192,32701,1,0,0:0:0:0:
192,192,32818,1,0,0:0:0:0:
448,192,32935,1,0,0:0:0:0:
320,192,32935,1,0,0:0:0:0:
192,192,33052,1,0,0:0:0:0:
448,192,33287,1,0,0:0:0:0:
320,192,33287,1,0,0:0:0:0:
192,192,33404,1,0,0:0:0:0:
448,192,33404,1,0,0:0:0:0:
192,192,33638,1,0,0:0:0:0:
320,192,33638,1,0,0:0:0:0:
320,192,33873,1,0,0:0:0:0:
64,192,33873,1,0,0:0:0:0:
320,192,34107,1,0,0:0:0:0:
448,192,34107,1,0,0:0:0:0:
64,192,34224,1,0,0:0:0:0:
64,192,34341,1,0,0:0:0:0:
320,192,34458,1,0,0:0:0:0:
448,192,34576,1,0,0:0:0:0:
64,192,34810,1,0,0:0:0:0:
448,192,34810,1,0,0:0:0:0:
320,192,34927,1,0,0:0:0:0:
448,192,34927,1,0,0:0:0:0:
64,192,35162,1,0,0:0:0:0:
448,192,35162,1,0,0:0:0:0:
320,192,35279,1,0,0:0:0:0:
64,192,35279,1,0,0:0:0:0:
320,192,35513,1,0,0:0:0:0:
448,192,35513,1,0,0:0:0:0:
64,192,35748,1,0,0:0:0:0:
448,192,35748,1,0,0:0:0:0:
64,192,35982,1,0,0:0:0:0:
192,192,35982,1,0,0:0:0:0:
448,192,36099,1,0,0:0:0:0:
448,192,36216,1,0,0:0:0:0:
64,192,36333,1,0,0:0:0:0:
192,192,36451,1,0,0:0:0:0:
64,192,36568,1,0,0:0:0:0:
448,192,36685,1,0,0:0:0:0:
192,192,36685,1,0,0:0:0:0:
64,192,36802,1,0,0:0:0:0:
448,192,37037,1,0,0:0:0:0:
192,192,37037,1,0,0:0:0:0:
64,192,37154,1,0,0:0:0:0:
448,192,37154,1,0,0:0:0:0:
64,192,37388,1,0,0:0:0:0:
192,192,37388,1,0,0:0:0:0:
448,192,37623,1,0,0:0:0:0:
64,192,37623,1,0,0:0:0:0:
320,192,37623,1,0,0:0:0:0:
320,192,37779,1,0,0:0:0:0:
448,192,37857,1,0,0:0:0:0:
320,192,37935,1,0,0:0:0:0:
64,192,37974,1,0,0:0:0:0:
192,192,37974,1,0,0:0:0:0:
64,192,38091,1,0,0:0:0:0:
448,192,38208,1,0,0:0:0:0:
192,192,38326,1,0,0:0:0:0:
64,192,38560,1,0,0:0:0:0:
448,192,38677,128,0,38912:0:0:0:0:
320,192,38677,128,0,38912:0:0:0:0:
64,192,38912,1,0,0:0:0:0:
448,192,39029,128,0,39146:0:0:0:0:
320,192,39029,128,0,39146:0:0:0:0:
64,192,39029,1,0,0:0:0:0:
448,192,39263,128,0,39380:0:0:0:0:
320,192,39263,128,0,39380:0:0:0:0:
64,192,39263,1,0,0:0:0:0:
448,192,39498,1,0,0:0:0:0:
192,192,39498,1,0,0:0:0:0:
64,192,39498,1,0,0:0:0:0:
320,192,39615,1,0,0:0:0:0:
64,192,39732,1,0,0:0:0:0:
192,192,39732,1,0,0:0:0:0:
448,192,39849,1,0,0:0:0:0:
192,192,39849,1,0,0:0:0:0:
64,192,39966,1,0,0:0:0:0:
320,192,39966,1,0,0:0:0:0:
192,192,40083,1,0,0:0:0:0:
320,192,40083,1,0,0:0:0:0:
64,192,40201,1,0,0:0:0:0:
192,192,40318,1,0,0:0:0:0:
320,192,40318,1,0,0:0:0:0:
448,192,40435,1,0,0:0:0:0:
64,192,40435,1,0,0:0:0:0:
192,192,40552,1,0,0:0:0:0:
320,192,40552,1,0,0:0:0:0:
64,192,40669,1,0,0:0:0:0:
448,192,40787,1,0,0:0:0:0:
192,192,40787,1,0,0:0:0:0:
320,192,40904,1,0,0:0:0:0:
448,192,40904,1,0,0:0:0:0:
64,192,40904,1,0,0:0:0:0:
192,192,41021,1,0,0:0:0:0:
448,192,41138,1,0,0:0:0:0:
320,192,41138,1,0,0:0:0:0:
64,192,41255,1,0,0:0:0:0:
448,192,41373,1,0,0:0:0:0:
192,192,41373,1,0,0:0:0:0:
320,192,41373,1,0,0:0:0:0:
64,192,41490,1,0,0:0:0:0:
320,192,41607,1,0,0:0:0:0:
192,192,41607,1,0,0:0:0:0:
448,192,41724,1,0,0:0:0:0:
64,192,41724,1,0,0:0:0:0:
448,192,41841,1,0,0:0:0:0:
192,192,41841,1,0,0:0:0:0:
64,192,41958,1,0,0:0:0:0:
192,192,41958,1,0,0:0:0:0:
320,192,42076,1,0,0:0:0:0:
192,192,42193,1,0,0:0:0:0:
64,192,42310,1,0,0:0:0:0:
448,192,42310,1,0,0:0:0:0:
64,192,42427,1,0,0:0:0:0:
192,192,42427,1,0,0:0:0:0:
320,192,42544,1,0,0:0:0:0:
448,192,42662,1,0,0:0:0:0:
192,192,42662,1,0,0:0:0:0:
448,192,42779,1,0,0:0:0:0:
320,192,42779,1,0,0:0:0:0:
64,192,42779,1,0,0:0:0:0:
192,192,42896,1,0,0:0:0:0:
448,192,43013,1,0,0:0:0:0:
320,192,43013,1,0,0:0:0:0:
64,192,43130,1,0,0:0:0:0:
64,192,43248,1,0,0:0:0:0:
192,192,43248,1,0,0:0:0:0:
448,192,43248,1,0,0:0:0:0:
320,192,43365,1,0,0:0:0:0:
192,192,43482,1,0,0:0:0:0:
64,192,43482,1,0,0:0:0:0:
448,192,43599,1,0,0:0:0:0:
192,192,43599,1,0,0:0:0:0:
64,192,43716,1,0,0:0:0:0:
320,192,43716,1,0,0:0:0:0:
192,192,43833,1,0,0:0:0:0:
320,192,43833,1,0,0:0:0:0:
448,192,43951,1,0,0:0:0:0:
320,192,44068,1,0,0:0:0:0:
192,192,44068,1,0,0:0:0:0:
64,192,44185,1,0,0:0:0:0:
448,192,44185,1,0,0:0:0:0:
320,192,44302,1,0,0:0:0:0:
192,192,44302,1,0,0:0:0:0:
64,192,44419,1,0,0:0:0:0:
448,192,44537,1,0,0:0:0:0:
192,192,44537,1,0,0:0:0:0:
448,192,44654,1,0,0:0:0:0:
320,192,44654,1,0,0:0:0:0:
64,192,44654,1,0,0:0:0:0:
192,192,44771,1,0,0:0:0:0:
448,192,44888,1,0,0:0:0:0:
320,192,44888,1,0,0:0:0:0:
192,192,45005,1,0,0:0:0:0:
320,192,45123,1,0,0:0:0:0:
448,192,45123,1,0,0:0:0:0:
64,192,45240,1,0,0:0:0:0:
192,192,45240,1,0,0:0:0:0:
448,192,45357,1,0,0:0:0:0:
192,192,45474,1,0,0:0:0:0:
64,192,45474,1,0,0:0:0:0:
320,192,45591,1,0,0:0:0:0:
448,192,45591,1,0,0:0:0:0:
320,192,45738,1,0,0:0:0:0:
448,192,45738,1,0,0:0:0:0:
64,192,45826,1,0,0:0:0:0:
320,192,45884,1,0,0:0:0:0:
448,192,45884,1,0,0:0:0:0:
192,192,46060,1,0,0:0:0:0:
64,192,46060,1,0,0:0:0:0:
448,192,46060,1,0,0:0:0:0:
448,192,46177,1,0,0:0:0:0:
192,192,46206,1,0,0:0:0:0:
64,192,46206,1,0,0:0:0:0:
192,192,46353,1,0,0:0:0:0:
64,192,46353,1,0,0:0:0:0:
448,192,46412,1,0,0:0:0:0:
320,192,46529,1,0,0:0:0:0:
192,192,46529,1,0,0:0:0:0:
192,192,46763,1,0,0:0:0:0:
320,192,46763,1,0,0:0:0:0:
64,192,46763,1,0,0:0:0:0:
448,192,46998,1,0,0:0:0:0:
64,192,46998,1,0,0:0:0:0:
192,192,46998,1,0,0:0:0:0:
64,192,47232,128,0,47466:0:0:0:0:
320,192,47232,1,0,0:0:0:0:
448,192,47349,1,0,0:0:0:0:
192,192,47466,1,0,0:0:0:0:
64,192,47583,128,0,47818:0:0:0:0:
320,192,47583,1,0,0:0:0:0:
192,192,47701,1,0,0:0:0:0:
448,192,47818,1,0,0:0:0:0:
320,192,47935,1,0,0:0:0:0:
192,192,48052,128,0,48287:0:0:0:0:
64,192,48169,1,0,0:0:0:0:
448,192,48287,1,0,0:0:0:0:
320,192,48404,1,0,0:0:0:0:
192,192,48404,1,0,0:0:0:0:
448,192,48521,1,0,0:0:0:0:
192,192,48638,128,0,48873:0:0:0:0:
64,192,48638,1,0,0:0:0:0:
320,192,48755,1,0,0:0:0:0:
448,192,48873,1,0,0:0:0:0:
64,192,48873,1,0,0:0:0:0:
448,192,49107,128,0,49341:0:0:0:0:
192,192,49107,1,0,0:0:0:0:
64,192,49224,1,0,0:0:0:0:
320,192,49341,1,0,0:0:0:0:
448,192,49458,128,0,49693:0:0:0:0:
64,192,49458,1,0,0:0:0:0:
192,192,49576,1,0,0:0:0:0:
320,192,49693,1,0,0:0:0:0:
64,192,49810,1,0,0:0:0:0:
448,192,49810,1,0,0:0:0:0:
320,192,49927,128,0,50162:0:0:0:0:
192,192,49927,1,0,0:0:0:0:
64,192,50044,1,0,0:0:0:0:
448,192,50162,1,0,0:0:0:0:
64,192,50279,1,0,0:0:0:0:
192,192,50279,1,0,0:0:0:0:
192,192,50513,128,0,50748:0:0:0:0:
448,192,50513,1,0,0:0:0:0:
320,192,50630,1,0,0:0:0:0:
64,192,50748,128,0,50982:0:0:0:0:
448,192,50748,1,0,0:0:0:0:
448,192,50982,1,0,0:0:0:0:
320,192,50982,1,0,0:0:0:0:
192,192,51099,1,0,0:0:0:0:
320,192,51216,1,0,0:0:0:0:
64,192,51216,1,0,0:0:0:0:
448,192,51333,1,0,0:0:0:0:
192,192,51451,1,0,0:0:0:0:
448,192,51568,1,0,0:0:0:0:
320,192,51685,1,0,0:0:0:0:
64,192,51802,128,0,52037:0:0:0:0:
192,192,51802,1,0,0:0:0:0:
448,192,51919,1,0,0:0:0:0:
192,192,52037,1,0,0:0:0:0:
320,192,52154,1,0,0:0:0:0:
448,192,52154,1,0,0:0:0:0:
192,192,52271,1,0,0:0:0:0:
320,192,52388,128,0,52623:0:0:0:0:
64,192,52388,1,0,0:0:0:0:
192,192,52623,128,0,52857:0:0:0:0:
448,192,52623,1,0,0:0:0:0:
64,192,52740,1,0,0:0:0:0:
448,192,52857,1,0,0:0:0:0:
320,192,52857,1,0,0:0:0:0:
64,192,52974,1,0,0:0:0:0:
192,192,53091,128,0,53326:0:0:0:0:
448,192,53091,1,0,0:0:0:0:
320,192,53208,1,0,0:0:0:0:
64,192,53326,1,0,0:0:0:0:
448,192,53443,1,0,0:0:0:0:
64,192,53560,1,0,0:0:0:0:
320,192,53677,128,0,53912:0:0:0:0:
448,192,53677,1,0,0:0:0:0:
192,192,53794,1,0,0:0:0:0:
64,192,53912,1,0,0:0:0:0:
192,192,54029,128,0,54263:0:0:0:0:
448,192,54029,1,0,0:0:0:0:
448,192,54263,128,0,54498:0:0:0:0:
320,192,54263,1,0,0:0:0:0:
64,192,54263,1,0,0:0:0:0:
320,192,54380,1,0,0:0:0:0:
192,192,54498,1,0,0:0:0:0:
64,192,54498,1,0,0:0:0:0:
320,192,54732,128,0,54966:0:0:0:0:
64,192,54732,1,0,0:0:0:0:
192,192,54849,1,0,0:0:0:0:
448,192,54966,1,0,0:0:0:0:
320,192,55083,128,0,55318:0:0:0:0:
192,192,55083,1,0,0:0:0:0:
64,192,55201,1,0,0:0:0:0:
448,192,55318,1,0,0:0:0:0:
64,192,55435,1,0,0:0:0:0:
192,192,55552,128,0,55787:0:0:0:0:
448,192,55669,1,0,0:0:0:0:
320,192,55787,1,0,0:0:0:0:
448,192,55904,1,0,0:0:0:0:
64,192,55904,1,0,0:0:0:0:
192,192,56021,1,0,0:0:0:0:
64,192,56138,128,0,56373:0:0:0:0:
448,192,56138,1,0,0:0:0:0:
320,192,56255,1,0,0:0:0:0:
448,192,56373,1,0,0:0:0:0:
192,192,56373,1,0,0:0:0:0:
448,192,56607,128,0,56841:0:0:0:0:
320,192,56607,1,0,0:0:0:0:
64,192,56724,1,0,0:0:0:0:
192,192,56841,1,0,0:0:0:0:
448,192,56958,128,0,57193:0:0:0:0:
64,192,56958,1,0,0:0:0:0:
320,192,57076,1,0,0:0:0:0:
64,192,57193,1,0,0:0:0:0:
192,192,57193,1,0,0:0:0:0:
320,192,57310,1,0,0:0:0:0:
192,192,57310,1,0,0:0:0:0:
64,192,57427,128,0,57662:0:0:0:0:
448,192,57427,1,0,0:0:0:0:
192,192,57544,1,0,0:0:0:0:
448,192,57662,1,0,0:0:0:0:
192,192,57779,1,0,0:0:0:0:
320,192,57779,1,0,0:0:0:0:
192,192,58013,128,0,58248:0:0:0:0:
448,192,58013,1,0,0:0:0:0:
320,192,58130,1,0,0:0:0:0:
64,192,58248,128,0,58482:0:0:0:0:
448,192,58248,1,0,0:0:0:0:
320,192,58482,1,0,0:0:0:0:
448,192,58482,1,0,0:0:0:0:
192,192,58599,1,0,0:0:0:0:
448,192,58716,1,0,0:0:0:0:
64,192,58716,1,0,0:0:0:0:
192,192,58833,1,0,0:0:0:0:
320,192,58833,1,0,0:0:0:0:
64,192,58951,1,0,0:0:0:0:
320,192,59068,1,0,0:0:0:0:
448,192,59185,1,0,0:0:0:0:
192,192,59302,1,0,0:0:0:0:
320,192,59419,1,0,0:0:0:0:
64,192,59537,1,0,0:0:0:0:
192,192,59654,1,0,0:0:0:0:
448,192,59654,1,0,0:0:0:0:
192,192,59888,1,0,0:0:0:0:
448,192,60123,1,0,0:0:0:0:
320,192,60123,1,0,0:0:0:0:
64,192,60123,1,0,0:0:0:0:
192,192,60240,1,0,0:0:0:0:
320,192,60357,1,0,0:0:0:0:
448,192,60474,1,0,0:0:0:0:
64,192,60474,1,0,0:0:0:0:
192,192,60474,1,0,0:0:0:0:
320,192,60591,1,0,0:0:0:0:
192,192,60708,1,0,0:0:0:0:
448,192,60826,1,0,0:0:0:0:
64,192,60826,1,0,0:0:0:0:
320,192,60826,1,0,0:0:0:0:
192,192,60943,1,0,0:0:0:0:
320,192,61060,1,0,0:0:0:0:
192,192,61177,1,0,0:0:0:0:
448,192,61177,1,0,0:0:0:0:
64,192,61177,1,0,0:0:0:0:
320,192,61294,1,0,0:0:0:0:
192,192,61412,1,0,0:0:0:0:
320,192,61529,1,0,0:0:0:0:
64,192,61529,1,0,0:0:0:0:
448,192,61529,1,0,0:0:0:0:
64,192,61763,1,0,0:0:0:0:
448,192,61763,1,0,0:0:0:0:
320,192,61763,1,0,0:0:0:0:
448,192,61998,1,0,0:0:0:0:
192,192,61998,1,0,0:0:0:0:
64,192,61998,1,0,0:0:0:0:
320,192,62232,1,0,0:0:0:0:
64,192,62349,1,0,0:0:0:0:
192,192,62408,1,0,0:0:0:0:
320,192,62466,1,0,0:0:0:0:
448,192,62466,1,0,0:0:0:0:
64,192,62583,1,0,0:0:0:0:
192,192,62701,1,0,0:0:0:0:
320,192,62818,1,0,0:0:0:0:
448,192,62935,1,0,0:0:0:0:
192,192,63052,1,0,0:0:0:0:
64,192,63052,1,0,0:0:0:0:
320,192,63404,1,0,0:0:0:0:
448,192,63404,1,0,0:0:0:0:
64,192,63404,1,0,0:0:0:0:
192,192,63638,1,0,0:0:0:0:
320,192,63755,1,0,0:0:0:0:
64,192,63873,1,0,0:0:0:0:
448,192,63873,1,0,0:0:0:0:
320,192,63990,1,0,0:0:0:0:
192,192,64107,1,0,0:0:0:0:
448,192,64224,1,0,0:0:0:0:
320,192,64283,1,0,0:0:0:0:
64,192,64341,1,0,0:0:0:0:
192,192,64341,1,0,0:0:0:0:
448,192,64458,1,0,0:0:0:0:
320,192,64576,1,0,0:0:0:0:
192,192,64693,1,0,0:0:0:0:
64,192,64810,1,0,0:0:0:0:
320,192,64927,1,0,0:0:0:0:
448,192,64927,1,0,0:0:0:0:
64,192,65044,1,0,0:0:0:0:
192,192,65162,1,0,0:0:0:0:
320,192,65220,1,0,0:0:0:0:
448,192,65279,1,0,0:0:0:0:
64,192,65279,1,0,0:0:0:0:
192,192,65279,1,0,0:0:0:0:
320,192,65396,1,0,0:0:0:0:
192,192,65513,1,0,0:0:0:0:
320,192,65630,1,0,0:0:0:0:
448,192,65748,1,0,0:0:0:0:
64,192,65748,1,0,0:0:0:0:
192,192,65865,1,0,0:0:0:0:
320,192,65982,1,0,0:0:0:0:
448,192,66099,1,0,0:0:0:0:
320,192,66158,1,0,0:0:0:0:
192,192,66216,1,0,0:0:0:0:
64,192,66216,1,0,0:0:0:0:
448,192,66333,1,0,0:0:0:0:
320,192,66333,1,0,0:0:0:0:
64,192,66451,1,0,0:0:0:0:
320,192,66568,1,0,0:0:0:0:
192,192,66568,1,0,0:0:0:0:
64,192,66685,1,0,0:0:0:0:
448,192,66685,1,0,0:0:0:0:
192,192,66802,1,0,0:0:0:0:
320,192,66802,1,0,0:0:0:0:
448,192,66919,1,0,0:0:0:0:
192,192,67037,1,0,0:0:0:0:
64,192,67154,1,0,0:0:0:0:
448,192,67154,1,0,0:0:0:0:
320,192,67154,1,0,0:0:0:0:
192,192,67271,1,0,0:0:0:0:
320,192,67388,1,0,0:0:0:0:
448,192,67388,1,0,0:0:0:0:
192,192,67505,1,0,0:0:0:0:
320,192,67564,1,0,0:0:0:0:
192,192,67623,1,0,0:0:0:0:
448,192,67623,1,0,0:0:0:0:
64,192,67623,1,0,0:0:0:0:
320,192,67740,1,0,0:0:0:0:
192,192,67857,1,0,0:0:0:0:
448,192,67974,1,0,0:0:0:0:
320,192,68091,1,0,0:0:0:0:
192,192,68208,1,0,0:0:0:0:
64,192,68208,1,0,0:0:0:0:
320,192,68267,1,0,0:0:0:0:
448,192,68326,1,0,0:0:0:0:
192,192,68443,1,0,0:0:0:0:
64,192,68560,1,0,0:0:0:0:
320,192,68677,1,0,0:0:0:0:
448,192,68677,1,0,0:0:0:0:
192,192,68736,1,0,0:0:0:0:
64,192,68794,1,0,0:0:0:0:
448,192,69029,1,0,0:0:0:0:
320,192,69029,1,0,0:0:0:0:
64,192,69029,1,0,0:0:0:0:
192,192,69146,1,0,0:0:0:0:
64,192,69263,1,0,0:0:0:0:
320,192,69263,1,0,0:0:0:0:
448,192,69380,1,0,0:0:0:0:
192,192,69498,1,0,0:0:0:0:
320,192,69498,1,0,0:0:0:0:
64,192,69498,1,0,0:0:0:0:
448,192,69615,1,0,0:0:0:0:
320,192,69673,1,0,0:0:0:0:
64,192,69732,1,0,0:0:0:0:
192,192,69732,1,0,0:0:0:0:
320,192,69790,1,0,0:0:0:0:
448,192,69849,1,0,0:0:0:0:
320,192,69908,1,0,0:0:0:0:
64,192,69966,1,0,0:0:0:0:
192,192,69966,1,0,0:0:0:0:
448,192,70083,1,0,0:0:0:0:
64,192,70201,1,0,0:0:0:0:
320,192,70318,1,0,0:0:0:0:
64,192,70435,1,0,0:0:0:0:
448,192,70552,1,0,0:0:0:0:
320,192,70552,1,0,0:0:0:0:
192,192,70787,1,0,0:0:0:0:
320,192,70845,1,0,0:0:0:0:
64,192,70904,1,0,0:0:0:0:
448,192,70904,1,0,0:0:0:0:
192,192,70904,1,0,0:0:0:0:
192,192,71138,1,0,0:0:0:0:
320,192,71138,1,0,0:0:0:0:
320,192,71373,1,0,0:0:0:0:
448,192,71373,1,0,0:0:0:0:
64,192,71373,1,0,0:0:0:0:
192,192,71490,1,0,0:0:0:0:
64,192,71607,1,0,0:0:0:0:
448,192,71607,1,0,0:0:0:0:
192,192,71724,1,0,0:0:0:0:
448,192,71841,1,0,0:0:0:0:
320,192,71841,1,0,0:0:0:0:
64,192,71958,1,0,0:0:0:0:
192,192,71958,1,0,0:0:0:0:
320,192,72076,1,0,0:0:0:0:
64,192,72193,1,0,0:0:0:0:
448,192,72193,1,0,0:0:0:0:
192,192,72310,1,0,0:0:0:0:
320,192,72310,1,0,0:0:0:0:
64,192,72427,1,0,0:0:0:0:
448,192,72427,1,0,0:0:0:0:
192,192,72662,1,0,0:0:0:0:
320,192,72720,1,0,0:0:0:0:
192,192,72779,1,0,0:0:0:0:
448,192,72779,1,0,0:0:0:0:
64,192,72779,1,0,0:0:0:0:
320,192,72896,1,0,0:0:0:0:
192,192,73013,1,0,0:0:0:0:
64,192,73248,1,0,0:0:0:0:
448,192,73248,1,0,0:0:0:0:
448,192,73482,1,0,0:0:0:0:
320,192,73482,1,0,0:0:0:0:
64,192,73540,1,0,0:0:0:0:
192,192,73599,1,0,0:0:0:0:
64,192,73658,1,0,0:0:0:0:
320,192,73716,1,0,0:0:0:0:
448,192,73716,1,0,0:0:0:0:
64,192,73833,1,0,0:0:0:0:
192,192,73833,1,0,0:0:0:0:
64,192,74068,5,0,0:0:0:0:
320,192,74068,1,0,0:0:0:0:
448,192,74185,1,0,0:0:0:0:
192,192,74185,1,0,0:0:0:0:
320,192,74263,1,0,0:0:0:0:
64,192,74302,1,0,0:0:0:0:
448,192,74341,1,0,0:0:0:0:
320,192,74419,1,0,0:0:0:0:
448,192,74498,1,0,0:0:0:0:
320,192,74576,1,0,0:0:0:0:
192,192,74654,1,0,0:0:0:0:
448,192,74654,1,0,0:0:0:0:
64,192,74654,1,0,0:0:0:0:
320,192,74771,1,0,0:0:0:0:
192,192,74888,1,0,0:0:0:0:
64,192,75123,5,0,0:0:0:0:
448,192,75123,1,0,0:0:0:0:
320,192,75123,1,0,0:0:0:0:
64,192,75357,1,0,0:0:0:0:
320,192,75474,1,0,0:0:0:0:
448,192,75474,1,0,0:0:0:0:
192,192,75474,1,0,0:0:0:0:
448,192,75708,1,0,0:0:0:0:
320,192,75826,1,0,0:0:0:0:
64,192,75826,1,0,0:0:0:0:
192,192,75826,1,0,0:0:0:0:
192,192,76060,1,0,0:0:0:0:
320,192,76060,1,0,0:0:0:0:
192,192,76206,1,0,0:0:0:0:
320,192,76206,1,0,0:0:0:0:
64,192,76236,1,0,0:0:0:0:
448,192,76236,1,0,0:0:0:0:
64,192,76353,1,0,0:0:0:0:
192,192,76353,1,0,0:0:0:0:
320,192,76353,1,0,0:0:0:0:
448,192,76529,1,0,0:0:0:0:
320,192,76529,1,0,0:0:0:0:
192,192,76529,1,0,0:0:0:0:
320,192,76675,1,0,0:0:0:0:
448,192,76675,1,0,0:0:0:0:
192,192,76705,1,0,0:0:0:0:
64,192,76763,1,0,0:0:0:0:
192,192,76822,1,0,0:0:0:0:
320,192,76822,1,0,0:0:0:0:
64,192,76998,1,0,0:0:0:0:
448,192,76998,1,0,0:0:0:0:
320,192,76998,1,0,0:0:0:0:
192,192,77232,1,0,0:0:0:0:
320,192,77232,1,0,0:0:0:0:
320,192,77466,1,0,0:0:0:0:
448,192,77466,1,0,0:0:0:0:
192,192,77583,1,0,0:0:0:0:
64,192,77583,1,0,0:0:0:0:
448,192,77818,1,0,0:0:0:0:
64,192,77818,1,0,0:0:0:0:
320,192,77935,1,0,0:0:0:0:
192,192,78052,1,0,0:0:0:0:
64,192,78404,1,0,0:0:0:0:
448,192,78404,1,0,0:0:0:0:
320,192,78521,1,0,0:0:0:0:
448,192,78638,1,0,0:0:0:0:
64,192,78638,1,0,0:0:0:0:
192,192,78755,1,0,0:0:0:0:
320,192,78873,1,0,0:0:0:0:
448,192,78873,1,0,0:0:0:0:
64,192,78873,1,0,0:0:0:0:
192,192,78990,1,0,0:0:0:0:
320,192,79107,1,0,0:0:0:0:
448,192,79224,1,0,0:0:0:0:
64,192,79341,1,0,0:0:0:0:
320,192,79341,1,0,0:0:0:0:
192,192,79458,1,0,0:0:0:0:
448,192,79458,1,0,0:0:0:0:
320,192,79576,1,0,0:0:0:0:
64,192,79693,1,0,0:0:0:0:
192,192,79810,1,0,0:0:0:0:
448,192,79810,1,0,0:0:0:0:
320,192,79927,1,0,0:0:0:0:
64,192,79927,1,0,0:0:0:0:
192,192,80044,1,0,0:0:0:0:
448,192,80162,1,0,0:0:0:0:
64,192,80191,1,0,0:0:0:0:
320,192,80279,1,0,0:0:0:0:
192,192,80279,1,0,0:0:0:0:
448,192,80396,1,0,0:0:0:0:
192,192,80513,1,0,0:0:0:0:
64,192,80513,1,0,0:0:0:0:
320,192,80630,1,0,0:0:0:0:
64,192,80748,1,0,0:0:0:0:
448,192,80748,1,0,0:0:0:0:
192,192,80748,1,0,0:0:0:0:
320,192,80982,1,0,0:0:0:0:
448,192,81216,1,0,0:0:0:0:
192,192,81216,1,0,0:0:0:0:
64,192,81333,1,0,0:0:0:0:
192,192,81451,1,0,0:0:0:0:
320,192,81568,1,0,0:0:0:0:
192,192,81685,1,0,0:0:0:0:
64,192,81685,1,0,0:0:0:0:
448,192,81802,1,0,0:0:0:0:
320,192,81802,1,0,0:0:0:0:
192,192,81919,1,0,0:0:0:0:
320,192,82037,1,0,0:0:0:0:
192,192,82154,1,0,0:0:0:0:
448,192,82154,1,0,0:0:0:0:
64,192,82154,1,0,0:0:0:0:
320,192,82212,1,0,0:0:0:0:
192,192,82271,1,0,0:0:0:0:
64,192,82388,1,0,0:0:0:0:
448,192,82388,1,0,0:0:0:0:
192,192,82505,1,0,0:0:0:0:
448,192,82623,1,0,0:0:0:0:
320,192,82623,1,0,0:0:0:0:
192,192,82740,1,0,0:0:0:0:
64,192,82740,1,0,0:0:0:0:
320,192,82857,1,0,0:0:0:0:
192,192,82974,1,0,0:0:0:0:
64,192,82974,1,0,0:0:0:0:
448,192,83091,1,0,0:0:0:0:
192,192,83208,1,0,0:0:0:0:
320,192,83208,1,0,0:0:0:0:
64,192,83238,1,0,0:0:0:0:
192,192,83443,1,0,0:0:0:0:
448,192,83443,1,0,0:0:0:0:
320,192,83560,1,0,0:0:0:0:
64,192,83677,1,0,0:0:0:0:
192,192,83794,1,0,0:0:0:0:
320,192,83912,1,0,0:0:0:0:
192,192,84029,1,0,0:0:0:0:
64,192,84029,1,0,0:0:0:0:
448,192,84029,1,0,0:0:0:0:
64,192,84146,1,0,0:0:0:0:
320,192,84146,1,0,0:0:0:0:
192,192,84263,1,0,0:0:0:0:
64,192,84498,1,0,0:0:0:0:
320,192,84498,1,0,0:0:0:0:
448,192,84498,1,0,0:0:0:0:
192,192,84732,1,0,0:0:0:0:
320,192,84732,1,0,0:0:0:0:
448,192,84966,1,0,0:0:0:0:
64,192,84966,1,0,0:0:0:0:
192,192,85044,1,0,0:0:0:0:
448,192,85083,1,0,0:0:0:0:
64,192,85123,1,0,0:0:0:0:
192,192,85201,1,0,0:0:0:0:
448,192,85279,1,0,0:0:0:0:
320,192,85318,1,0,0:0:0:0:
192,192,85357,1,0,0:0:0:0:
448,192,85435,1,0,0:0:0:0:
64,192,85435,1,0,0:0:0:0:
192,192,85513,1,0,0:0:0:0:
448,192,85552,1,0,0:0:0:0:
64,192,85591,1,0,0:0:0:0:
320,192,85669,1,0,0:0:0:0:
192,192,85748,1,0,0:0:0:0:
64,192,85826,1,0,0:0:0:0:
192,192,85904,1,0,0:0:0:0:
448,192,85904,1,0,0:0:0:0:
320,192,85904,1,0,0:0:0:0:
64,192,86021,1,0,0:0:0:0:
320,192,86138,1,0,0:0:0:0:
192,192,86138,1,0,0:0:0:0:
448,192,86255,1,0,0:0:0:0:
192,192,86373,1,0,0:0:0:0:
64,192,86373,1,0,0:0:0:0:
320,192,86490,1,0,0:0:0:0:
448,192,86607,1,0,0:0:0:0:
192,192,86607,1,0,0:0:0:0:
64,192,86636,1,0,0:0:0:0:
320,192,86724,1,0,0:0:0:0:
64,192,86841,1,0,0:0:0:0:
448,192,86841,1,0,0:0:0:0:
320,192,86958,1,0,0:0:0:0:
192,192,86958,1,0,0:0:0:0:
448,192,87193,1,0,0:0:0:0:
320,192,87310,1,0,0:0:0:0:
64,192,87427,1,0,0:0:0:0:
448,192,87544,1,0,0:0:0:0:
192,192,87662,1,0,0:0:0:0:
448,192,87779,1,0,0:0:0:0:
64,192,87779,1,0,0:0:0:0:
320,192,87896,1,0,0:0:0:0:
64,192,88013,1,0,0:0:0:0:
192,192,88013,1,0,0:0:0:0:
320,192,88130,1,0,0:0:0:0:
192,192,88248,1,0,0:0:0:0:
64,192,88248,1,0,0:0:0:0:
448,192,88248,1,0,0:0:0:0:
448,192,88482,1,0,0:0:0:0:
320,192,88482,1,0,0:0:0:0:
192,192,88560,1,0,0:0:0:0:
64,192,88638,1,0,0:0:0:0:
448,192,88716,1,0,0:0:0:0:
320,192,88716,1,0,0:0:0:0:
64,192,88794,1,0,0:0:0:0:
192,192,88833,1,0,0:0:0:0:
320,192,88873,1,0,0:0:0:0:
448,192,88951,1,0,0:0:0:0:
320,192,89029,1,0,0:0:0:0:
192,192,89068,1,0,0:0:0:0:
64,192,89107,1,0,0:0:0:0:
448,192,89185,1,0,0:0:0:0:
320,192,89185,1,0,0:0:0:0:
192,192,89263,1,0,0:0:0:0:
320,192,89302,1,0,0:0:0:0:
448,192,89341,1,0,0:0:0:0:
64,192,89419,1,0,0:0:0:0:
192,192,89498,1,0,0:0:0:0:
320,192,89576,1,0,0:0:0:0:
448,192,89654,1,0,0:0:0:0:
64,192,89654,1,0,0:0:0:0:
192,192,89654,1,0,0:0:0:0:
320,192,89732,1,0,0:0:0:0:
192,192,89810,1,0,0:0:0:0:
448,192,89888,1,0,0:0:0:0:
64,192,89888,1,0,0:0:0:0:
320,192,89966,1,0,0:0:0:0:
192,192,90044,1,0,0:0:0:0:
320,192,90123,1,0,0:0:0:0:
448,192,90123,1,0,0:0:0:0:
64,192,90123,1,0,0:0:0:0:
192,192,90201,1,0,0:0:0:0:
448,192,90279,1,0,0:0:0:0:
64,192,90357,1,0,0:0:0:0:
192,192,90357,1,0,0:0:0:0:
448,192,90435,1,0,0:0:0:0:
192,192,90513,1,0,0:0:0:0:
320,192,90591,1,0,0:0:0:0:
448,192,90591,1,0,0:0:0:0:
192,192,90669,1,0,0:0:0:0:
64,192,90708,1,0,0:0:0:0:
448,192,90748,1,0,0:0:0:0:
192,192,90826,1,0,0:0:0:0:
448,192,90904,1,0,0:0:0:0:
192,192,90982,1,0,0:0:0:0:
320,192,91060,1,0,0:0:0:0:
448,192,91060,1,0,0:0:0:0:
192,192,91138,1,0,0:0:0:0:
64,192,91177,1,0,0:0:0:0:
448,192,91216,1,0,0:0:0:0:
192,192,91294,1,0,0:0:0:0:
320,192,91373,1,0,0:0:0:0:
192,192,91451,1,0,0:0:0:0:
320,192,91529,1,0,0:0:0:0:
64,192,91529,1,0,0:0:0:0:
448,192,91529,1,0,0:0:0:0:
192,192,91646,1,0,0:0:0:0:
320,192,91763,1,0,0:0:0:0:
192,192,91880,1,0,0:0:0:0:
320,192,91998,1,0,0:0:0:0:
64,192,91998,1,0,0:0:0:0:
448,192,91998,1,0,0:0:0:0:
192,192,92115,1,0,0:0:0:0:
320,192,92232,1,0,0:0:0:0:
448,192,92232,1,0,0:0:0:0:
64,192,92349,1,0,0:0:0:0:
192,192,92466,1,0,0:0:0:0:
320,192,92466,1,0,0:0:0:0:
64,192,92583,1,0,0:0:0:0:
448,192,92701,1,0,0:0:0:0:
192,192,92818,1,0,0:0:0:0:
64,192,92818,1,0,0:0:0:0:
448,192,92935,1,0,0:0:0:0:
192,192,93052,1,0,0:0:0:0:
64,192,93052,1,0,0:0:0:0:
448,192,93111,1,0,0:0:0:0:
320,192,93169,1,0,0:0:0:0:
192,192,93287,1,0,0:0:0:0:
320,192,93404,1,0,0:0:0:0:
448,192,93404,1,0,0:0:0:0:
64,192,93404,1,0,0:0:0:0:
192,192,93638,1,0,0:0:0:0:
320,192,93638,1,0,0:0:0:0:
64,192,93755,1,0,0:0:0:0:
320,192,93873,1,0,0:0:0:0:
448,192,93873,1,0,0:0:0:0:
192,192,93990,1,0,0:0:0:0:
64,192,94107,1,0,0:0:0:0:
448,192,94107,1,0,0:0:0:0:
192,192,94224,1,0,0:0:0:0:
320,192,94341,1,0,0:0:0:0:
448,192,94341,1,0,0:0:0:0:
64,192,94458,1,0,0:0:0:0:
192,192,94458,1,0,0:0:0:0:
320,192,94576,1,0,0:0:0:0:
448,192,94693,1,0,0:0:0:0:
192,192,94810,1,0,0:0:0:0:
320,192,94927,1,0,0:0:0:0:
448,192,94927,1,0,0:0:0:0:
64,192,94927,1,0,0:0:0:0:
192,192,95162,1,0,0:0:0:0:
320,192,95162,1,0,0:0:0:0:
64,192,95279,1,0,0:0:0:0:
448,192,95279,1,0,0:0:0:0:
320,192,95279,1,0,0:0:0:0:
192,192,95337,1,0,0:0:0:0:
320,192,95396,1,0,0:0:0:0:
448,192,95513,1,0,0:0:0:0:
64,192,95513,1,0,0:0:0:0:
192,192,95630,1,0,0:0:0:0:
448,192,95748,1,0,0:0:0:0:
320,192,95748,1,0,0:0:0:0:
64,192,95865,1,0,0:0:0:0:
192,192,95982,1,0,0:0:0:0:
448,192,95982,1,0,0:0:0:0:
320,192,96099,1,0,0:0:0:0:
64,192,96216,1,0,0:0:0:0:
448,192,96216,1,0,0:0:0:0:
192,192,96333,1,0,0:0:0:0:
320,192,96333,1,0,0:0:0:0:
448,192,96451,1,0,0:0:0:0:
320,192,96568,1,0,0:0:0:0:
64,192,96568,1,0,0:0:0:0:
192,192,96685,1,0,0:0:0:0:
448,192,96685,1,0,0:0:0:0:
64,192,96802,1,0,0:0:0:0:
320,192,96802,1,0,0:0:0:0:
192,192,96919,1,0,0:0:0:0:
320,192,97037,1,0,0:0:0:0:
64,192,97154,1,0,0:0:0:0:
448,192,97154,1,0,0:0:0:0:
192,192,97154,1,0,0:0:0:0:
320,192,97271,1,0,0:0:0:0:
192,192,97388,1,0,0:0:0:0:
64,192,97388,1,0,0:0:0:0:
320,192,97417,1,0,0:0:0:0:
448,192,97505,1,0,0:0:0:0:
64,192,97623,1,0,0:0:0:0:
192,192,97623,1,0,0:0:0:0:
320,192,97740,1,0,0:0:0:0:
448,192,97740,1,0,0:0:0:0:
64,192,97857,1,0,0:0:0:0:
192,192,97974,1,0,0:0:0:0:
320,192,98003,1,0,0:0:0:0:
448,192,98091,1,0,0:0:0:0:
64,192,98208,1,0,0:0:0:0:
320,192,98208,1,0,0:0:0:0:
448,192,98326,1,0,0:0:0:0:
64,192,98443,1,0,0:0:0:0:
320,192,98560,1,0,0:0:0:0:
448,192,98677,128,0,98912:0:0:0:0:
192,192,98677,1,0,0:0:0:0:
64,192,98794,1,0,0:0:0:0:
192,192,98912,1,0,0:0:0:0:
64,192,99029,128,0,99498:0:0:0:0:
320,192,99029,1,0,0:0:0:0:
448,192,99263,1,0,0:0:0:0:
192,192,99380,1,0,0:0:0:0:
320,192,99498,128,0,99732:0:0:0:0:
192,192,99498,1,0,0:0:0:0:
448,192,99498,1,0,0:0:0:0:
448,192,99732,1,0,0:0:0:0:
64,192,99732,1,0,0:0:0:0:
192,192,99849,128,0,100083:0:0:0:0:
320,192,99849,1,0,0:0:0:0:
64,192,99966,1,0,0:0:0:0:
448,192,100083,1,0,0:0:0:0:
320,192,100083,1,0,0:0:0:0:
64,192,100201,128,0,100435:0:0:0:0:
192,192,100201,1,0,0:0:0:0:
320,192,100201,1,0,0:0:0:0:
448,192,100318,1,0,0:0:0:0:
192,192,100435,1,0,0:0:0:0:
320,192,100435,1,0,0:0:0:0:
320,192,100552,128,0,100787:0:0:0:0:
448,192,100552,1,0,0:0:0:0:
192,192,100669,1,0,0:0:0:0:
64,192,100787,1,0,0:0:0:0:
192,192,100904,1,0,0:0:0:0:
448,192,100904,1,0,0:0:0:0:
64,192,100904,1,0,0:0:0:0:
320,192,101021,1,0,0:0:0:0:
448,192,101138,1,0,0:0:0:0:
64,192,101138,1,0,0:0:0:0:
192,192,101138,1,0,0:0:0:0:
320,192,101255,1,0,0:0:0:0:
64,192,101373,1,0,0:0:0:0:
448,192,101373,1,0,0:0:0:0:
64,192,101607,1,0,0:0:0:0:
320,192,101607,1,0,0:0:0:0:
448,192,101685,1,0,0:0:0:0:
192,192,101763,1,0,0:0:0:0:
320,192,101841,1,0,0:0:0:0:
64,192,101841,1,0,0:0:0:0:
448,192,101919,1,0,0:0:0:0:
192,192,101958,1,0,0:0:0:0:
64,192,101998,1,0,0:0:0:0:
320,192,102076,1,0,0:0:0:0:
192,192,102154,1,0,0:0:0:0:
64,192,102232,1,0,0:0:0:0:
192,192,102310,1,0,0:0:0:0:
448,192,102310,1,0,0:0:0:0:
320,192,102388,1,0,0:0:0:0:
192,192,102427,1,0,0:0:0:0:
64,192,102466,1,0,0:0:0:0:
448,192,102544,1,0,0:0:0:0:
320,192,102623,1,0,0:0:0:0:
192,192,102701,1,0,0:0:0:0:
64,192,102779,1,0,0:0:0:0:
448,192,102779,1,0,0:0:0:0:
320,192,102779,1,0,0:0:0:0:
192,192,102857,1,0,0:0:0:0:
320,192,102935,1,0,0:0:0:0:
64,192,103013,1,0,0:0:0:0:
192,192,103013,1,0,0:0:0:0:
320,192,103091,1,0,0:0:0:0:
448,192,103169,1,0,0:0:0:0:
192,192,103248,1,0,0:0:0:0:
64,192,103248,1,0,0:0:0:0:
320,192,103248,1,0,0:0:0:0:
448,192,103326,1,0,0:0:0:0:
320,192,103404,1,0,0:0:0:0:
192,192,103482,1,0,0:0:0:0:
448,192,103482,1,0,0:0:0:0:
64,192,103560,1,0,0:0:0:0:
448,192,103638,1,0,0:0:0:0:
320,192,103716,1,0,0:0:0:0:
64,192,103716,1,0,0:0:0:0:
448,192,103794,1,0,0:0:0:0:
192,192,103833,1,0,0:0:0:0:
320,192,103873,1,0,0:0:0:0:
192,192,103951,1,0,0:0:0:0:
64,192,104029,1,0,0:0:0:0:
448,192,104068,1,0,0:0:0:0:
320,192,104107,1,0,0:0:0:0:
192,192,104185,1,0,0:0:0:0:
64,192,104185,1,0,0:0:0:0:
448,192,104263,1,0,0:0:0:0:
320,192,104302,1,0,0:0:0:0:
192,192,104341,1,0,0:0:0:0:
64,192,104419,1,0,0:0:0:0:
192,192,104498,1,0,0:0:0:0:
320,192,104576,1,0,0:0:0:0:
192,192,104654,1,0,0:0:0:0:
64,192,104654,1,0,0:0:0:0:
448,192,104654,1,0,0:0:0:0:
320,192,104732,1,0,0:0:0:0:
64,192,104810,1,0,0:0:0:0:
320,192,104888,1,0,0:0:0:0:
448,192,104888,1,0,0:0:0:0:
192,192,104966,1,0,0:0:0:0:
448,192,105044,1,0,0:0:0:0:
320,192,105123,1,0,0:0:0:0:
64,192,105123,1,0,0:0:0:0:
192,192,105123,1,0,0:0:0:0:
448,192,105201,1,0,0:0:0:0:
64,192,105279,1,0,0:0:0:0:
192,192,105357,1,0,0:0:0:0:
448,192,105357,1,0,0:0:0:0:
320,192,105435,1,0,0:0:0:0:
192,192,105513,1,0,0:0:0:0:
448,192,105591,1,0,0:0:0:0:
64,192,105591,1,0,0:0:0:0:
320,192,105669,1,0,0:0:0:0:
192,192,105708,1,0,0:0:0:0:
64,192,105748,1,0,0:0:0:0:
448,192,105826,1,0,0:0:0:0:
320,192,105904,1,0,0:0:0:0:
192,192,105982,1,0,0:0:0:0:
320,192,106060,1,0,0:0:0:0:
64,192,106060,1,0,0:0:0:0:
448,192,106138,1,0,0:0:0:0:
320,192,106177,1,0,0:0:0:0:
192,192,106206,1,0,0:0:0:0:
64,192,106216,1,0,0:0:0:0:
448,192,106294,1,0,0:0:0:0:
320,192,106353,1,0,0:0:0:0:
192,192,106373,1,0,0:0:0:0:
64,192,106451,1,0,0:0:0:0:
320,192,106529,1,0,0:0:0:0:
448,192,106529,1,0,0:0:0:0:
192,192,106529,1,0,0:0:0:0:
64,192,106607,1,0,0:0:0:0:
320,192,106685,1,0,0:0:0:0:
64,192,106763,1,0,0:0:0:0:
448,192,106763,1,0,0:0:0:0:
320,192,106841,1,0,0:0:0:0:
192,192,106919,1,0,0:0:0:0:
64,192,106998,1,0,0:0:0:0:
448,192,106998,1,0,0:0:0:0:
320,192,106998,1,0,0:0:0:0:
64,192,107583,1,0,0:0:0:0:
192,192,107701,1,0,0:0:0:0:
320,192,107818,1,0,0:0:0:0:
448,192,108169,1,0,0:0:0:0:
320,192,108404,1,0,0:0:0:0:
64,192,108404,1,0,0:0:0:0:
448,192,108521,1,0,0:0:0:0:
320,192,108609,1,0,0:0:0:0:
192,192,108726,1,0,0:0:0:0:
64,192,108814,1,0,0:0:0:0:
448,192,108843,1,0,0:0:0:0:
320,192,108931,1,0,0:0:0:0:
192,192,109019,1,0,0:0:0:0:
64,192,109107,1,0,0:0:0:0:
320,192,109224,1,0,0:0:0:0:
192,192,109341,1,0,0:0:0:0:
64,192,109429,1,0,0:0:0:0:
448,192,109488,1,0,0:0:0:0:
320,192,109576,1,0,0:0:0:0:
192,192,109664,1,0,0:0:0:0:
448,192,109722,1,0,0:0:0:0:
64,192,109751,1,0,0:0:0:0:
320,192,109810,1,0,0:0:0:0:
192,192,109898,1,0,0:0:0:0:
320,192,110044,1,0,0:0:0:0:
64,192,110162,1,0,0:0:0:0:
192,192,110396,1,0,0:0:0:0:
320,192,110689,1,0,0:0:0:0:
448,192,111333,1,0,0:0:0:0:
