osu file format v14

[General]
AudioFilename: Velocity.mp3
AudioLeadIn: 0
PreviewTime: 34336
Countdown: 0
SampleSet: None
StackLeniency: 0.7
Mode: 3
LetterboxInBreaks: 0
SpecialStyle: 0
WidescreenStoryboard: 0

[Editor]
Bookmarks: 36024,60024,96024,120024
DistanceSpacing: 1.5
BeatDivisor: 16
GridSize: 8
TimelineZoom: 1.3

[Metadata]
Title:Problematic Mapping // EVENT_#1
TitleUnicode:Problematic Mapping // EVENT_#1
Artist:M2U - Velocity
ArtistUnicode:M2U - Velocity
Creator:Dreamwalker
Version:Lastopia // Lively Notes
Source:
Tags:
BeatmapID:2160064
BeatmapSetID:1033111

[Difficulty]
HPDrainRate:9.7
CircleSize:4
OverallDifficulty:7
ApproachRate:5
SliderMultiplier:1.4
SliderTickRate:1

[Events]
//Background and Video events
0,0,"Velocity.png",0,0
//Break Periods
//Storyboard Layer 0 (Background)
//Storyboard Layer 1 (Fail)
//Storyboard Layer 2 (Pass)
//Storyboard Layer 3 (Foreground)
//Storyboard Layer 4 (Overlay)
//Storyboard Sound Samples

[TimingPoints]
24,375,4,1,0,0,1,0
36024,-100,4,1,0,0,0,1
39024,-100,4,1,0,0,0,0
45024,-100,4,1,0,0,0,1
45774,-100,4,1,0,0,0,0
48024,-100,4,1,0,0,0,1
51305,-100,4,1,0,0,0,0
57024,-100,4,1,0,0,0,1
57774,-100,4,1,0,0,0,0
96024,-100,4,1,0,0,0,1
97149,-100,4,1,0,0,0,0
105024,-100,4,1,0,0,0,1
105774,-100,4,1,0,0,0,0
108024,-100,4,1,0,0,0,1
108680,-100,4,1,0,0,0,0
108774,-100,4,1,0,0,0,1
109055,-100,4,1,0,0,0,0
109149,-100,4,1,0,0,0,1
111305,-100,4,1,0,0,0,0
117024,-100,4,1,0,0,0,1
117774,-100,4,1,0,0,0,0

[HitObjects]
64,192,24,5,0,0:0:0:0:
448,192,24,1,0,0:0:0:0:
320,192,86,1,0,0:0:0:0:
192,192,149,1,0,0:0:0:0:
320,192,211,1,0,0:0:0:0:
448,192,274,1,0,0:0:0:0:
192,192,305,1,0,0:0:0:0:
320,192,399,1,0,0:0:0:0:
64,192,492,1,0,0:0:0:0:
192,192,555,1,0,0:0:0:0:
320,192,586,128,0,961:0:0:0:0:
448,192,774,1,0,0:0:0:0:
64,192,774,1,0,0:0:0:0:
448,192,961,128,0,1336:0:0:0:0:
192,192,1149,1,0,0:0:0:0:
64,192,1336,128,0,1711:0:0:0:0:
192,192,1524,1,0,0:0:0:0:
320,192,1586,1,0,0:0:0:0:
448,192,1649,1,0,0:0:0:0:
320,192,1711,1,0,0:0:0:0:
192,192,1774,1,0,0:0:0:0:
448,192,1805,1,0,0:0:0:0:
320,192,1899,1,0,0:0:0:0:
448,192,1992,1,0,0:0:0:0:
320,192,2055,1,0,0:0:0:0:
192,192,2086,128,0,2461:0:0:0:0:
64,192,2274,1,0,0:0:0:0:
448,192,2274,1,0,0:0:0:0:
448,192,2461,128,0,2836:0:0:0:0:
192,192,2649,1,0,0:0:0:0:
64,192,2836,1,0,0:0:0:0:
320,192,2899,1,0,0:0:0:0:
64,192,3024,5,0,0:0:0:0:
448,192,3024,1,0,0:0:0:0:
320,192,3086,1,0,0:0:0:0:
192,192,3149,1,0,0:0:0:0:
320,192,3211,1,0,0:0:0:0:
448,192,3274,1,0,0:0:0:0:
192,192,3305,1,0,0:0:0:0:
320,192,3399,1,0,0:0:0:0:
64,192,3492,1,0,0:0:0:0:
192,192,3555,1,0,0:0:0:0:
320,192,3586,128,0,3961:0:0:0:0:
448,192,3774,1,0,0:0:0:0:
64,192,3774,1,0,0:0:0:0:
448,192,3961,128,0,4336:0:0:0:0:
192,192,4149,1,0,0:0:0:0:
64,192,4336,128,0,4711:0:0:0:0:
320,192,4524,1,0,0:0:0:0:
448,192,4617,1,0,0:0:0:0:
192,192,4649,1,0,0:0:0:0:
320,192,4711,1,0,0:0:0:0:
448,192,4774,1,0,0:0:0:0:
320,192,4836,1,0,0:0:0:0:
192,192,4899,1,0,0:0:0:0:
448,192,5086,1,0,0:0:0:0:
192,192,5086,128,0,5461:0:0:0:0:
64,192,5180,1,0,0:0:0:0:
320,192,5274,1,0,0:0:0:0:
448,192,5274,128,0,5649:0:0:0:0:
64,192,5430,1,0,0:0:0:0:
320,192,5484,1,0,0:0:0:0:
192,192,5555,1,0,0:0:0:0:
64,192,5586,1,0,0:0:0:0:
320,192,5649,128,0,6024:0:0:0:0:
192,192,5742,1,0,0:0:0:0:
448,192,5805,1,0,0:0:0:0:
64,192,5836,1,0,0:0:0:0:
64,192,6024,5,0,0:0:0:0:
448,192,6024,1,0,0:0:0:0:
320,192,6086,1,0,0:0:0:0:
192,192,6149,1,0,0:0:0:0:
320,192,6211,1,0,0:0:0:0:
448,192,6274,1,0,0:0:0:0:
192,192,6305,1,0,0:0:0:0:
320,192,6399,1,0,0:0:0:0:
64,192,6492,1,0,0:0:0:0:
192,192,6555,1,0,0:0:0:0:
320,192,6586,128,0,6961:0:0:0:0:
448,192,6774,1,0,0:0:0:0:
64,192,6774,1,0,0:0:0:0:
448,192,6961,128,0,7336:0:0:0:0:
192,192,7149,1,0,0:0:0:0:
64,192,7336,128,0,7711:0:0:0:0:
192,192,7524,1,0,0:0:0:0:
320,192,7586,1,0,0:0:0:0:
448,192,7649,1,0,0:0:0:0:
320,192,7711,1,0,0:0:0:0:
192,192,7774,1,0,0:0:0:0:
448,192,7805,1,0,0:0:0:0:
320,192,7899,1,0,0:0:0:0:
448,192,7992,1,0,0:0:0:0:
320,192,8055,1,0,0:0:0:0:
192,192,8086,128,0,8461:0:0:0:0:
64,192,8274,1,0,0:0:0:0:
448,192,8274,1,0,0:0:0:0:
448,192,8461,128,0,8836:0:0:0:0:
192,192,8649,1,0,0:0:0:0:
64,192,8836,1,0,0:0:0:0:
320,192,8899,1,0,0:0:0:0:
64,192,9024,5,0,0:0:0:0:
448,192,9024,1,0,0:0:0:0:
320,192,9086,1,0,0:0:0:0:
192,192,9149,1,0,0:0:0:0:
320,192,9211,1,0,0:0:0:0:
448,192,9274,1,0,0:0:0:0:
192,192,9305,1,0,0:0:0:0:
320,192,9399,1,0,0:0:0:0:
64,192,9492,1,0,0:0:0:0:
192,192,9555,1,0,0:0:0:0:
320,192,9586,128,0,9961:0:0:0:0:
448,192,9774,1,0,0:0:0:0:
64,192,9774,128,0,10149:0:0:0:0:
192,192,9774,128,0,10149:0:0:0:0:
448,192,9961,128,0,10336:0:0:0:0:
320,192,10149,1,0,0:0:0:0:
64,192,10336,128,0,10711:0:0:0:0:
320,192,10524,1,0,0:0:0:0:
448,192,10617,1,0,0:0:0:0:
192,192,10649,1,0,0:0:0:0:
320,192,10711,1,0,0:0:0:0:
448,192,10774,1,0,0:0:0:0:
320,192,10836,1,0,0:0:0:0:
192,192,10899,1,0,0:0:0:0:
448,192,11086,1,0,0:0:0:0:
192,192,11086,128,0,11461:0:0:0:0:
64,192,11180,1,0,0:0:0:0:
448,192,11274,128,0,11649:0:0:0:0:
320,192,11274,1,0,0:0:0:0:
64,192,11430,1,0,0:0:0:0:
320,192,11484,1,0,0:0:0:0:
192,192,11555,1,0,0:0:0:0:
64,192,11586,1,0,0:0:0:0:
320,192,11649,128,0,12024:0:0:0:0:
192,192,11774,1,0,0:0:0:0:
448,192,11836,1,0,0:0:0:0:
64,192,11867,1,0,0:0:0:0:
192,192,12024,1,0,0:0:0:0:
64,192,12024,128,0,12399:0:0:0:0:
448,192,12086,1,0,0:0:0:0:
320,192,12164,1,0,0:0:0:0:
192,192,12258,1,0,0:0:0:0:
320,192,12336,1,0,0:0:0:0:
448,192,12399,128,0,12774:0:0:0:0:
192,192,12586,1,0,0:0:0:0:
64,192,12617,1,0,0:0:0:0:
320,192,12633,1,0,0:0:0:0:
192,192,12680,1,0,0:0:0:0:
64,192,12774,1,0,0:0:0:0:
192,192,12961,1,0,0:0:0:0:
448,192,12961,1,0,0:0:0:0:
320,192,12992,1,0,0:0:0:0:
64,192,13055,1,0,0:0:0:0:
192,192,13102,1,0,0:0:0:0:
320,192,13149,1,0,0:0:0:0:
64,192,13336,128,0,13711:0:0:0:0:
320,192,13336,1,0,0:0:0:0:
448,192,13524,128,0,13899:0:0:0:0:
192,192,13711,128,0,14086:0:0:0:0:
64,192,13899,1,0,0:0:0:0:
320,192,13899,1,0,0:0:0:0:
448,192,14086,128,0,14461:0:0:0:0:
64,192,14274,1,0,0:0:0:0:
192,192,14274,1,0,0:0:0:0:
192,192,14461,1,0,0:0:0:0:
320,192,14461,1,0,0:0:0:0:
192,192,14555,1,0,0:0:0:0:
448,192,14649,1,0,0:0:0:0:
192,192,14649,1,0,0:0:0:0:
448,192,14742,1,0,0:0:0:0:
64,192,14836,1,0,0:0:0:0:
448,192,14836,1,0,0:0:0:0:
64,192,14930,1,0,0:0:0:0:
448,192,15024,128,0,15399:0:0:0:0:
320,192,15024,1,0,0:0:0:0:
64,192,15086,1,0,0:0:0:0:
192,192,15164,1,0,0:0:0:0:
320,192,15258,1,0,0:0:0:0:
192,192,15336,1,0,0:0:0:0:
64,192,15399,128,0,15774:0:0:0:0:
320,192,15430,1,0,0:0:0:0:
448,192,15524,1,0,0:0:0:0:
320,192,15586,1,0,0:0:0:0:
192,192,15617,1,0,0:0:0:0:
448,192,15774,1,0,0:0:0:0:
320,192,15774,1,0,0:0:0:0:
320,192,15914,1,0,0:0:0:0:
448,192,15938,1,0,0:0:0:0:
192,192,15961,1,0,0:0:0:0:
64,192,15961,1,0,0:0:0:0:
64,192,16149,1,0,0:0:0:0:
192,192,16149,1,0,0:0:0:0:
448,192,16336,128,0,16711:0:0:0:0:
192,192,16336,1,0,0:0:0:0:
64,192,16367,1,0,0:0:0:0:
320,192,16430,1,0,0:0:0:0:
192,192,16477,1,0,0:0:0:0:
64,192,16524,1,0,0:0:0:0:
192,192,16617,1,0,0:0:0:0:
320,192,16711,1,0,0:0:0:0:
448,192,16774,1,0,0:0:0:0:
320,192,16836,1,0,0:0:0:0:
192,192,16875,1,0,0:0:0:0:
64,192,16899,1,0,0:0:0:0:
320,192,17063,1,0,0:0:0:0:
448,192,17086,128,0,17461:0:0:0:0:
192,192,17086,1,0,0:0:0:0:
64,192,17274,1,0,0:0:0:0:
192,192,17274,1,0,0:0:0:0:
320,192,17461,1,0,0:0:0:0:
320,192,17555,1,0,0:0:0:0:
64,192,17649,1,0,0:0:0:0:
448,192,17649,1,0,0:0:0:0:
64,192,17742,1,0,0:0:0:0:
192,192,17836,1,0,0:0:0:0:
448,192,17836,1,0,0:0:0:0:
320,192,17883,1,0,0:0:0:0:
192,192,18024,1,0,0:0:0:0:
64,192,18024,128,0,18399:0:0:0:0:
448,192,18086,1,0,0:0:0:0:
320,192,18164,1,0,0:0:0:0:
192,192,18258,1,0,0:0:0:0:
320,192,18336,1,0,0:0:0:0:
448,192,18399,128,0,18774:0:0:0:0:
192,192,18586,1,0,0:0:0:0:
64,192,18617,1,0,0:0:0:0:
320,192,18633,1,0,0:0:0:0:
192,192,18680,1,0,0:0:0:0:
64,192,18774,1,0,0:0:0:0:
448,192,18961,1,0,0:0:0:0:
192,192,18961,1,0,0:0:0:0:
320,192,18992,1,0,0:0:0:0:
64,192,19055,1,0,0:0:0:0:
192,192,19102,1,0,0:0:0:0:
320,192,19149,1,0,0:0:0:0:
64,192,19336,128,0,19711:0:0:0:0:
320,192,19524,1,0,0:0:0:0:
448,192,19524,128,0,19899:0:0:0:0:
192,192,19711,128,0,20086:0:0:0:0:
64,192,19899,1,0,0:0:0:0:
320,192,19899,1,0,0:0:0:0:
448,192,20086,128,0,20461:0:0:0:0:
64,192,20274,1,0,0:0:0:0:
192,192,20274,1,0,0:0:0:0:
320,192,20461,1,0,0:0:0:0:
192,192,20461,1,0,0:0:0:0:
192,192,20555,1,0,0:0:0:0:
448,192,20649,1,0,0:0:0:0:
192,192,20649,1,0,0:0:0:0:
448,192,20742,1,0,0:0:0:0:
64,192,20836,1,0,0:0:0:0:
448,192,20836,1,0,0:0:0:0:
64,192,20930,1,0,0:0:0:0:
448,192,21024,128,0,21399:0:0:0:0:
320,192,21024,1,0,0:0:0:0:
64,192,21086,1,0,0:0:0:0:
192,192,21164,1,0,0:0:0:0:
320,192,21258,1,0,0:0:0:0:
192,192,21336,1,0,0:0:0:0:
64,192,21399,128,0,21774:0:0:0:0:
320,192,21430,1,0,0:0:0:0:
448,192,21524,1,0,0:0:0:0:
320,192,21586,1,0,0:0:0:0:
192,192,21617,1,0,0:0:0:0:
448,192,21774,1,0,0:0:0:0:
320,192,21774,1,0,0:0:0:0:
320,192,21914,1,0,0:0:0:0:
448,192,21938,1,0,0:0:0:0:
192,192,21961,1,0,0:0:0:0:
64,192,21961,1,0,0:0:0:0:
64,192,22149,1,0,0:0:0:0:
192,192,22149,1,0,0:0:0:0:
448,192,22336,128,0,22711:0:0:0:0:
192,192,22336,1,0,0:0:0:0:
64,192,22367,1,0,0:0:0:0:
192,192,22524,1,0,0:0:0:0:
320,192,22570,1,0,0:0:0:0:
64,192,22617,1,0,0:0:0:0:
320,192,22649,1,0,0:0:0:0:
192,192,22711,1,0,0:0:0:0:
64,192,22742,1,0,0:0:0:0:
64,192,22899,1,0,0:0:0:0:
192,192,22899,1,0,0:0:0:0:
448,192,22899,1,0,0:0:0:0:
320,192,23063,1,0,0:0:0:0:
448,192,23086,128,0,23461:0:0:0:0:
192,192,23086,1,0,0:0:0:0:
64,192,23117,1,0,0:0:0:0:
192,192,23203,1,0,0:0:0:0:
320,192,23242,1,0,0:0:0:0:
192,192,23305,1,0,0:0:0:0:
64,192,23367,1,0,0:0:0:0:
192,192,23430,1,0,0:0:0:0:
320,192,23461,1,0,0:0:0:0:
320,192,23555,1,0,0:0:0:0:
64,192,23649,1,0,0:0:0:0:
448,192,23649,1,0,0:0:0:0:
64,192,23742,1,0,0:0:0:0:
448,192,23836,1,0,0:0:0:0:
192,192,23836,1,0,0:0:0:0:
320,192,23883,1,0,0:0:0:0:
64,192,24024,5,0,0:0:0:0:
448,192,24024,128,0,24399:0:0:0:0:
320,192,24024,1,0,0:0:0:0:
192,192,24305,1,0,0:0:0:0:
64,192,24399,1,0,0:0:0:0:
320,192,24399,1,0,0:0:0:0:
192,192,24492,1,0,0:0:0:0:
448,192,24586,1,0,0:0:0:0:
64,192,24774,1,0,0:0:0:0:
320,192,24836,1,0,0:0:0:0:
320,192,24961,1,0,0:0:0:0:
448,192,25055,1,0,0:0:0:0:
64,192,25149,1,0,0:0:0:0:
448,192,25336,1,0,0:0:0:0:
320,192,25430,1,0,0:0:0:0:
64,192,25524,1,0,0:0:0:0:
320,192,25524,128,0,25899:0:0:0:0:
192,192,25805,1,0,0:0:0:0:
448,192,25899,1,0,0:0:0:0:
64,192,25899,1,0,0:0:0:0:
192,192,25992,1,0,0:0:0:0:
448,192,26086,1,0,0:0:0:0:
64,192,26274,1,0,0:0:0:0:
320,192,26336,1,0,0:0:0:0:
448,192,26461,1,0,0:0:0:0:
448,192,26555,1,0,0:0:0:0:
64,192,26649,1,0,0:0:0:0:
320,192,26711,1,0,0:0:0:0:
448,192,26836,1,0,0:0:0:0:
320,192,26899,1,0,0:0:0:0:
64,192,27024,5,0,0:0:0:0:
448,192,27024,128,0,27399:0:0:0:0:
192,192,27024,1,0,0:0:0:0:
192,192,27305,1,0,0:0:0:0:
64,192,27399,1,0,0:0:0:0:
320,192,27399,1,0,0:0:0:0:
192,192,27492,1,0,0:0:0:0:
448,192,27586,1,0,0:0:0:0:
64,192,27774,1,0,0:0:0:0:
320,192,27836,1,0,0:0:0:0:
320,192,27961,1,0,0:0:0:0:
448,192,28055,1,0,0:0:0:0:
64,192,28149,1,0,0:0:0:0:
448,192,28336,1,0,0:0:0:0:
320,192,28430,1,0,0:0:0:0:
64,192,28524,1,0,0:0:0:0:
320,192,28524,128,0,28899:0:0:0:0:
192,192,28805,1,0,0:0:0:0:
448,192,28899,1,0,0:0:0:0:
64,192,28899,1,0,0:0:0:0:
192,192,28992,1,0,0:0:0:0:
448,192,29086,1,0,0:0:0:0:
64,192,29274,1,0,0:0:0:0:
320,192,29336,1,0,0:0:0:0:
448,192,29461,1,0,0:0:0:0:
448,192,29555,1,0,0:0:0:0:
64,192,29649,1,0,0:0:0:0:
320,192,29711,1,0,0:0:0:0:
448,192,29836,1,0,0:0:0:0:
320,192,29899,1,0,0:0:0:0:
448,192,30024,1,0,0:0:0:0:
64,192,30024,1,0,0:0:0:0:
192,192,30024,1,0,0:0:0:0:
192,192,30305,1,0,0:0:0:0:
448,192,30305,1,0,0:0:0:0:
64,192,30399,1,0,0:0:0:0:
192,192,30399,1,0,0:0:0:0:
192,192,30586,1,0,0:0:0:0:
448,192,30586,1,0,0:0:0:0:
64,192,30774,1,0,0:0:0:0:
192,192,30774,1,0,0:0:0:0:
448,192,31055,1,0,0:0:0:0:
320,192,31055,1,0,0:0:0:0:
64,192,31149,1,0,0:0:0:0:
192,192,31149,1,0,0:0:0:0:
448,192,31336,1,0,0:0:0:0:
320,192,31336,1,0,0:0:0:0:
192,192,31524,1,0,0:0:0:0:
64,192,31524,1,0,0:0:0:0:
192,192,31805,1,0,0:0:0:0:
448,192,31805,1,0,0:0:0:0:
64,192,31899,1,0,0:0:0:0:
192,192,31899,1,0,0:0:0:0:
192,192,32086,1,0,0:0:0:0:
448,192,32086,1,0,0:0:0:0:
64,192,32274,1,0,0:0:0:0:
192,192,32274,1,0,0:0:0:0:
320,192,32555,1,0,0:0:0:0:
448,192,32555,1,0,0:0:0:0:
64,192,32649,1,0,0:0:0:0:
192,192,32649,1,0,0:0:0:0:
448,192,32836,1,0,0:0:0:0:
320,192,32836,1,0,0:0:0:0:
64,192,33024,1,0,0:0:0:0:
192,192,33024,1,0,0:0:0:0:
192,192,33305,1,0,0:0:0:0:
448,192,33305,1,0,0:0:0:0:
64,192,33399,1,0,0:0:0:0:
320,192,33586,1,0,0:0:0:0:
448,192,33586,1,0,0:0:0:0:
64,192,33774,1,0,0:0:0:0:
448,192,34055,1,0,0:0:0:0:
64,192,34149,1,0,0:0:0:0:
320,192,34305,1,0,0:0:0:0:
448,192,34336,1,0,0:0:0:0:
192,192,34336,1,0,0:0:0:0:
192,192,34461,1,0,0:0:0:0:
64,192,34524,1,0,0:0:0:0:
448,192,34524,1,0,0:0:0:0:
320,192,35180,1,0,0:0:0:0:
64,192,35227,1,0,0:0:0:0:
192,192,35274,1,0,0:0:0:0:
448,192,35274,1,0,0:0:0:0:
64,192,35367,1,0,0:0:0:0:
320,192,35461,1,0,0:0:0:0:
448,192,35461,1,0,0:0:0:0:
64,192,35555,1,0,0:0:0:0:
320,192,35555,1,0,0:0:0:0:
448,192,35649,1,0,0:0:0:0:
64,192,35649,1,0,0:0:0:0:
192,192,35649,1,0,0:0:0:0:
320,192,35836,1,0,0:0:0:0:
192,192,35883,1,0,0:0:0:0:
64,192,35906,1,0,0:0:0:0:
448,192,35977,1,0,0:0:0:0:
320,192,35992,1,0,0:0:0:0:
192,192,36000,1,0,0:0:0:0:
64,192,36024,128,0,36399:0:0:0:0:
192,192,36305,1,0,0:0:0:0:
320,192,36367,1,0,0:0:0:0:
448,192,36399,1,0,0:0:0:0:
64,192,36586,128,0,36961:0:0:0:0:
192,192,36586,128,0,36961:0:0:0:0:
448,192,36774,128,0,37149:0:0:0:0:
320,192,36961,128,0,37524:0:0:0:0:
64,192,37149,128,0,37524:0:0:0:0:
192,192,37149,128,0,37524:0:0:0:0:
448,192,37570,1,0,0:0:0:0:
320,192,37617,1,0,0:0:0:0:
192,192,37711,1,0,0:0:0:0:
192,192,37805,1,0,0:0:0:0:
448,192,37899,1,0,0:0:0:0:
64,192,37899,1,0,0:0:0:0:
320,192,37899,1,0,0:0:0:0:
448,192,37992,1,0,0:0:0:0:
192,192,38086,1,0,0:0:0:0:
192,192,38180,1,0,0:0:0:0:
320,192,38274,128,0,38649:0:0:0:0:
64,192,38274,128,0,38649:0:0:0:0:
448,192,38297,1,0,0:0:0:0:
192,192,38649,1,0,0:0:0:0:
448,192,38649,1,0,0:0:0:0:
320,192,38836,1,0,0:0:0:0:
192,192,38859,1,0,0:0:0:0:
64,192,38883,1,0,0:0:0:0:
192,192,38977,1,0,0:0:0:0:
320,192,39000,1,0,0:0:0:0:
448,192,39024,128,0,39399:0:0:0:0:
64,192,39024,128,0,39399:0:0:0:0:
320,192,39399,128,0,39774:0:0:0:0:
192,192,39399,128,0,39774:0:0:0:0:
448,192,39774,1,0,0:0:0:0:
64,192,39836,1,0,0:0:0:0:
448,192,39899,1,0,0:0:0:0:
64,192,39961,1,0,0:0:0:0:
448,192,40024,1,0,0:0:0:0:
64,192,40086,1,0,0:0:0:0:
320,192,40149,1,0,0:0:0:0:
448,192,40149,1,0,0:0:0:0:
192,192,40242,1,0,0:0:0:0:
64,192,40242,1,0,0:0:0:0:
192,192,40336,1,0,0:0:0:0:
192,192,40430,1,0,0:0:0:0:
448,192,40524,1,0,0:0:0:0:
64,192,40617,1,0,0:0:0:0:
192,192,40617,1,0,0:0:0:0:
192,192,40711,1,0,0:0:0:0:
192,192,40805,1,0,0:0:0:0:
320,192,40899,1,0,0:0:0:0:
448,192,40899,1,0,0:0:0:0:
448,192,41086,1,0,0:0:0:0:
64,192,41086,1,0,0:0:0:0:
192,192,41149,1,0,0:0:0:0:
448,192,41227,1,0,0:0:0:0:
64,192,41274,1,0,0:0:0:0:
320,192,41320,1,0,0:0:0:0:
192,192,41367,1,0,0:0:0:0:
448,192,41414,1,0,0:0:0:0:
64,192,41461,1,0,0:0:0:0:
64,192,41555,1,0,0:0:0:0:
192,192,41649,1,0,0:0:0:0:
320,192,41649,1,0,0:0:0:0:
448,192,41649,1,0,0:0:0:0:
192,192,41836,1,0,0:0:0:0:
448,192,41836,1,0,0:0:0:0:
448,192,42024,1,0,0:0:0:0:
192,192,42024,1,0,0:0:0:0:
64,192,42055,1,0,0:0:0:0:
320,192,42094,1,0,0:0:0:0:
192,192,42149,1,0,0:0:0:0:
448,192,42211,1,0,0:0:0:0:
64,192,42234,1,0,0:0:0:0:
320,192,42274,1,0,0:0:0:0:
64,192,42399,1,0,0:0:0:0:
320,192,42399,1,0,0:0:0:0:
448,192,42430,1,0,0:0:0:0:
192,192,42469,1,0,0:0:0:0:
320,192,42524,1,0,0:0:0:0:
64,192,42586,1,0,0:0:0:0:
448,192,42609,1,0,0:0:0:0:
192,192,42649,1,0,0:0:0:0:
320,192,42680,1,0,0:0:0:0:
64,192,42727,1,0,0:0:0:0:
320,192,42774,1,0,0:0:0:0:
448,192,42774,1,0,0:0:0:0:
320,192,42914,1,0,0:0:0:0:
448,192,42938,1,0,0:0:0:0:
192,192,42961,1,0,0:0:0:0:
64,192,42961,1,0,0:0:0:0:
64,192,43149,1,0,0:0:0:0:
192,192,43149,1,0,0:0:0:0:
64,192,43336,128,0,43711:0:0:0:0:
320,192,43336,1,0,0:0:0:0:
448,192,43367,1,0,0:0:0:0:
192,192,43406,1,0,0:0:0:0:
320,192,43524,1,0,0:0:0:0:
448,192,43617,1,0,0:0:0:0:
192,192,43641,1,0,0:0:0:0:
320,192,43711,1,0,0:0:0:0:
448,192,43742,1,0,0:0:0:0:
448,192,43899,1,0,0:0:0:0:
320,192,43899,1,0,0:0:0:0:
64,192,43899,1,0,0:0:0:0:
448,192,44063,1,0,0:0:0:0:
64,192,44086,128,0,44461:0:0:0:0:
320,192,44086,1,0,0:0:0:0:
192,192,44109,1,0,0:0:0:0:
320,192,44203,1,0,0:0:0:0:
448,192,44250,1,0,0:0:0:0:
320,192,44297,1,0,0:0:0:0:
192,192,44367,1,0,0:0:0:0:
320,192,44438,1,0,0:0:0:0:
448,192,44461,1,0,0:0:0:0:
448,192,44555,1,0,0:0:0:0:
320,192,44649,1,0,0:0:0:0:
192,192,44649,1,0,0:0:0:0:
64,192,44649,1,0,0:0:0:0:
320,192,44836,1,0,0:0:0:0:
64,192,44836,1,0,0:0:0:0:
192,192,44977,1,0,0:0:0:0:
320,192,45000,1,0,0:0:0:0:
448,192,45024,128,0,45399:0:0:0:0:
64,192,45024,128,0,45399:0:0:0:0:
320,192,45399,128,0,45774:0:0:0:0:
192,192,45399,128,0,45774:0:0:0:0:
448,192,45774,1,0,0:0:0:0:
64,192,45774,1,0,0:0:0:0:
448,192,45961,1,0,0:0:0:0:
320,192,45961,1,0,0:0:0:0:
448,192,46149,1,0,0:0:0:0:
64,192,46149,1,0,0:0:0:0:
192,192,46336,1,0,0:0:0:0:
448,192,46336,1,0,0:0:0:0:
64,192,46359,1,0,0:0:0:0:
320,192,46406,1,0,0:0:0:0:
192,192,46477,1,0,0:0:0:0:
320,192,46524,1,0,0:0:0:0:
64,192,46570,1,0,0:0:0:0:
192,192,46649,1,0,0:0:0:0:
320,192,46711,1,0,0:0:0:0:
448,192,46711,1,0,0:0:0:0:
64,192,46899,1,0,0:0:0:0:
320,192,46899,1,0,0:0:0:0:
320,192,47086,1,0,0:0:0:0:
64,192,47086,1,0,0:0:0:0:
320,192,47180,1,0,0:0:0:0:
448,192,47274,1,0,0:0:0:0:
192,192,47274,1,0,0:0:0:0:
64,192,47297,1,0,0:0:0:0:
320,192,47367,1,0,0:0:0:0:
192,192,47461,1,0,0:0:0:0:
64,192,47508,1,0,0:0:0:0:
448,192,47531,1,0,0:0:0:0:
320,192,47578,1,0,0:0:0:0:
192,192,47602,1,0,0:0:0:0:
448,192,47977,1,0,0:0:0:0:
192,192,48000,1,0,0:0:0:0:
64,192,48024,128,0,48399:0:0:0:0:
320,192,48024,128,0,48399:0:0:0:0:
448,192,48399,128,0,48774:0:0:0:0:
192,192,48399,128,0,48774:0:0:0:0:
64,192,48774,128,0,49149:0:0:0:0:
320,192,48774,1,0,0:0:0:0:
320,192,48961,128,0,49336:0:0:0:0:
448,192,49149,1,0,0:0:0:0:
192,192,49149,1,0,0:0:0:0:
64,192,49211,1,0,0:0:0:0:
448,192,49274,1,0,0:0:0:0:
192,192,49289,1,0,0:0:0:0:
64,192,49336,1,0,0:0:0:0:
320,192,49383,1,0,0:0:0:0:
192,192,49399,1,0,0:0:0:0:
448,192,49461,1,0,0:0:0:0:
320,192,49524,1,0,0:0:0:0:
64,192,49524,1,0,0:0:0:0:
320,192,49617,1,0,0:0:0:0:
320,192,49711,1,0,0:0:0:0:
320,192,49899,1,0,0:0:0:0:
64,192,49899,1,0,0:0:0:0:
320,192,49992,1,0,0:0:0:0:
64,192,50086,1,0,0:0:0:0:
64,192,50180,1,0,0:0:0:0:
320,192,50274,1,0,0:0:0:0:
448,192,50274,1,0,0:0:0:0:
192,192,50274,1,0,0:0:0:0:
192,192,50461,1,0,0:0:0:0:
64,192,50484,1,0,0:0:0:0:
320,192,50492,1,0,0:0:0:0:
448,192,50508,1,0,0:0:0:0:
448,192,50649,1,0,0:0:0:0:
64,192,50649,1,0,0:0:0:0:
192,192,50649,1,0,0:0:0:0:
192,192,50836,1,0,0:0:0:0:
320,192,50836,1,0,0:0:0:0:
448,192,51024,1,0,0:0:0:0:
64,192,51024,1,0,0:0:0:0:
320,192,51047,1,0,0:0:0:0:
192,192,51094,1,0,0:0:0:0:
448,192,51149,1,0,0:0:0:0:
192,192,51180,1,0,0:0:0:0:
320,192,51258,1,0,0:0:0:0:
448,192,51274,1,0,0:0:0:0:
64,192,51305,1,0,0:0:0:0:
192,192,51367,1,0,0:0:0:0:
320,192,51399,1,0,0:0:0:0:
320,192,51492,1,0,0:0:0:0:
448,192,51586,1,0,0:0:0:0:
448,192,51680,1,0,0:0:0:0:
320,192,51774,1,0,0:0:0:0:
64,192,51774,1,0,0:0:0:0:
320,192,51867,1,0,0:0:0:0:
192,192,51961,1,0,0:0:0:0:
192,192,52055,1,0,0:0:0:0:
64,192,52149,1,0,0:0:0:0:
448,192,52149,1,0,0:0:0:0:
320,192,52180,1,0,0:0:0:0:
192,192,52195,1,0,0:0:0:0:
192,192,52336,1,0,0:0:0:0:
64,192,52359,1,0,0:0:0:0:
320,192,52399,1,0,0:0:0:0:
448,192,52430,1,0,0:0:0:0:
192,192,52524,1,0,0:0:0:0:
192,192,52617,1,0,0:0:0:0:
320,192,52711,1,0,0:0:0:0:
320,192,52805,1,0,0:0:0:0:
192,192,52899,1,0,0:0:0:0:
64,192,52899,1,0,0:0:0:0:
448,192,52899,1,0,0:0:0:0:
320,192,53086,1,0,0:0:0:0:
64,192,53086,1,0,0:0:0:0:
448,192,53117,1,0,0:0:0:0:
192,192,53149,1,0,0:0:0:0:
448,192,53203,1,0,0:0:0:0:
192,192,53250,1,0,0:0:0:0:
64,192,53297,1,0,0:0:0:0:
320,192,53320,1,0,0:0:0:0:
448,192,53367,1,0,0:0:0:0:
320,192,53461,1,0,0:0:0:0:
192,192,53492,1,0,0:0:0:0:
64,192,53508,1,0,0:0:0:0:
448,192,53649,1,0,0:0:0:0:
64,192,53649,1,0,0:0:0:0:
320,192,53649,1,0,0:0:0:0:
192,192,53836,1,0,0:0:0:0:
448,192,53836,1,0,0:0:0:0:
448,192,54024,1,0,0:0:0:0:
192,192,54024,1,0,0:0:0:0:
64,192,54055,1,0,0:0:0:0:
320,192,54094,1,0,0:0:0:0:
192,192,54149,1,0,0:0:0:0:
448,192,54211,1,0,0:0:0:0:
64,192,54234,1,0,0:0:0:0:
320,192,54274,1,0,0:0:0:0:
64,192,54399,1,0,0:0:0:0:
320,192,54399,1,0,0:0:0:0:
448,192,54430,1,0,0:0:0:0:
192,192,54469,1,0,0:0:0:0:
320,192,54524,1,0,0:0:0:0:
64,192,54586,1,0,0:0:0:0:
448,192,54609,1,0,0:0:0:0:
192,192,54649,1,0,0:0:0:0:
320,192,54680,1,0,0:0:0:0:
64,192,54727,1,0,0:0:0:0:
320,192,54774,1,0,0:0:0:0:
448,192,54774,1,0,0:0:0:0:
320,192,54914,1,0,0:0:0:0:
448,192,54938,1,0,0:0:0:0:
192,192,54961,1,0,0:0:0:0:
64,192,54961,1,0,0:0:0:0:
192,192,55149,1,0,0:0:0:0:
64,192,55149,1,0,0:0:0:0:
64,192,55336,128,0,55711:0:0:0:0:
448,192,55367,1,0,0:0:0:0:
192,192,55406,1,0,0:0:0:0:
320,192,55524,1,0,0:0:0:0:
448,192,55617,1,0,0:0:0:0:
192,192,55641,1,0,0:0:0:0:
320,192,55711,1,0,0:0:0:0:
448,192,55742,1,0,0:0:0:0:
448,192,55899,1,0,0:0:0:0:
320,192,55899,1,0,0:0:0:0:
64,192,55899,1,0,0:0:0:0:
448,192,56063,1,0,0:0:0:0:
64,192,56086,128,0,56461:0:0:0:0:
320,192,56086,1,0,0:0:0:0:
192,192,56109,1,0,0:0:0:0:
320,192,56203,1,0,0:0:0:0:
448,192,56250,1,0,0:0:0:0:
320,192,56297,1,0,0:0:0:0:
192,192,56367,1,0,0:0:0:0:
320,192,56438,1,0,0:0:0:0:
448,192,56461,1,0,0:0:0:0:
448,192,56555,1,0,0:0:0:0:
320,192,56649,1,0,0:0:0:0:
192,192,56649,1,0,0:0:0:0:
64,192,56649,1,0,0:0:0:0:
320,192,56836,1,0,0:0:0:0:
64,192,56836,1,0,0:0:0:0:
192,192,56977,1,0,0:0:0:0:
320,192,57000,1,0,0:0:0:0:
448,192,57024,128,0,57399:0:0:0:0:
64,192,57024,128,0,57399:0:0:0:0:
320,192,57399,128,0,57774:0:0:0:0:
192,192,57399,128,0,57774:0:0:0:0:
448,192,57774,1,0,0:0:0:0:
64,192,57774,1,0,0:0:0:0:
448,192,57961,1,0,0:0:0:0:
320,192,57961,1,0,0:0:0:0:
448,192,58149,1,0,0:0:0:0:
64,192,58149,1,0,0:0:0:0:
192,192,58336,1,0,0:0:0:0:
448,192,58336,1,0,0:0:0:0:
64,192,58359,1,0,0:0:0:0:
320,192,58406,1,0,0:0:0:0:
192,192,58477,1,0,0:0:0:0:
320,192,58524,1,0,0:0:0:0:
64,192,58570,1,0,0:0:0:0:
192,192,58649,1,0,0:0:0:0:
320,192,58711,1,0,0:0:0:0:
448,192,58711,1,0,0:0:0:0:
64,192,58899,5,0,0:0:0:0:
320,192,58899,1,0,0:0:0:0:
320,192,59086,1,0,0:0:0:0:
64,192,59086,1,0,0:0:0:0:
320,192,59180,1,0,0:0:0:0:
448,192,59274,1,0,0:0:0:0:
192,192,59274,1,0,0:0:0:0:
64,192,59297,1,0,0:0:0:0:
320,192,59367,1,0,0:0:0:0:
192,192,59461,1,0,0:0:0:0:
64,192,59508,1,0,0:0:0:0:
448,192,59531,1,0,0:0:0:0:
320,192,59578,1,0,0:0:0:0:
192,192,59602,1,0,0:0:0:0:
64,192,59649,128,0,60024:0:0:0:0:
448,192,60024,5,0,0:0:0:0:
192,192,60024,1,0,0:0:0:0:
64,192,60211,1,0,0:0:0:0:
64,192,60399,1,0,0:0:0:0:
192,192,60586,1,0,0:0:0:0:
320,192,60774,1,0,0:0:0:0:
448,192,60774,1,0,0:0:0:0:
192,192,60961,1,0,0:0:0:0:
192,192,61149,1,0,0:0:0:0:
448,192,61336,1,0,0:0:0:0:
192,192,61336,1,0,0:0:0:0:
64,192,61524,1,0,0:0:0:0:
448,192,61711,1,0,0:0:0:0:
192,192,61805,1,0,0:0:0:0:
448,192,61899,1,0,0:0:0:0:
64,192,61899,1,0,0:0:0:0:
448,192,62086,1,0,0:0:0:0:
64,192,62086,1,0,0:0:0:0:
192,192,62180,1,0,0:0:0:0:
448,192,62274,1,0,0:0:0:0:
64,192,62274,1,0,0:0:0:0:
192,192,62461,1,0,0:0:0:0:
320,192,62461,1,0,0:0:0:0:
192,192,62555,1,0,0:0:0:0:
448,192,62649,1,0,0:0:0:0:
192,192,62649,1,0,0:0:0:0:
448,192,62742,1,0,0:0:0:0:
64,192,62836,1,0,0:0:0:0:
448,192,62836,1,0,0:0:0:0:
64,192,62930,1,0,0:0:0:0:
448,192,63024,1,0,0:0:0:0:
192,192,63024,1,0,0:0:0:0:
64,192,63211,1,0,0:0:0:0:
320,192,63305,1,0,0:0:0:0:
448,192,63399,1,0,0:0:0:0:
64,192,63399,1,0,0:0:0:0:
448,192,63586,1,0,0:0:0:0:
192,192,63586,1,0,0:0:0:0:
64,192,63680,1,0,0:0:0:0:
448,192,63774,1,0,0:0:0:0:
320,192,63774,1,0,0:0:0:0:
192,192,63961,1,0,0:0:0:0:
192,192,64149,1,0,0:0:0:0:
192,192,64336,1,0,0:0:0:0:
448,192,64336,1,0,0:0:0:0:
192,192,64524,1,0,0:0:0:0:
448,192,64711,1,0,0:0:0:0:
448,192,64899,1,0,0:0:0:0:
448,192,65086,1,0,0:0:0:0:
192,192,65086,1,0,0:0:0:0:
64,192,65274,1,0,0:0:0:0:
448,192,65274,1,0,0:0:0:0:
320,192,65461,1,0,0:0:0:0:
192,192,65555,1,0,0:0:0:0:
64,192,65555,1,0,0:0:0:0:
448,192,65649,1,0,0:0:0:0:
64,192,65649,1,0,0:0:0:0:
320,192,65742,1,0,0:0:0:0:
448,192,65742,1,0,0:0:0:0:
64,192,65836,1,0,0:0:0:0:
64,192,65930,1,0,0:0:0:0:
448,192,65930,1,0,0:0:0:0:
320,192,66000,1,0,0:0:0:0:
448,192,66024,1,0,0:0:0:0:
192,192,66047,1,0,0:0:0:0:
64,192,66117,1,0,0:0:0:0:
64,192,66234,1,0,0:0:0:0:
192,192,66281,1,0,0:0:0:0:
448,192,66281,1,0,0:0:0:0:
320,192,66305,1,0,0:0:0:0:
64,192,66399,1,0,0:0:0:0:
192,192,66586,1,0,0:0:0:0:
320,192,66774,1,0,0:0:0:0:
448,192,66774,1,0,0:0:0:0:
192,192,66961,1,0,0:0:0:0:
192,192,67149,1,0,0:0:0:0:
448,192,67336,1,0,0:0:0:0:
192,192,67336,1,0,0:0:0:0:
64,192,67524,1,0,0:0:0:0:
448,192,67711,1,0,0:0:0:0:
192,192,67805,1,0,0:0:0:0:
448,192,67899,1,0,0:0:0:0:
64,192,67899,1,0,0:0:0:0:
448,192,68086,1,0,0:0:0:0:
448,192,68274,1,0,0:0:0:0:
64,192,68274,1,0,0:0:0:0:
192,192,68461,1,0,0:0:0:0:
320,192,68461,1,0,0:0:0:0:
192,192,68555,1,0,0:0:0:0:
448,192,68649,1,0,0:0:0:0:
192,192,68649,1,0,0:0:0:0:
448,192,68742,1,0,0:0:0:0:
64,192,68836,1,0,0:0:0:0:
448,192,68836,1,0,0:0:0:0:
320,192,68836,1,0,0:0:0:0:
192,192,69024,1,0,0:0:0:0:
64,192,69211,1,0,0:0:0:0:
64,192,69399,1,0,0:0:0:0:
448,192,69586,1,0,0:0:0:0:
192,192,69586,1,0,0:0:0:0:
448,192,69774,1,0,0:0:0:0:
320,192,69774,1,0,0:0:0:0:
192,192,69961,1,0,0:0:0:0:
192,192,70149,1,0,0:0:0:0:
192,192,70336,1,0,0:0:0:0:
448,192,70336,1,0,0:0:0:0:
192,192,70524,1,0,0:0:0:0:
448,192,70711,1,0,0:0:0:0:
64,192,70711,1,0,0:0:0:0:
448,192,70899,1,0,0:0:0:0:
448,192,71086,1,0,0:0:0:0:
192,192,71086,1,0,0:0:0:0:
64,192,71274,1,0,0:0:0:0:
448,192,71274,1,0,0:0:0:0:
448,192,71461,1,0,0:0:0:0:
64,192,71461,1,0,0:0:0:0:
64,192,71555,1,0,0:0:0:0:
192,192,71649,1,0,0:0:0:0:
448,192,71649,1,0,0:0:0:0:
64,192,71742,1,0,0:0:0:0:
192,192,71742,1,0,0:0:0:0:
320,192,71836,1,0,0:0:0:0:
320,192,71930,1,0,0:0:0:0:
448,192,71930,1,0,0:0:0:0:
192,192,72024,1,0,0:0:0:0:
448,192,72024,1,0,0:0:0:0:
64,192,72211,1,0,0:0:0:0:
64,192,72399,1,0,0:0:0:0:
192,192,72586,1,0,0:0:0:0:
320,192,72774,1,0,0:0:0:0:
448,192,72774,1,0,0:0:0:0:
192,192,72961,1,0,0:0:0:0:
192,192,73149,1,0,0:0:0:0:
192,192,73336,1,0,0:0:0:0:
448,192,73336,1,0,0:0:0:0:
192,192,73524,1,0,0:0:0:0:
448,192,73711,1,0,0:0:0:0:
192,192,73805,1,0,0:0:0:0:
448,192,73899,1,0,0:0:0:0:
64,192,73899,1,0,0:0:0:0:
448,192,74086,1,0,0:0:0:0:
64,192,74086,1,0,0:0:0:0:
192,192,74180,1,0,0:0:0:0:
64,192,74274,1,0,0:0:0:0:
448,192,74274,1,0,0:0:0:0:
320,192,74461,1,0,0:0:0:0:
192,192,74461,1,0,0:0:0:0:
192,192,74555,1,0,0:0:0:0:
192,192,74649,1,0,0:0:0:0:
448,192,74649,1,0,0:0:0:0:
448,192,74742,1,0,0:0:0:0:
64,192,74836,1,0,0:0:0:0:
448,192,74836,1,0,0:0:0:0:
64,192,74930,1,0,0:0:0:0:
448,192,75024,1,0,0:0:0:0:
192,192,75024,1,0,0:0:0:0:
192,192,75211,1,0,0:0:0:0:
448,192,75211,1,0,0:0:0:0:
192,192,75399,1,0,0:0:0:0:
448,192,75399,1,0,0:0:0:0:
192,192,75586,1,0,0:0:0:0:
448,192,75586,1,0,0:0:0:0:
448,192,75774,1,0,0:0:0:0:
64,192,75774,1,0,0:0:0:0:
192,192,75774,1,0,0:0:0:0:
192,192,75961,1,0,0:0:0:0:
448,192,75961,1,0,0:0:0:0:
192,192,76149,1,0,0:0:0:0:
448,192,76149,1,0,0:0:0:0:
320,192,76336,1,0,0:0:0:0:
192,192,76336,1,0,0:0:0:0:
64,192,76336,1,0,0:0:0:0:
64,192,76524,1,0,0:0:0:0:
192,192,76524,1,0,0:0:0:0:
64,192,76711,1,0,0:0:0:0:
320,192,76711,1,0,0:0:0:0:
64,192,76899,1,0,0:0:0:0:
448,192,76899,1,0,0:0:0:0:
192,192,77086,1,0,0:0:0:0:
448,192,77086,1,0,0:0:0:0:
448,192,77274,1,0,0:0:0:0:
320,192,77274,1,0,0:0:0:0:
320,192,77461,1,0,0:0:0:0:
192,192,77555,1,0,0:0:0:0:
64,192,77555,1,0,0:0:0:0:
448,192,77649,1,0,0:0:0:0:
64,192,77649,1,0,0:0:0:0:
320,192,77742,1,0,0:0:0:0:
448,192,77742,1,0,0:0:0:0:
64,192,77836,1,0,0:0:0:0:
64,192,77930,1,0,0:0:0:0:
448,192,77930,1,0,0:0:0:0:
192,192,78024,1,0,0:0:0:0:
448,192,78024,1,0,0:0:0:0:
64,192,78211,1,0,0:0:0:0:
448,192,78211,1,0,0:0:0:0:
192,192,78375,1,0,0:0:0:0:
64,192,78399,1,0,0:0:0:0:
320,192,78422,1,0,0:0:0:0:
448,192,78492,1,0,0:0:0:0:
320,192,78563,1,0,0:0:0:0:
64,192,78586,1,0,0:0:0:0:
192,192,78609,1,0,0:0:0:0:
320,192,78774,1,0,0:0:0:0:
448,192,78774,1,0,0:0:0:0:
192,192,78961,1,0,0:0:0:0:
192,192,79149,1,0,0:0:0:0:
448,192,79336,1,0,0:0:0:0:
192,192,79336,1,0,0:0:0:0:
64,192,79524,1,0,0:0:0:0:
448,192,79711,1,0,0:0:0:0:
192,192,79805,1,0,0:0:0:0:
448,192,79899,1,0,0:0:0:0:
64,192,79899,1,0,0:0:0:0:
448,192,80086,1,0,0:0:0:0:
64,192,80086,1,0,0:0:0:0:
192,192,80180,1,0,0:0:0:0:
448,192,80274,1,0,0:0:0:0:
64,192,80274,1,0,0:0:0:0:
192,192,80461,1,0,0:0:0:0:
320,192,80461,1,0,0:0:0:0:
192,192,80555,1,0,0:0:0:0:
448,192,80649,1,0,0:0:0:0:
192,192,80649,1,0,0:0:0:0:
448,192,80742,1,0,0:0:0:0:
64,192,80836,1,0,0:0:0:0:
448,192,80836,1,0,0:0:0:0:
320,192,81024,1,0,0:0:0:0:
448,192,81024,128,0,81399:0:0:0:0:
64,192,81086,1,0,0:0:0:0:
192,192,81164,1,0,0:0:0:0:
320,192,81258,1,0,0:0:0:0:
192,192,81336,1,0,0:0:0:0:
64,192,81399,128,0,81774:0:0:0:0:
320,192,81430,1,0,0:0:0:0:
448,192,81524,1,0,0:0:0:0:
320,192,81586,1,0,0:0:0:0:
192,192,81617,1,0,0:0:0:0:
448,192,81774,1,0,0:0:0:0:
320,192,81774,1,0,0:0:0:0:
448,192,81961,1,0,0:0:0:0:
192,192,81961,1,0,0:0:0:0:
64,192,82149,1,0,0:0:0:0:
192,192,82149,1,0,0:0:0:0:
448,192,82336,128,0,82711:0:0:0:0:
192,192,82336,1,0,0:0:0:0:
64,192,82367,1,0,0:0:0:0:
192,192,82524,1,0,0:0:0:0:
320,192,82570,1,0,0:0:0:0:
64,192,82617,1,0,0:0:0:0:
320,192,82649,1,0,0:0:0:0:
192,192,82711,1,0,0:0:0:0:
64,192,82742,1,0,0:0:0:0:
64,192,82899,1,0,0:0:0:0:
192,192,82899,1,0,0:0:0:0:
448,192,82899,1,0,0:0:0:0:
320,192,83063,1,0,0:0:0:0:
448,192,83086,128,0,83461:0:0:0:0:
192,192,83086,1,0,0:0:0:0:
64,192,83117,1,0,0:0:0:0:
192,192,83203,1,0,0:0:0:0:
320,192,83242,1,0,0:0:0:0:
192,192,83305,1,0,0:0:0:0:
64,192,83367,1,0,0:0:0:0:
192,192,83430,1,0,0:0:0:0:
320,192,83461,1,0,0:0:0:0:
320,192,83555,1,0,0:0:0:0:
64,192,83649,1,0,0:0:0:0:
448,192,83649,1,0,0:0:0:0:
64,192,83742,1,0,0:0:0:0:
448,192,83836,1,0,0:0:0:0:
192,192,83836,1,0,0:0:0:0:
320,192,83883,1,0,0:0:0:0:
64,192,84024,5,0,0:0:0:0:
448,192,84024,128,0,84399:0:0:0:0:
320,192,84024,1,0,0:0:0:0:
192,192,84305,1,0,0:0:0:0:
64,192,84399,1,0,0:0:0:0:
320,192,84399,1,0,0:0:0:0:
192,192,84492,1,0,0:0:0:0:
448,192,84586,1,0,0:0:0:0:
64,192,84774,1,0,0:0:0:0:
320,192,84836,1,0,0:0:0:0:
320,192,84961,1,0,0:0:0:0:
448,192,85055,1,0,0:0:0:0:
64,192,85149,1,0,0:0:0:0:
448,192,85336,1,0,0:0:0:0:
320,192,85430,1,0,0:0:0:0:
64,192,85524,1,0,0:0:0:0:
320,192,85524,128,0,85899:0:0:0:0:
192,192,85805,1,0,0:0:0:0:
448,192,85899,1,0,0:0:0:0:
64,192,85899,1,0,0:0:0:0:
192,192,85992,1,0,0:0:0:0:
448,192,86086,1,0,0:0:0:0:
64,192,86274,1,0,0:0:0:0:
320,192,86336,1,0,0:0:0:0:
448,192,86555,1,0,0:0:0:0:
64,192,86649,1,0,0:0:0:0:
320,192,86711,1,0,0:0:0:0:
448,192,86836,1,0,0:0:0:0:
320,192,86899,1,0,0:0:0:0:
64,192,87024,5,0,0:0:0:0:
448,192,87024,128,0,87399:0:0:0:0:
192,192,87024,1,0,0:0:0:0:
192,192,87305,1,0,0:0:0:0:
64,192,87399,1,0,0:0:0:0:
320,192,87399,1,0,0:0:0:0:
192,192,87492,1,0,0:0:0:0:
448,192,87586,1,0,0:0:0:0:
64,192,87774,1,0,0:0:0:0:
320,192,87836,1,0,0:0:0:0:
320,192,87961,1,0,0:0:0:0:
448,192,88055,1,0,0:0:0:0:
64,192,88149,1,0,0:0:0:0:
448,192,88336,1,0,0:0:0:0:
320,192,88430,1,0,0:0:0:0:
64,192,88524,1,0,0:0:0:0:
320,192,88524,128,0,88899:0:0:0:0:
192,192,88805,1,0,0:0:0:0:
448,192,88899,1,0,0:0:0:0:
64,192,88899,1,0,0:0:0:0:
192,192,88992,1,0,0:0:0:0:
448,192,89086,1,0,0:0:0:0:
64,192,89274,1,0,0:0:0:0:
320,192,89336,1,0,0:0:0:0:
448,192,89555,1,0,0:0:0:0:
64,192,89649,1,0,0:0:0:0:
320,192,89711,1,0,0:0:0:0:
448,192,89836,1,0,0:0:0:0:
320,192,89899,1,0,0:0:0:0:
448,192,90024,1,0,0:0:0:0:
64,192,90024,1,0,0:0:0:0:
192,192,90024,1,0,0:0:0:0:
192,192,90305,1,0,0:0:0:0:
448,192,90305,1,0,0:0:0:0:
64,192,90399,1,0,0:0:0:0:
192,192,90399,1,0,0:0:0:0:
192,192,90586,1,0,0:0:0:0:
448,192,90586,1,0,0:0:0:0:
64,192,90774,1,0,0:0:0:0:
192,192,90774,1,0,0:0:0:0:
448,192,91055,1,0,0:0:0:0:
320,192,91055,1,0,0:0:0:0:
64,192,91149,1,0,0:0:0:0:
192,192,91149,1,0,0:0:0:0:
448,192,91336,1,0,0:0:0:0:
320,192,91336,1,0,0:0:0:0:
192,192,91524,1,0,0:0:0:0:
64,192,91524,1,0,0:0:0:0:
192,192,91805,1,0,0:0:0:0:
448,192,91805,1,0,0:0:0:0:
64,192,91899,1,0,0:0:0:0:
192,192,91899,1,0,0:0:0:0:
192,192,92086,1,0,0:0:0:0:
448,192,92086,1,0,0:0:0:0:
64,192,92274,1,0,0:0:0:0:
192,192,92274,1,0,0:0:0:0:
320,192,92555,1,0,0:0:0:0:
448,192,92555,1,0,0:0:0:0:
64,192,92649,1,0,0:0:0:0:
192,192,92649,1,0,0:0:0:0:
448,192,92836,1,0,0:0:0:0:
320,192,92836,1,0,0:0:0:0:
64,192,93024,1,0,0:0:0:0:
192,192,93024,1,0,0:0:0:0:
192,192,93305,1,0,0:0:0:0:
448,192,93305,1,0,0:0:0:0:
64,192,93399,1,0,0:0:0:0:
320,192,93586,1,0,0:0:0:0:
448,192,93586,1,0,0:0:0:0:
64,192,93774,1,0,0:0:0:0:
448,192,94055,1,0,0:0:0:0:
64,192,94149,1,0,0:0:0:0:
320,192,94305,1,0,0:0:0:0:
448,192,94336,1,0,0:0:0:0:
192,192,94336,1,0,0:0:0:0:
192,192,94461,1,0,0:0:0:0:
64,192,94524,1,0,0:0:0:0:
448,192,94524,1,0,0:0:0:0:
320,192,95180,1,0,0:0:0:0:
64,192,95227,1,0,0:0:0:0:
192,192,95274,1,0,0:0:0:0:
448,192,95274,1,0,0:0:0:0:
64,192,95367,1,0,0:0:0:0:
320,192,95461,1,0,0:0:0:0:
448,192,95461,1,0,0:0:0:0:
64,192,95555,1,0,0:0:0:0:
320,192,95555,1,0,0:0:0:0:
448,192,95649,1,0,0:0:0:0:
64,192,95649,1,0,0:0:0:0:
192,192,95649,1,0,0:0:0:0:
320,192,95836,1,0,0:0:0:0:
192,192,95883,1,0,0:0:0:0:
64,192,95906,1,0,0:0:0:0:
448,192,95977,1,0,0:0:0:0:
192,192,96000,1,0,0:0:0:0:
64,192,96024,128,0,96399:0:0:0:0:
320,192,96024,128,0,96399:0:0:0:0:
448,192,96399,128,0,96774:0:0:0:0:
192,192,96399,128,0,96774:0:0:0:0:
64,192,96774,128,0,97149:0:0:0:0:
320,192,96774,1,0,0:0:0:0:
320,192,96961,1,0,0:0:0:0:
448,192,97008,1,0,0:0:0:0:
320,192,97055,1,0,0:0:0:0:
448,192,97149,1,0,0:0:0:0:
192,192,97149,1,0,0:0:0:0:
192,192,97242,1,0,0:0:0:0:
64,192,97336,1,0,0:0:0:0:
64,192,97430,1,0,0:0:0:0:
192,192,97524,1,0,0:0:0:0:
320,192,97555,1,0,0:0:0:0:
448,192,97586,1,0,0:0:0:0:
320,192,97711,1,0,0:0:0:0:
320,192,97805,1,0,0:0:0:0:
448,192,97899,1,0,0:0:0:0:
448,192,97992,1,0,0:0:0:0:
320,192,98086,1,0,0:0:0:0:
192,192,98117,1,0,0:0:0:0:
64,192,98149,1,0,0:0:0:0:
320,192,98274,1,0,0:0:0:0:
192,192,98274,1,0,0:0:0:0:
448,192,98274,1,0,0:0:0:0:
320,192,98461,1,0,0:0:0:0:
448,192,98484,1,0,0:0:0:0:
192,192,98492,1,0,0:0:0:0:
64,192,98508,1,0,0:0:0:0:
448,192,98649,1,0,0:0:0:0:
320,192,98649,1,0,0:0:0:0:
64,192,98649,1,0,0:0:0:0:
320,192,98836,1,0,0:0:0:0:
192,192,98836,1,0,0:0:0:0:
192,192,98977,1,0,0:0:0:0:
320,192,99000,1,0,0:0:0:0:
64,192,99024,128,0,99399:0:0:0:0:
448,192,99024,128,0,99399:0:0:0:0:
320,192,99399,128,0,99774:0:0:0:0:
192,192,99399,1,0,0:0:0:0:
192,192,99586,1,0,0:0:0:0:
64,192,99680,1,0,0:0:0:0:
448,192,99774,1,0,0:0:0:0:
64,192,99774,1,0,0:0:0:0:
448,192,99867,1,0,0:0:0:0:
192,192,99961,1,0,0:0:0:0:
320,192,100008,1,0,0:0:0:0:
64,192,100055,1,0,0:0:0:0:
320,192,100102,1,0,0:0:0:0:
448,192,100149,1,0,0:0:0:0:
192,192,100149,1,0,0:0:0:0:
192,192,100242,1,0,0:0:0:0:
320,192,100336,1,0,0:0:0:0:
64,192,100336,1,0,0:0:0:0:
320,192,100430,1,0,0:0:0:0:
64,192,100430,1,0,0:0:0:0:
192,192,100524,1,0,0:0:0:0:
320,192,100524,1,0,0:0:0:0:
192,192,100617,1,0,0:0:0:0:
320,192,100617,1,0,0:0:0:0:
448,192,100711,1,0,0:0:0:0:
192,192,100711,1,0,0:0:0:0:
192,192,100805,1,0,0:0:0:0:
448,192,100805,1,0,0:0:0:0:
64,192,100899,1,0,0:0:0:0:
320,192,100899,1,0,0:0:0:0:
64,192,101086,1,0,0:0:0:0:
320,192,101086,1,0,0:0:0:0:
448,192,101117,1,0,0:0:0:0:
192,192,101149,1,0,0:0:0:0:
448,192,101203,1,0,0:0:0:0:
192,192,101250,1,0,0:0:0:0:
64,192,101297,1,0,0:0:0:0:
320,192,101320,1,0,0:0:0:0:
448,192,101367,1,0,0:0:0:0:
320,192,101461,1,0,0:0:0:0:
192,192,101492,1,0,0:0:0:0:
64,192,101508,1,0,0:0:0:0:
320,192,101649,1,0,0:0:0:0:
448,192,101649,1,0,0:0:0:0:
64,192,101649,1,0,0:0:0:0:
192,192,101836,1,0,0:0:0:0:
448,192,101836,1,0,0:0:0:0:
448,192,102024,1,0,0:0:0:0:
192,192,102024,1,0,0:0:0:0:
64,192,102055,1,0,0:0:0:0:
320,192,102094,1,0,0:0:0:0:
192,192,102149,1,0,0:0:0:0:
448,192,102211,1,0,0:0:0:0:
64,192,102234,1,0,0:0:0:0:
320,192,102274,1,0,0:0:0:0:
64,192,102399,1,0,0:0:0:0:
320,192,102399,1,0,0:0:0:0:
448,192,102430,1,0,0:0:0:0:
192,192,102469,1,0,0:0:0:0:
320,192,102524,1,0,0:0:0:0:
64,192,102586,1,0,0:0:0:0:
448,192,102609,1,0,0:0:0:0:
192,192,102649,1,0,0:0:0:0:
320,192,102680,1,0,0:0:0:0:
64,192,102727,1,0,0:0:0:0:
320,192,102774,1,0,0:0:0:0:
448,192,102774,1,0,0:0:0:0:
320,192,102914,1,0,0:0:0:0:
448,192,102938,1,0,0:0:0:0:
192,192,102961,1,0,0:0:0:0:
64,192,102961,1,0,0:0:0:0:
64,192,103149,1,0,0:0:0:0:
192,192,103149,1,0,0:0:0:0:
64,192,103336,128,0,103711:0:0:0:0:
320,192,103336,1,0,0:0:0:0:
448,192,103367,1,0,0:0:0:0:
192,192,103406,1,0,0:0:0:0:
320,192,103524,1,0,0:0:0:0:
448,192,103617,1,0,0:0:0:0:
192,192,103641,1,0,0:0:0:0:
320,192,103711,1,0,0:0:0:0:
448,192,103742,1,0,0:0:0:0:
448,192,103899,1,0,0:0:0:0:
320,192,103899,1,0,0:0:0:0:
64,192,103899,1,0,0:0:0:0:
448,192,104063,1,0,0:0:0:0:
64,192,104086,128,0,104461:0:0:0:0:
320,192,104086,1,0,0:0:0:0:
192,192,104109,1,0,0:0:0:0:
320,192,104203,1,0,0:0:0:0:
448,192,104250,1,0,0:0:0:0:
320,192,104297,1,0,0:0:0:0:
192,192,104367,1,0,0:0:0:0:
320,192,104438,1,0,0:0:0:0:
448,192,104461,1,0,0:0:0:0:
448,192,104555,1,0,0:0:0:0:
320,192,104649,1,0,0:0:0:0:
192,192,104649,1,0,0:0:0:0:
64,192,104649,1,0,0:0:0:0:
320,192,104836,1,0,0:0:0:0:
64,192,104836,1,0,0:0:0:0:
192,192,104977,1,0,0:0:0:0:
320,192,105000,1,0,0:0:0:0:
448,192,105024,128,0,105399:0:0:0:0:
64,192,105024,128,0,105399:0:0:0:0:
320,192,105399,128,0,105774:0:0:0:0:
192,192,105399,128,0,105774:0:0:0:0:
448,192,105774,1,0,0:0:0:0:
64,192,105774,1,0,0:0:0:0:
448,192,105961,1,0,0:0:0:0:
320,192,105961,1,0,0:0:0:0:
448,192,106149,1,0,0:0:0:0:
64,192,106149,1,0,0:0:0:0:
192,192,106336,1,0,0:0:0:0:
448,192,106336,1,0,0:0:0:0:
64,192,106359,1,0,0:0:0:0:
320,192,106406,1,0,0:0:0:0:
192,192,106477,1,0,0:0:0:0:
320,192,106524,1,0,0:0:0:0:
64,192,106570,1,0,0:0:0:0:
192,192,106649,1,0,0:0:0:0:
320,192,106711,1,0,0:0:0:0:
448,192,106711,1,0,0:0:0:0:
64,192,106899,1,0,0:0:0:0:
320,192,106899,1,0,0:0:0:0:
320,192,107086,1,0,0:0:0:0:
64,192,107086,1,0,0:0:0:0:
320,192,107180,1,0,0:0:0:0:
448,192,107274,1,0,0:0:0:0:
192,192,107274,1,0,0:0:0:0:
64,192,107297,1,0,0:0:0:0:
320,192,107367,1,0,0:0:0:0:
192,192,107461,1,0,0:0:0:0:
64,192,107508,1,0,0:0:0:0:
448,192,107531,1,0,0:0:0:0:
320,192,107578,1,0,0:0:0:0:
192,192,107602,1,0,0:0:0:0:
448,192,107977,1,0,0:0:0:0:
192,192,108000,1,0,0:0:0:0:
64,192,108024,128,0,108399:0:0:0:0:
320,192,108024,128,0,108399:0:0:0:0:
448,192,108305,1,0,0:0:0:0:
448,192,108399,1,0,0:0:0:0:
192,192,108422,1,0,0:0:0:0:
64,192,108586,1,0,0:0:0:0:
192,192,108609,1,0,0:0:0:0:
320,192,108617,1,0,0:0:0:0:
448,192,108633,1,0,0:0:0:0:
320,192,108774,1,0,0:0:0:0:
448,192,108774,1,0,0:0:0:0:
192,192,108797,1,0,0:0:0:0:
64,192,108820,1,0,0:0:0:0:
448,192,108961,1,0,0:0:0:0:
64,192,108961,1,0,0:0:0:0:
64,192,109055,1,0,0:0:0:0:
320,192,109055,1,0,0:0:0:0:
320,192,109149,1,0,0:0:0:0:
448,192,109149,1,0,0:0:0:0:
192,192,109172,1,0,0:0:0:0:
64,192,109195,1,0,0:0:0:0:
448,192,109336,1,0,0:0:0:0:
192,192,109336,1,0,0:0:0:0:
192,192,109430,1,0,0:0:0:0:
448,192,109430,1,0,0:0:0:0:
320,192,109524,1,0,0:0:0:0:
64,192,109524,1,0,0:0:0:0:
320,192,109617,1,0,0:0:0:0:
448,192,109711,1,0,0:0:0:0:
448,192,109805,1,0,0:0:0:0:
320,192,109899,1,0,0:0:0:0:
64,192,109899,1,0,0:0:0:0:
320,192,109992,1,0,0:0:0:0:
192,192,110086,1,0,0:0:0:0:
192,192,110180,1,0,0:0:0:0:
320,192,110274,1,0,0:0:0:0:
448,192,110274,1,0,0:0:0:0:
64,192,110274,1,0,0:0:0:0:
192,192,110461,1,0,0:0:0:0:
64,192,110484,1,0,0:0:0:0:
320,192,110492,1,0,0:0:0:0:
448,192,110508,1,0,0:0:0:0:
192,192,110649,1,0,0:0:0:0:
448,192,110649,1,0,0:0:0:0:
64,192,110649,1,0,0:0:0:0:
192,192,110836,1,0,0:0:0:0:
320,192,110836,1,0,0:0:0:0:
64,192,111024,1,0,0:0:0:0:
448,192,111024,1,0,0:0:0:0:
192,192,111047,1,0,0:0:0:0:
320,192,111094,1,0,0:0:0:0:
64,192,111149,1,0,0:0:0:0:
320,192,111180,1,0,0:0:0:0:
192,192,111258,1,0,0:0:0:0:
64,192,111274,1,0,0:0:0:0:
448,192,111305,1,0,0:0:0:0:
320,192,111367,1,0,0:0:0:0:
192,192,111399,1,0,0:0:0:0:
192,192,111492,1,0,0:0:0:0:
64,192,111586,1,0,0:0:0:0:
64,192,111680,1,0,0:0:0:0:
192,192,111774,1,0,0:0:0:0:
448,192,111774,1,0,0:0:0:0:
192,192,111867,1,0,0:0:0:0:
320,192,111961,1,0,0:0:0:0:
320,192,112055,1,0,0:0:0:0:
64,192,112149,1,0,0:0:0:0:
192,192,112149,1,0,0:0:0:0:
448,192,112149,1,0,0:0:0:0:
320,192,112242,1,0,0:0:0:0:
320,192,112336,1,0,0:0:0:0:
448,192,112430,1,0,0:0:0:0:
192,192,112500,1,0,0:0:0:0:
448,192,112524,1,0,0:0:0:0:
64,192,112524,1,0,0:0:0:0:
192,192,112688,1,0,0:0:0:0:
448,192,112711,1,0,0:0:0:0:
64,192,112711,1,0,0:0:0:0:
320,192,112899,5,0,0:0:0:0:
448,192,112899,1,0,0:0:0:0:
64,192,112899,1,0,0:0:0:0:
320,192,113086,5,0,0:0:0:0:
64,192,113086,1,0,0:0:0:0:
448,192,113117,1,0,0:0:0:0:
192,192,113149,1,0,0:0:0:0:
448,192,113203,1,0,0:0:0:0:
192,192,113250,1,0,0:0:0:0:
64,192,113297,1,0,0:0:0:0:
320,192,113320,1,0,0:0:0:0:
448,192,113367,1,0,0:0:0:0:
320,192,113461,1,0,0:0:0:0:
192,192,113492,1,0,0:0:0:0:
64,192,113508,1,0,0:0:0:0:
320,192,113649,1,0,0:0:0:0:
64,192,113649,1,0,0:0:0:0:
448,192,113649,1,0,0:0:0:0:
192,192,113836,1,0,0:0:0:0:
448,192,113836,1,0,0:0:0:0:
448,192,114024,5,0,0:0:0:0:
192,192,114024,1,0,0:0:0:0:
64,192,114055,1,0,0:0:0:0:
320,192,114094,1,0,0:0:0:0:
192,192,114149,1,0,0:0:0:0:
448,192,114211,1,0,0:0:0:0:
64,192,114234,1,0,0:0:0:0:
320,192,114274,1,0,0:0:0:0:
64,192,114399,1,0,0:0:0:0:
320,192,114399,1,0,0:0:0:0:
448,192,114430,1,0,0:0:0:0:
192,192,114469,1,0,0:0:0:0:
320,192,114524,1,0,0:0:0:0:
64,192,114586,1,0,0:0:0:0:
448,192,114609,1,0,0:0:0:0:
192,192,114649,1,0,0:0:0:0:
320,192,114680,1,0,0:0:0:0:
64,192,114727,1,0,0:0:0:0:
320,192,114774,1,0,0:0:0:0:
448,192,114774,1,0,0:0:0:0:
320,192,114914,1,0,0:0:0:0:
448,192,114938,1,0,0:0:0:0:
192,192,114961,1,0,0:0:0:0:
64,192,114961,1,0,0:0:0:0:
192,192,115149,1,0,0:0:0:0:
64,192,115149,1,0,0:0:0:0:
64,192,115336,128,0,115711:0:0:0:0:
448,192,115367,1,0,0:0:0:0:
192,192,115406,1,0,0:0:0:0:
320,192,115524,1,0,0:0:0:0:
448,192,115617,1,0,0:0:0:0:
192,192,115641,1,0,0:0:0:0:
320,192,115711,1,0,0:0:0:0:
448,192,115742,1,0,0:0:0:0:
448,192,115899,1,0,0:0:0:0:
320,192,115899,1,0,0:0:0:0:
64,192,115899,1,0,0:0:0:0:
448,192,116063,1,0,0:0:0:0:
64,192,116086,128,0,116461:0:0:0:0:
320,192,116086,1,0,0:0:0:0:
192,192,116109,1,0,0:0:0:0:
320,192,116203,1,0,0:0:0:0:
448,192,116250,1,0,0:0:0:0:
320,192,116297,1,0,0:0:0:0:
192,192,116367,1,0,0:0:0:0:
320,192,116438,1,0,0:0:0:0:
448,192,116461,1,0,0:0:0:0:
448,192,116555,1,0,0:0:0:0:
320,192,116649,1,0,0:0:0:0:
192,192,116649,1,0,0:0:0:0:
64,192,116649,1,0,0:0:0:0:
320,192,116836,1,0,0:0:0:0:
64,192,116836,1,0,0:0:0:0:
192,192,116977,1,0,0:0:0:0:
320,192,117000,1,0,0:0:0:0:
448,192,117024,128,0,117399:0:0:0:0:
64,192,117024,128,0,117399:0:0:0:0:
320,192,117399,128,0,117774:0:0:0:0:
192,192,117399,128,0,117774:0:0:0:0:
448,192,117774,1,0,0:0:0:0:
64,192,117774,1,0,0:0:0:0:
448,192,117961,1,0,0:0:0:0:
320,192,117961,1,0,0:0:0:0:
448,192,118149,1,0,0:0:0:0:
64,192,118149,1,0,0:0:0:0:
192,192,118336,1,0,0:0:0:0:
448,192,118336,1,0,0:0:0:0:
64,192,118359,1,0,0:0:0:0:
320,192,118406,1,0,0:0:0:0:
192,192,118477,1,0,0:0:0:0:
320,192,118524,1,0,0:0:0:0:
64,192,118570,1,0,0:0:0:0:
192,192,118649,1,0,0:0:0:0:
320,192,118711,1,0,0:0:0:0:
448,192,118711,1,0,0:0:0:0:
64,192,118899,5,0,0:0:0:0:
320,192,118899,1,0,0:0:0:0:
320,192,119086,1,0,0:0:0:0:
64,192,119086,1,0,0:0:0:0:
320,192,119180,1,0,0:0:0:0:
448,192,119274,1,0,0:0:0:0:
192,192,119274,1,0,0:0:0:0:
64,192,119297,1,0,0:0:0:0:
320,192,119367,1,0,0:0:0:0:
192,192,119461,1,0,0:0:0:0:
64,192,119508,1,0,0:0:0:0:
448,192,119531,1,0,0:0:0:0:
320,192,119578,1,0,0:0:0:0:
192,192,119602,1,0,0:0:0:0:
64,192,119649,128,0,120024:0:0:0:0:
448,192,120024,5,0,0:0:0:0:
192,192,120024,1,0,0:0:0:0:
64,192,120211,1,0,0:0:0:0:
64,192,120399,1,0,0:0:0:0:
192,192,120586,1,0,0:0:0:0:
320,192,120774,1,0,0:0:0:0:
448,192,120774,1,0,0:0:0:0:
192,192,120961,1,0,0:0:0:0:
192,192,121149,1,0,0:0:0:0:
448,192,121336,1,0,0:0:0:0:
192,192,121336,1,0,0:0:0:0:
64,192,121524,1,0,0:0:0:0:
448,192,121711,1,0,0:0:0:0:
192,192,121805,1,0,0:0:0:0:
448,192,121899,1,0,0:0:0:0:
64,192,121899,1,0,0:0:0:0:
448,192,122086,1,0,0:0:0:0:
64,192,122086,1,0,0:0:0:0:
192,192,122180,1,0,0:0:0:0:
448,192,122274,1,0,0:0:0:0:
64,192,122274,1,0,0:0:0:0:
192,192,122461,1,0,0:0:0:0:
320,192,122461,1,0,0:0:0:0:
192,192,122555,1,0,0:0:0:0:
448,192,122649,1,0,0:0:0:0:
192,192,122649,1,0,0:0:0:0:
448,192,122742,1,0,0:0:0:0:
64,192,122836,1,0,0:0:0:0:
448,192,122836,1,0,0:0:0:0:
64,192,122930,1,0,0:0:0:0:
448,192,123024,1,0,0:0:0:0:
192,192,123024,1,0,0:0:0:0:
64,192,123211,1,0,0:0:0:0:
320,192,123305,1,0,0:0:0:0:
448,192,123399,1,0,0:0:0:0:
64,192,123399,1,0,0:0:0:0:
448,192,123586,1,0,0:0:0:0:
192,192,123586,1,0,0:0:0:0:
64,192,123680,1,0,0:0:0:0:
448,192,123774,1,0,0:0:0:0:
320,192,123774,1,0,0:0:0:0:
192,192,123961,1,0,0:0:0:0:
192,192,124149,1,0,0:0:0:0:
192,192,124336,1,0,0:0:0:0:
448,192,124336,1,0,0:0:0:0:
192,192,124524,1,0,0:0:0:0:
448,192,124711,1,0,0:0:0:0:
448,192,124899,1,0,0:0:0:0:
448,192,125086,1,0,0:0:0:0:
192,192,125086,1,0,0:0:0:0:
64,192,125274,1,0,0:0:0:0:
448,192,125274,1,0,0:0:0:0:
320,192,125461,1,0,0:0:0:0:
192,192,125555,1,0,0:0:0:0:
64,192,125555,1,0,0:0:0:0:
448,192,125649,1,0,0:0:0:0:
64,192,125649,1,0,0:0:0:0:
320,192,125742,1,0,0:0:0:0:
448,192,125742,1,0,0:0:0:0:
64,192,125836,1,0,0:0:0:0:
64,192,125930,1,0,0:0:0:0:
448,192,125930,1,0,0:0:0:0:
320,192,126000,1,0,0:0:0:0:
448,192,126024,1,0,0:0:0:0:
192,192,126047,1,0,0:0:0:0:
64,192,126117,1,0,0:0:0:0:
64,192,126234,1,0,0:0:0:0:
192,192,126281,1,0,0:0:0:0:
448,192,126281,1,0,0:0:0:0:
320,192,126305,1,0,0:0:0:0:
64,192,126399,1,0,0:0:0:0:
192,192,126586,1,0,0:0:0:0:
320,192,126774,1,0,0:0:0:0:
448,192,126774,1,0,0:0:0:0:
192,192,126961,1,0,0:0:0:0:
192,192,127149,1,0,0:0:0:0:
448,192,127336,1,0,0:0:0:0:
192,192,127336,1,0,0:0:0:0:
64,192,127524,1,0,0:0:0:0:
448,192,127711,1,0,0:0:0:0:
192,192,127805,1,0,0:0:0:0:
448,192,127899,1,0,0:0:0:0:
64,192,127899,1,0,0:0:0:0:
448,192,128086,1,0,0:0:0:0:
448,192,128274,1,0,0:0:0:0:
64,192,128274,1,0,0:0:0:0:
192,192,128461,1,0,0:0:0:0:
320,192,128461,1,0,0:0:0:0:
192,192,128555,1,0,0:0:0:0:
448,192,128649,1,0,0:0:0:0:
192,192,128649,1,0,0:0:0:0:
448,192,128742,1,0,0:0:0:0:
320,192,128836,1,0,0:0:0:0:
64,192,128836,1,0,0:0:0:0:
448,192,128867,1,0,0:0:0:0:
192,192,128899,1,0,0:0:0:0:
320,192,128977,1,0,0:0:0:0:
192,192,129024,1,0,0:0:0:0:
64,192,129047,1,0,0:0:0:0:
320,192,129094,1,0,0:0:0:0:
448,192,129164,1,0,0:0:0:0:
320,192,129211,1,0,0:0:0:0:
192,192,129242,1,0,0:0:0:0:
64,192,129258,1,0,0:0:0:0:
192,192,129352,1,0,0:0:0:0:
64,192,129399,1,0,0:0:0:0:
64,192,129586,1,0,0:0:0:0:
320,192,129586,1,0,0:0:0:0:
192,192,129774,1,0,0:0:0:0:
448,192,129774,1,0,0:0:0:0:
64,192,129805,1,0,0:0:0:0:
320,192,129836,1,0,0:0:0:0:
192,192,129914,1,0,0:0:0:0:
320,192,129961,1,0,0:0:0:0:
448,192,129984,1,0,0:0:0:0:
192,192,130031,1,0,0:0:0:0:
64,192,130102,1,0,0:0:0:0:
192,192,130149,1,0,0:0:0:0:
320,192,130180,1,0,0:0:0:0:
448,192,130195,1,0,0:0:0:0:
192,192,130336,1,0,0:0:0:0:
448,192,130336,1,0,0:0:0:0:
64,192,130367,1,0,0:0:0:0:
320,192,130399,1,0,0:0:0:0:
192,192,130477,1,0,0:0:0:0:
320,192,130524,1,0,0:0:0:0:
448,192,130547,1,0,0:0:0:0:
192,192,130617,1,0,0:0:0:0:
64,192,130649,1,0,0:0:0:0:
320,192,130711,1,0,0:0:0:0:
448,192,130711,1,0,0:0:0:0:
320,192,131086,1,0,0:0:0:0:
64,192,131086,1,0,0:0:0:0:
320,192,131180,1,0,0:0:0:0:
192,192,131250,1,0,0:0:0:0:
64,192,131274,1,0,0:0:0:0:
448,192,131274,1,0,0:0:0:0:
192,192,131399,1,0,0:0:0:0:
320,192,131438,1,0,0:0:0:0:
448,192,131461,1,0,0:0:0:0:
64,192,131461,1,0,0:0:0:0:
