osu file format v14

[General]
AudioFilename: audio.mp3
AudioLeadIn: 0
PreviewTime: 34510
Countdown: 0
SampleSet: Soft
StackLeniency: 0.2
Mode: 0
LetterboxInBreaks: 0
WidescreenStoryboard: 0

[Editor]
DistanceSpacing: 2.3
BeatDivisor: 4
GridSize: 32
TimelineZoom: 2

[Metadata]
Title:Velocity
TitleUnicode:Velocity
Artist:M2U
ArtistUnicode:M2U
Creator:M2Usonek
Version:Yugu's Jerk (Extra)
Source:
Tags:Minorsonek CptSqBany Yugu Akareh Zelq Matsubara_Kanon Matsubara Kanon RVMathew Cris- Walaowey electronic instrumental
BeatmapID:1863870
BeatmapSetID:891581

[Difficulty]
HPDrainRate:5.5
CircleSize:4.2
OverallDifficulty:8.5
ApproachRate:9
SliderMultiplier:1.92
SliderTickRate:1

[Events]
//Background and Video events
0,0,"64371035_p0_master1200.jpg",0,0
//Break Periods
2,60217,65418
//Storyboard Layer 0 (Background)
//Storyboard Layer 1 (Fail)
//Storyboard Layer 2 (Pass)
//Storyboard Layer 3 (Foreground)
//Storyboard Sound Samples
Sample,35174,0,"soft-hitfinish5.wav",70
Sample,95174,0,"soft-hitfinish5.wav",70

[TimingPoints]
18,375,4,2,1,70,1,0
18,-66.6666666666667,4,2,1,70,0,0
486,-100,4,2,1,5,0,0
580,-100,4,2,1,70,0,0
768,-133.333333333333,4,2,1,70,0,0
1330,-100,4,2,1,70,0,0
1471,-66.6666666666667,4,2,1,5,0,0
1518,-66.6666666666667,4,2,1,70,0,0
1986,-66.6666666666667,4,2,1,5,0,0
2080,-66.6666666666667,4,2,1,70,0,0
2268,-133.333333333333,4,2,1,70,0,0
3018,-66.6666666666667,4,2,1,70,0,0
3486,-66.6666666666667,4,2,1,5,0,0
3580,-66.6666666666667,4,2,1,70,0,0
4330,-100,4,2,1,70,0,0
4471,-66.6666666666667,4,2,1,5,0,0
4518,-66.6666666666667,4,2,1,70,0,0
5643,-50,4,2,1,70,0,0
6018,-66.6666666666667,4,2,1,70,0,0
6486,-66.6666666666667,4,2,1,5,0,0
6580,-133.333333333333,4,2,1,70,0,0
7330,-100,4,2,1,70,0,0
7471,-66.6666666666667,4,2,1,5,0,0
7518,-66.6666666666667,4,2,1,70,0,0
7986,-66.6666666666667,4,2,1,5,0,0
8080,-66.6666666666667,4,2,1,70,0,0
8268,-133.333333333333,4,2,1,70,0,0
8361,-133.333333333333,4,2,1,5,0,0
8455,-133.333333333333,4,2,1,70,0,0
9018,-66.6666666666667,4,2,1,70,0,0
9486,-66.6666666666667,4,2,1,5,0,0
9580,-66.6666666666667,4,2,1,70,0,0
10330,-100,4,2,1,70,0,0
10471,-66.6666666666667,4,2,1,5,0,0
10518,-66.6666666666667,4,2,1,70,0,0
11643,-50,4,2,1,70,0,0
12018,-100,4,2,1,70,0,0
12299,-100,4,2,1,5,0,0
12393,-100,4,2,1,70,0,0
12674,-100,4,2,1,5,0,0
12768,-100,4,2,1,70,0,0
13424,-100,4,2,1,5,0,0
13518,-100,4,2,1,70,0,0
13611,-100,4,2,1,5,0,0
13705,-100,4,2,1,70,0,0
13799,-100,4,2,1,5,0,0
13893,-100,4,2,1,70,0,0
13986,-100,4,2,1,5,0,0
14080,-100,4,2,1,70,0,0
14361,-100,4,2,1,5,0,0
14455,-100,4,2,1,70,0,0
15299,-100,4,2,1,5,0,0
15393,-100,4,2,1,70,0,0
15674,-100,4,2,1,5,0,0
15768,-250,4,2,1,70,0,0
15861,-250,4,2,1,5,0,0
15955,-250,4,2,1,70,0,0
16049,-250,4,2,1,5,0,0
16143,-250,4,2,1,70,0,0
16330,-100,4,2,5,70,0,0
16518,-100,4,2,1,70,0,0
16611,-100,4,2,1,5,0,0
16705,-250,4,2,1,70,0,0
16799,-250,4,2,1,5,0,0
16893,-250,4,2,1,70,0,0
16986,-250,4,2,1,5,0,0
17080,-250,4,2,5,70,0,0
17268,-250,4,2,1,70,0,0
17361,-250,4,2,1,5,0,0
17455,-100,4,2,1,70,0,0
17643,-100,4,2,5,70,0,0
17830,-100,4,2,1,70,0,0
18018,-100,4,2,5,70,0,0
18205,-100,4,2,1,70,0,0
18299,-100,4,2,1,5,0,0
18393,-100,4,2,1,70,0,0
18674,-100,4,2,1,5,0,0
18768,-100,4,2,1,70,0,0
19424,-100,4,2,1,5,0,0
19518,-100,4,2,1,70,0,0
19611,-100,4,2,1,5,0,0
19705,-100,4,2,1,70,0,0
19799,-100,4,2,1,5,0,0
19893,-100,4,2,1,70,0,0
19986,-100,4,2,1,5,0,0
20080,-100,4,2,1,70,0,0
20361,-100,4,2,1,5,0,0
20455,-100,4,2,1,70,0,0
21299,-100,4,2,1,5,0,0
21393,-100,4,2,1,70,0,0
21674,-100,4,2,1,5,0,0
21768,-250,4,2,1,70,0,0
21861,-250,4,2,1,5,0,0
21955,-250,4,2,1,70,0,0
22049,-250,4,2,1,5,0,0
22143,-250,4,2,1,70,0,0
22330,-100,4,2,5,70,0,0
22518,-100,4,2,1,70,0,0
22705,-250,4,2,1,70,0,0
22799,-250,4,2,1,5,0,0
22893,-250,4,2,1,70,0,0
23080,-250,4,2,5,70,0,0
23268,-250,4,2,1,70,0,0
23455,-100,4,2,1,70,0,0
23643,-100,4,2,5,70,0,0
23830,-100,4,2,1,70,0,0
24018,-100,4,2,5,70,0,0
24205,-100,4,2,1,70,0,0
30768,-90.9090909090909,4,2,1,70,0,0
31518,-83.3333333333333,4,2,1,70,0,0
32268,-76.9230769230769,4,2,1,70,0,0
33018,-76.9230769230769,4,2,1,70,0,0
33768,-76.9230769230769,4,2,1,70,0,0
34518,-76.9230769230769,4,2,1,70,0,0
35174,-76.9230769230769,4,2,5,85,0,0
35221,-76.9230769230769,4,2,1,85,0,0
35736,-76.9230769230769,4,2,1,5,0,0
35830,-76.9230769230769,4,2,1,85,0,0
35924,-76.9230769230769,4,2,1,5,0,0
36018,-62.5,4,2,1,85,0,0
36205,-62.5,4,2,1,5,0,0
36299,-62.5,4,2,1,85,0,0
36486,-62.5,4,2,1,5,0,0
36580,-83.3333333333333,4,2,1,85,0,0
36674,-83.3333333333333,4,2,1,5,0,0
36768,-83.3333333333333,4,2,1,85,0,0
36861,-83.3333333333333,4,2,1,5,0,0
36955,-83.3333333333333,4,2,1,85,0,0
37049,-83.3333333333333,4,2,1,5,0,0
37143,-166.666666666667,4,2,1,85,0,0
37611,-166.666666666667,4,2,1,5,0,0
37705,-166.666666666667,4,2,1,85,0,0
38549,-166.666666666667,4,2,1,5,0,0
38643,-100,4,2,1,85,0,0
38830,-100,4,2,1,5,0,0
39018,-83.3333333333333,4,2,3,85,0,1
39205,-83.3333333333333,4,2,1,85,0,1
39299,-83.3333333333333,4,2,1,5,0,1
39393,-62.5,4,2,2,85,0,1
39580,-62.5,4,2,1,85,0,1
39674,-62.5,4,2,1,5,0,1
39768,-166.666666666667,4,2,1,85,0,1
40049,-166.666666666667,4,2,1,5,0,1
40143,-166.666666666667,4,2,1,85,0,1
40893,-166.666666666667,4,2,1,85,0,0
41080,-166.666666666667,4,2,1,85,0,0
41361,-166.666666666667,4,2,1,5,0,0
41455,-166.666666666667,4,2,1,85,0,0
41736,-166.666666666667,4,2,1,5,0,0
41830,-83.3333333333333,4,2,1,85,0,0
41924,-83.3333333333333,4,2,1,5,0,0
42018,-125,4,2,1,85,0,0
42299,-125,4,2,1,5,0,0
42393,-125,4,2,1,85,0,0
42627,-125,4,2,1,5,0,0
42674,-125,4,2,1,85,0,0
42861,-125,4,2,1,5,0,0
42955,-125,4,2,1,85,0,0
43049,-125,4,2,1,5,0,0
43143,-125,4,2,1,85,0,0
43236,-125,4,2,1,5,0,0
43330,-62.5,4,2,1,85,0,0
44080,-83.3333333333333,4,2,1,85,0,0
44361,-83.3333333333333,4,2,1,5,0,0
44455,-83.3333333333333,4,2,1,85,0,0
44736,-83.3333333333333,4,2,1,5,0,0
44830,-83.3333333333333,4,2,1,85,0,0
44924,-83.3333333333333,4,2,1,5,0,0
45018,-83.3333333333333,4,2,3,85,0,1
45205,-83.3333333333333,4,2,1,85,0,1
45299,-83.3333333333333,4,2,1,5,0,1
45393,-50,4,2,2,85,0,1
45580,-50,4,2,1,85,0,1
45674,-50,4,2,1,5,0,1
45768,-50,4,2,1,85,0,0
45955,-83.3333333333333,4,2,1,85,0,0
46611,-83.3333333333333,4,2,1,5,0,0
46658,-83.3333333333333,4,2,1,5,0,0
46705,-83.3333333333333,4,2,1,85,0,0
46799,-83.3333333333333,4,2,1,5,0,0
46893,-83.3333333333333,4,2,1,85,0,0
46986,-83.3333333333333,4,2,1,5,0,0
47080,-83.3333333333333,4,2,1,85,0,0
47268,-83.3333333333333,4,2,1,85,0,0
47455,-83.3333333333333,4,2,1,85,0,0
48017,-83.3333333333333,4,2,3,85,0,0
48018,-50,4,2,3,85,0,1
48205,-50,4,2,1,85,0,1
48299,-50,4,2,1,5,0,1
48393,-50,4,2,2,85,0,1
48580,-50,4,2,1,85,0,1
48674,-50,4,2,2,5,0,1
48768,-50,4,2,1,85,0,1
48861,-50,4,2,1,5,0,1
48955,-50,4,2,1,85,0,1
49049,-50,4,2,1,5,0,1
49143,-50,4,2,3,85,0,1
49330,-50,4,2,1,85,0,1
49424,-50,4,2,1,5,0,1
49518,-50,4,2,1,85,0,1
49799,-50,4,2,1,5,0,1
49893,-50,4,2,1,85,0,1
50268,-50,4,2,5,85,0,1
50361,-50,4,2,5,5,0,1
50455,-50,4,2,1,85,0,1
50643,-50,4,2,5,85,0,1
50736,-50,4,2,5,5,0,1
50830,-50,4,2,3,85,0,1
51205,-50,4,2,1,85,0,1
51299,-50,4,2,1,5,0,1
51393,-50,4,2,1,85,0,1
52236,-50,4,2,1,5,0,1
52330,-83.3333333333333,4,2,1,85,0,1
52424,-83.3333333333333,4,2,1,5,0,1
52518,-50,4,2,1,85,0,1
52986,-50,4,2,1,5,0,1
53080,-83.3333333333333,4,2,1,85,0,0
53361,-83.3333333333333,4,2,1,85,0,0
53736,-83.3333333333333,4,2,1,5,0,0
53830,-83.3333333333333,4,2,1,85,0,0
53924,-83.3333333333333,4,2,1,5,0,0
54018,-83.3333333333333,4,2,1,85,0,0
54299,-83.3333333333333,4,2,1,5,0,0
54393,-83.3333333333333,4,2,1,85,0,0
54861,-83.3333333333333,4,2,1,5,0,0
54955,-83.3333333333333,4,2,1,85,0,0
55049,-83.3333333333333,4,2,1,5,0,0
55143,-83.3333333333333,4,2,1,85,0,0
55236,-83.3333333333333,4,2,1,5,0,0
55330,-62.5,4,2,1,85,0,0
56080,-83.3333333333333,4,2,1,85,0,0
56361,-83.3333333333333,4,2,1,5,0,0
56455,-83.3333333333333,4,2,1,85,0,0
56736,-83.3333333333333,4,2,1,5,0,0
56830,-83.3333333333333,4,2,1,85,0,0
56924,-83.3333333333333,4,2,1,5,0,0
57018,-83.3333333333333,4,2,3,85,0,1
57205,-83.3333333333333,4,2,1,85,0,1
57299,-83.3333333333333,4,2,1,5,0,1
57393,-50,4,2,2,85,0,1
57580,-50,4,2,1,85,0,1
57674,-50,4,2,1,5,0,1
57768,-50,4,2,1,85,0,0
57861,-50,4,2,1,5,0,0
57955,-83.3333333333333,4,2,1,85,0,0
58424,-83.3333333333333,4,2,1,5,0,0
58518,-71.4285714285714,4,2,1,85,0,0
58611,-71.4285714285714,4,2,1,5,0,0
58705,-62.5,4,2,1,85,0,0
58799,-62.5,4,2,1,5,0,0
58893,-62.5,4,2,1,85,0,0
58986,-62.5,4,2,1,5,0,0
59080,-62.5,4,2,1,85,0,0
59268,-125,4,2,1,85,0,0
60018,-125,4,2,5,70,0,0
60205,-125,4,2,1,70,0,0
63299,-125,4,2,1,5,0,0
63393,-125,4,2,1,70,0,0
63674,-125,4,2,1,5,0,0
63768,-125,4,2,1,70,0,0
65643,-125,4,2,5,70,0,0
65830,-125,4,2,1,70,0,0
66018,-125,4,2,5,70,0,0
66205,-125,4,2,1,70,0,0
71174,-125,4,2,1,5,0,0
71268,-125,4,2,1,70,0,0
71643,-125,4,2,5,70,0,0
71830,-125,4,2,1,70,0,0
72018,-125,4,2,5,70,0,0
72205,-125,4,2,1,70,0,0
72299,-125,4,2,1,5,0,0
72393,-125,4,2,1,70,0,0
72674,-125,4,2,1,5,0,0
72768,-125,4,2,1,70,0,0
73236,-125,4,2,1,5,0,0
73330,-125,4,2,1,70,0,0
75018,-125,4,2,1,70,0,0
75861,-125,4,2,1,5,0,0
75955,-125,4,2,1,70,0,0
76049,-125,4,2,1,5,0,0
76143,-125,4,2,1,70,0,0
76236,-125,4,2,1,5,0,0
76330,-125,4,2,5,70,0,0
76518,-125,4,2,1,70,0,0
76611,-125,4,2,1,5,0,0
76705,-125,4,2,1,70,0,0
76799,-125,4,2,1,5,0,0
76893,-125,4,2,1,70,0,0
76986,-125,4,2,1,5,0,0
77080,-125,4,2,5,70,0,0
77268,-125,4,2,1,70,0,0
77643,-125,4,2,5,70,0,0
77830,-125,4,2,1,70,0,0
78018,-125,4,2,5,70,0,0
78205,-125,4,2,1,70,0,0
78299,-125,4,2,1,5,0,0
78393,-125,4,2,1,70,0,0
78674,-125,4,2,1,5,0,0
78768,-125,4,2,1,70,0,0
79236,-125,4,2,1,5,0,0
79330,-125,4,2,1,70,0,0
82330,-125,4,2,5,70,0,0
82518,-125,4,2,1,70,0,0
83080,-125,4,2,5,70,0,0
83268,-125,4,2,1,70,0,0
83643,-125,4,2,5,70,0,0
83830,-125,4,2,1,70,0,0
84018,-100,4,2,5,70,0,0
84205,-100,4,2,1,70,0,0
90768,-90.9090909090909,4,2,1,70,0,0
91518,-83.3333333333333,4,2,1,70,0,0
92268,-76.9230769230769,4,2,1,70,0,0
93018,-76.9230769230769,4,2,1,70,0,0
93768,-76.9230769230769,4,2,1,70,0,0
94518,-76.9230769230769,4,2,1,70,0,0
95174,-76.9230769230769,4,2,5,70,0,0
95221,-76.9230769230769,4,2,1,70,0,0
95736,-76.9230769230769,4,2,1,5,0,0
95830,-76.9230769230769,4,2,1,70,0,0
95924,-76.9230769230769,4,2,1,5,0,0
96018,-50,4,2,3,85,0,1
96205,-50,4,2,1,85,0,1
96299,-50,4,2,1,5,0,1
96393,-50,4,2,2,85,0,1
96580,-50,4,2,1,85,0,1
96674,-50,4,2,1,5,0,1
96768,-50,4,2,1,85,0,1
96861,-50,4,2,1,5,0,1
96955,-50,4,2,1,85,0,1
97049,-50,4,2,1,5,0,1
97143,-50,4,2,1,85,0,1
97611,-50,4,2,1,5,0,1
97705,-50,4,2,1,85,0,1
98174,-50,4,2,1,5,0,1
98268,-50,4,2,5,85,0,1
98361,-50,4,2,5,5,0,1
98455,-50,4,2,1,85,0,1
98643,-66.6666666666667,4,2,5,85,0,1
98736,-66.6666666666667,4,2,5,5,0,1
98830,-100,4,2,1,85,0,1
99018,-50,4,2,3,85,0,1
99205,-50,4,2,1,85,0,1
99299,-50,4,2,1,5,0,1
99393,-50,4,2,2,85,0,1
99580,-50,4,2,1,85,0,1
100893,-50,4,2,1,85,0,0
100986,-50,4,2,1,5,0,0
101080,-50,4,2,1,85,0,0
101643,-83.3333333333333,4,2,1,85,0,0
101736,-83.3333333333333,4,2,1,5,0,0
101830,-83.3333333333333,4,2,1,85,0,0
101924,-83.3333333333333,4,2,1,5,0,0
102018,-125,4,2,1,85,0,0
102299,-125,4,2,1,5,0,0
102393,-125,4,2,1,85,0,0
102627,-125,4,2,1,5,0,0
102674,-125,4,2,1,85,0,0
102861,-125,4,2,1,5,0,0
102955,-125,4,2,1,85,0,0
103049,-125,4,2,1,5,0,0
103143,-125,4,2,1,85,0,0
103236,-125,4,2,1,5,0,0
103330,-62.5,4,2,1,85,0,0
104080,-83.3333333333333,4,2,1,85,0,0
104361,-83.3333333333333,4,2,1,5,0,0
104455,-83.3333333333333,4,2,1,85,0,0
104736,-83.3333333333333,4,2,1,5,0,0
104830,-83.3333333333333,4,2,1,85,0,0
104924,-83.3333333333333,4,2,1,5,0,0
105018,-83.3333333333333,4,2,3,85,0,1
105205,-83.3333333333333,4,2,1,85,0,1
105299,-83.3333333333333,4,2,1,5,0,1
105393,-50,4,2,2,85,0,1
105580,-50,4,2,1,85,0,1
105674,-50,4,2,1,5,0,1
105768,-50,4,2,1,85,0,0
105861,-50,4,2,1,5,0,0
105955,-83.3333333333333,4,2,1,85,0,0
106424,-83.3333333333333,4,2,1,5,0,0
106518,-71.4285714285714,4,2,1,85,0,0
106611,-71.4285714285714,4,2,1,5,0,0
106705,-62.5,4,2,1,85,0,0
106799,-62.5,4,2,1,5,0,0
106893,-62.5,4,2,1,85,0,0
106986,-62.5,4,2,1,5,0,0
107080,-62.5,4,2,1,85,0,0
107455,-62.5,4,2,1,85,0,0
108018,-50,4,2,3,85,0,1
108205,-50,4,2,1,85,0,1
108299,-50,4,2,1,5,0,1
108393,-50,4,2,2,85,0,1
108486,-50,4,2,2,5,0,1
108580,-50,4,2,1,85,0,1
108674,-50,4,2,1,5,0,1
108768,-50,4,2,1,85,0,1
108861,-50,4,2,1,5,0,1
108955,-50,4,2,1,85,0,1
109236,-50,4,2,1,5,0,1
109283,-50,4,2,1,85,0,1
110268,-50,4,2,5,85,0,1
110361,-50,4,2,5,5,0,1
110455,-50,4,2,1,85,0,1
110643,-66.6666666666667,4,2,5,85,0,1
110736,-71.4285714285714,4,2,5,5,0,1
110830,-100,4,2,1,85,0,1
111018,-50,4,2,3,85,0,1
111205,-50,4,2,1,85,0,1
111299,-50,4,2,1,5,0,1
111393,-50,4,2,1,85,0,1
112611,-50,4,2,1,5,0,1
112705,-50,4,2,1,85,0,1
112799,-50,4,2,1,5,0,1
112893,-50,4,2,1,85,0,1
112986,-50,4,2,1,5,0,1
113080,-50,4,2,1,85,0,0
113643,-83.3333333333333,4,2,1,85,0,0
113736,-83.3333333333333,4,2,1,5,0,0
113830,-83.3333333333333,4,2,1,85,0,0
113924,-83.3333333333333,4,2,1,5,0,0
114018,-83.3333333333333,4,2,1,85,0,0
114299,-83.3333333333333,4,2,1,5,0,0
114393,-83.3333333333333,4,2,1,85,0,0
114861,-83.3333333333333,4,2,1,5,0,0
114955,-83.3333333333333,4,2,1,85,0,0
115049,-83.3333333333333,4,2,1,5,0,0
115143,-83.3333333333333,4,2,1,85,0,0
115236,-83.3333333333333,4,2,1,5,0,0
115330,-62.5,4,2,1,85,0,0
116080,-83.3333333333333,4,2,1,85,0,0
116361,-83.3333333333333,4,2,1,5,0,0
116455,-83.3333333333333,4,2,1,85,0,0
116736,-83.3333333333333,4,2,1,5,0,0
116830,-83.3333333333333,4,2,1,85,0,0
116924,-83.3333333333333,4,2,1,5,0,0
117018,-83.3333333333333,4,2,3,85,0,1
117205,-83.3333333333333,4,2,1,85,0,1
117299,-83.3333333333333,4,2,1,5,0,1
117393,-50,4,2,2,85,0,1
117580,-50,4,2,1,85,0,1
117674,-50,4,2,1,5,0,1
117768,-50,4,2,1,85,0,0
117861,-50,4,2,1,5,0,0
117955,-83.3333333333333,4,2,1,85,0,0
118424,-83.3333333333333,4,2,1,5,0,0
118518,-71.4285714285714,4,2,1,85,0,0
118611,-71.4285714285714,4,2,1,5,0,0
118705,-62.5,4,2,1,85,0,0
118799,-62.5,4,2,1,5,0,0
118893,-62.5,4,2,1,85,0,0
118986,-62.5,4,2,1,5,0,0
119080,-62.5,4,2,1,85,0,0
119268,-125,4,2,1,70,0,0
119830,-125,4,2,1,5,0,0
120018,-125,4,2,1,70,0,0
120580,-125,4,2,1,70,0,0
120768,-133.333333333333,4,2,1,70,0,0
123299,-133.333333333333,4,2,1,5,0,0
123393,-133.333333333333,4,2,1,70,0,0
123674,-133.333333333333,4,2,1,5,0,0
123768,-133.333333333333,4,2,1,70,0,0
126018,-133.333333333333,4,2,5,70,0,0
126205,-133.333333333333,4,2,1,70,0,0
128830,-100,4,2,1,70,0,0
129580,-90.9090909090909,4,2,1,70,0,0
130330,-83.3333333333333,4,2,1,70,0,0
131080,-71.4285714285714,4,2,1,70,0,0
131361,-71.4285714285714,4,2,1,5,0,0
131455,-50,4,2,1,70,0,0
131643,-50,4,2,1,5,0,0

[Colours]
Combo1 : 111,105,216
Combo2 : 215,192,170
Combo3 : 209,155,82
Combo4 : 164,165,221

[HitObjects]
135,100,18,6,0,B|64:137|97:228|178:239|216:178|225:141|225:141|234:105|266:88|295:83|330:95,1,360.000013732911,4|0,0:3|3:0,0:0:0:0:
330,99,580,5,2,0:0:0:0:
434,6,768,2,0,P|436:43|402:94,1,72.0000027465821,10|2,0:0|0:0,0:0:0:0:
385,186,1143,1,2,0:0:0:0:
471,133,1330,6,0,P|437:142|411:166,1,72,2|0,0:0|3:0,0:0:0:0:
410,166,1518,6,0,B|385:222|425:264|425:264|482:313|487:274|474:238|360:226|331:307|344:376,1,360.000013732911,4|0,0:3|3:0,0:0:0:0:
364,373,2080,5,2,0:0:0:0:
251,311,2268,2,0,L|260:358,1,36.0000013732911,8|0,0:0|0:0,0:0:0:0:
158,372,2455,2,0,L|167:325,1,36.0000013732911,2|0,0:0|0:0,0:0:0:0:
112,263,2643,5,2,0:0:0:0:
77,254,2736,1,0,0:0:0:0:
112,246,2830,5,2,0:0:0:0:
77,237,2923,1,0,0:0:0:0:
112,227,3018,6,0,B|131:178|93:112|57:111|57:111|82:146|175:146|233:107|254:48,1,360.000013732911,4|0,0:3|3:0,0:0:0:0:
246,47,3580,5,2,0:0:0:0:
55,8,3768,1,10,0:0:0:0:
157,47,3955,1,2,0:0:0:0:
57,111,4143,1,2,0:0:0:0:
264,121,4330,6,0,P|299:103|321:57,1,72,2|0,0:0|3:0,0:0:0:0:
316,76,4518,6,0,B|301:152|236:186|205:157|205:157|274:167|274:289,1,288.000010986328,4|2,0:3|0:0,0:0:0:0:
338,363,5080,2,0,B|355:288|333:195|333:195|355:288|408:317,1,288.000010986328,4|2,0:3|0:0,0:0:0:0:
503,313,5643,6,0,P|409:304|338:364,1,192,4|0,0:3|0:0,0:0:0:0:
503,313,6018,6,0,B|389:254|323:325|339:364|339:364|370:326|310:259|250:254,1,360.000013732911,6|0,0:3|3:0,0:0:0:0:
249,255,6580,5,2,0:0:0:0:
102,375,6768,2,0,P|97:326|111:289,1,72.0000027465821,10|2,0:0|0:0,0:0:0:0:
161,178,7143,1,2,0:0:0:0:
12,207,7330,6,0,P|47:230|80:231,1,72,2|0,0:0|3:0,0:0:0:0:
77,232,7518,6,0,B|122:221|159:181|159:135|152:89|112:74|112:74|106:118|197:146|292:109,1,360.000013732911,4|0,0:3|3:0,0:0:0:0:
263,119,8080,5,2,0:0:0:0:
385,48,8268,2,0,L|326:38,1,36.0000013732911,8|0,0:0|3:0,0:0:0:0:
422,142,8455,2,0,L|481:132,1,36.0000013732911,2|0,0:0|0:0,0:0:0:0:
307,192,8643,5,2,0:0:0:0:
342,201,8736,1,0,0:0:0:0:
307,209,8830,5,2,0:0:0:0:
342,218,8924,1,0,0:0:0:0:
307,228,9018,6,0,B|405:199|412:306|472:287|472:287|452:260|410:275|370:287|388:344|284:358,1,360.000013732911,4|0,0:3|3:0,0:0:0:0:
306,352,9580,5,2,0:0:0:0:
136,261,9768,1,10,0:0:0:0:
209,355,9955,1,2,0:0:0:0:
216,211,10143,1,2,0:0:0:0:
39,363,10330,6,0,P|34:323|47:282,1,72,2|0,0:0|3:0,0:0:0:0:
41,292,10518,6,0,B|98:160,1,144.000005493164,4|0,0:3|0:0,0:0:0:0:
50,78,10893,1,2,0:0:0:0:
216,211,11080,2,0,B|272:78,1,144.000005493164,6|8,0:3|0:0,0:0:0:0:
218,0,11455,1,2,0:0:0:0:
202,244,11643,6,0,P|263:172|272:78,1,192,6|2,0:3|0:0,0:0:0:0:
362,26,12018,6,0,P|386:91|456:130,1,144,6|0,0:3|3:0,0:0:0:0:
512,107,12393,2,0,P|443:118|374:77,1,144,2|0,0:0|3:0,0:0:0:0:
457,28,12768,1,10,0:0:0:0:
361,165,12955,2,0,P|350:216|381:286,1,96,2|2,0:0|0:0,0:0:0:0:
482,346,13330,6,0,P|488:319|488:286,1,48,6|0,0:3|3:0,0:0:0:0:
310,377,13518,2,0,P|304:350|304:317,1,48,0|0,0:0|3:0,0:0:0:0:
496,262,13705,2,0,P|498:285|497:309,1,48,2|0,0:0|3:0,0:0:0:0:
296,293,13893,2,0,P|293:316|294:340,1,48,6|0,0:3|3:0,0:0:0:0:
389,320,14080,5,2,0:0:0:0:
187,333,14268,2,0,L|193:394,1,48,8|0,0:0|3:0,0:0:0:0:
203,321,14455,5,6,1:3:0:0:
171,309,14549,1,0,1:0:0:0:
164,296,14643,5,6,1:3:0:0:
132,284,14737,1,0,1:0:0:0:
125,271,14830,5,6,1:3:0:0:
93,259,14924,1,0,1:0:0:0:
86,246,15018,6,0,P|74:177|115:108,1,144,6|0,0:3|3:0,0:0:0:0:
175,100,15393,2,0,P|109:124|70:194,1,144,2|0,0:0|3:0,0:0:0:0:
167,196,15768,6,0,L|190:191,1,19.2,10|0,0:0|3:0,0:0:0:0:
264,116,15955,2,0,L|287:121,1,19.2,2|0,0:0|3:0,0:0:0:0:
314,223,16143,1,2,0:0:0:0:
412,35,16330,6,0,P|374:38|373:108,1,96,14|0,0:3|0:0,0:0:0:0:
496,12,16705,6,0,L|494:46,1,19.2,2|0,0:0|3:0,0:0:0:0:
431,109,16893,1,2,0:0:0:0:
512,130,17080,1,14,0:3:0:0:
386,186,17268,1,0,0:0:0:0:
512,219,17455,5,2,0:0:0:0:
478,224,17549,1,0,0:0:0:0:
463,226,17643,5,14,0:3:0:0:
450,258,17737,1,0,0:0:0:0:
444,271,17830,5,0,0:0:0:0:
465,299,17924,1,0,0:0:0:0:
473,309,18018,6,0,P|402:308|340:366,1,144,14|0,0:3|3:0,0:0:0:0:
259,359,18393,2,0,P|330:360|392:302,1,144,2|0,0:0|3:0,0:0:0:0:
301,272,18768,1,10,0:0:0:0:
174,332,18955,2,0,P|121:295|110:258,1,96,2|0,0:0|0:0,0:0:0:0:
41,111,19330,6,0,P|60:133|70:175,1,48,2|0,0:0|3:0,0:0:0:0:
208,95,19518,2,0,P|189:117|179:159,1,48,4|0,0:3|3:0,0:0:0:0:
63,190,19705,2,0,P|63:166|55:143,1,48,2|0,0:0|3:0,0:0:0:0:
186,174,19893,2,0,P|185:150|193:127,1,48,2|0,0:0|3:0,0:0:0:0:
118,53,20080,5,2,0:0:0:0:
287,87,20268,2,0,L|293:26,1,48,8|0,1:2|3:0,0:0:0:0:
303,99,20455,5,6,1:3:0:0:
271,111,20549,1,0,1:0:0:0:
264,124,20643,5,6,1:3:0:0:
232,136,20736,1,0,1:0:0:0:
225,149,20830,5,6,1:3:0:0:
193,161,20924,1,0,1:0:0:0:
186,174,21018,6,0,P|174:243|215:312,1,144,6|0,0:3|3:0,0:0:0:0:
276,320,21393,2,0,P|210:296|171:226,1,144,2|0,0:0|3:0,0:0:0:0:
267,224,21768,6,0,L|290:229,1,19.2,10|0,0:0|3:0,0:0:0:0:
365,303,21955,2,0,L|388:298,1,19.2,2|0,0:0|3:0,0:0:0:0:
464,209,22143,1,2,0:0:0:0:
335,115,22330,6,0,P|390:121|427:144,1,96,14|0,0:3|0:0,0:0:0:0:
403,6,22705,6,0,L|424:31,1,19.2,2|0,0:0|3:0,0:0:0:0:
335,115,22893,1,10,0:0:0:0:
288,28,23080,1,14,0:3:0:0:
240,187,23268,1,0,0:0:0:0:
169,56,23455,5,10,0:0:0:0:
152,85,23549,1,0,0:0:0:0:
138,91,23643,5,14,0:3:0:0:
138,124,23736,1,0,0:0:0:0:
129,136,23830,5,2,0:0:0:0:
146,165,23924,1,0,0:0:0:0:
143,179,24018,5,14,1:3:0:0:
240,187,24205,1,0,1:0:0:0:
252,161,24299,1,0,1:0:0:0:
280,164,24393,1,8,1:0:0:0:
280,164,24580,1,0,0:0:0:0:
387,180,24768,5,10,1:0:0:0:
286,191,24955,1,2,1:0:0:0:
262,205,25049,1,0,1:0:0:0:
240,187,25143,1,10,1:0:0:0:
240,187,25330,1,2,0:0:0:0:
184,304,25518,5,10,1:0:0:0:
281,312,25705,1,0,1:0:0:0:
293,286,25799,1,0,1:0:0:0:
321,289,25893,1,8,1:0:0:0:
321,289,26080,1,2,0:0:0:0:
428,305,26268,5,10,1:0:0:0:
327,316,26455,1,2,1:0:0:0:
303,330,26549,1,0,1:0:0:0:
281,312,26643,1,10,1:0:0:0:
281,312,26830,1,2,0:0:0:0:
367,202,27018,6,0,L|462:191,1,96,14|0,1:3|1:0,0:0:0:0:
390,184,27299,1,0,1:0:0:0:
363,173,27393,1,8,1:0:0:0:
363,173,27580,1,0,0:0:0:0:
286,95,27768,6,0,L|191:84,1,96,10|2,1:0|1:0,0:0:0:0:
263,77,28049,1,0,1:0:0:0:
290,66,28143,1,10,1:0:0:0:
290,66,28330,1,2,0:0:0:0:
154,162,28518,6,0,L|165:257,1,96,10|0,1:0|1:0,0:0:0:0:
172,185,28799,1,0,1:0:0:0:
183,158,28893,1,8,1:0:0:0:
183,158,29080,1,2,0:0:0:0:
36,350,29268,6,0,L|47:255,1,96,10|2,1:0|1:0,0:0:0:0:
54,327,29549,1,0,1:0:0:0:
65,354,29643,1,10,1:0:0:0:
65,354,29830,1,2,0:0:0:0:
177,266,30018,6,0,P|186:320|277:367,1,144,14|2,0:3|1:0,0:0:0:0:
311,300,30393,2,0,P|293:256|253:231,1,96,14|2,1:3|0:0,0:0:0:0:
311,300,30768,6,0,P|367:321|461:260,1,158.400004833985,14|2,0:3|1:0,0:0:0:0:
415,191,31143,2,0,P|363:183|318:208,1,105.600003222656,14|2,1:3|0:0,0:0:0:0:
415,191,31518,6,0,P|465:149|459:27,1,172.799994726563,14|2,0:3|1:0,0:0:0:0:
368,33,31893,2,0,P|332:77|331:133,1,115.199996484375,14|2,1:3|0:0,0:0:0:0:
433,265,32268,6,0,P|421:194|303:133,1,187.199991430664,14|2,0:3|1:0,0:0:0:0:
260,223,32643,2,0,P|282:280|334:311,1,124.79999428711,10|2,1:3|0:0,0:0:0:0:
260,223,33018,5,10,0:0:0:0:
247,221,33111,1,0,0:0:0:0:
234,219,33205,1,0,0:0:0:0:
221,217,33299,1,0,1:0:0:0:
208,215,33393,1,10,1:0:0:0:
195,213,33486,1,0,0:0:0:0:
182,211,33580,1,2,0:0:0:0:
169,209,33674,1,0,0:0:0:0:
139,219,33768,5,10,0:0:0:0:
147,189,33861,1,0,0:0:0:0:
142,158,33955,1,2,1:0:0:0:
126,132,34049,1,0,1:0:0:0:
101,114,34143,1,8,1:0:0:0:
71,107,34236,1,0,0:0:0:0:
40,113,34330,1,2,0:0:0:0:
15,131,34424,1,0,0:0:0:0:
71,185,34518,5,6,0:3:0:0:
71,185,35174,6,0,L|110:203,1,31.1999985717774,0|0,1:2|1:0,0:0:0:0:
71,185,35268,1,4,1:3:0:0:
131,177,35361,1,0,1:0:0:0:
183,210,35455,1,0,1:0:0:0:
201,268,35549,1,0,1:0:0:0:
178,325,35643,6,0,L|175:248,1,62.3999971435548,6|0,1:0|3:0,0:0:0:0:
284,165,35830,2,0,L|280:242,1,62.3999971435548,0|0,0:0|3:0,0:0:0:0:
359,325,36018,6,0,B|382:338|382:338|476:309|476:309|495:269,1,153.6,4|0,0:3|3:0,0:0:0:0:
474,207,36299,1,0,0:0:0:0:
405,170,36393,2,0,B|388:205|388:205|408:262,1,76.8,0|0,0:0|3:0,0:0:0:0:
486,107,36580,6,0,L|494:33,1,57.5999982421876,6|0,0:3|3:0,0:0:0:0:
397,126,36768,1,2,0:0:0:0:
401,148,36955,1,2,0:0:0:0:
405,170,37143,6,0,B|341:158|341:158|324:160|324:160|257:146,1,143.999995605469,6|0,0:3|3:0,0:0:0:0:
250,135,37705,5,2,0:0:0:0:
244,106,37799,1,2,0:0:0:0:
230,131,37893,1,2,0:0:0:0:
174,180,37986,5,2,0:0:0:0:
160,205,38080,1,2,0:0:0:0:
154,176,38174,1,2,0:0:0:0:
117,110,38268,6,0,B|112:81|112:81|94:112,1,57.5999982421876,10|0,0:0|0:0,0:0:0:0:
28,266,38643,2,0,B|55:384|55:384|96:340,1,144,10|0,0:3|3:0,0:0:0:0:
154,328,39018,6,0,B|179:341|179:341|203:325|203:325|227:341|227:341|251:325|251:325|275:341|275:341|307:325,1,172.799994726563,6|0,0:3|3:0,0:0:0:0:
483,254,39393,6,0,B|435:254|435:254|403:238|403:238|371:286|371:286|339:254|339:254|259:254,1,230.4,2|0,0:0|3:0,0:0:0:0:
425,164,39768,6,0,L|511:164,1,86.3999973632813,0|0,0:0|3:0,0:0:0:0:
406,89,40142,5,4,1:3:0:0:
351,143,40236,1,0,1:0:0:0:
348,165,40330,1,0,1:0:0:0:
351,187,40424,1,0,1:0:0:0:
499,185,40611,5,0,1:0:0:0:
502,163,40705,1,0,1:0:0:0:
499,141,40799,1,0,1:0:0:0:
425,164,40893,1,4,1:2:0:0:
268,64,41080,5,6,0:3:0:0:
406,89,41268,1,2,0:0:0:0:
204,111,41455,1,6,0:3:0:0:
192,84,41549,1,4,0:3:0:0:
190,55,41643,1,6,1:3:0:0:
260,178,41830,2,0,P|268:210|259:247,1,57.5999982421876,2|0,0:0|3:0,0:0:0:0:
90,297,42018,6,0,B|40:282|40:282|81:224,1,115.2,6|0,0:3|3:0,0:0:0:0:
164,277,42393,2,0,B|214:292|214:292|178:342,1,96,6|0,0:3|3:0,0:0:0:0:
188,327,42674,2,0,L|168:355,2,19.2,0|0|10,1:0|1:0|1:0,0:0:0:0:
144,195,42955,1,2,0:0:0:0:
306,247,43143,1,2,0:0:0:0:
158,84,43330,6,0,B|110:80|86:113|84:157|110:174|123:195|159:205|222:199|218:153|242:57|233:63|54:54|75:85|107:150|107:170|136:190|171:168|191:142|186:108|137:113|136:129|145:141|151:145,1,307.2,6|2,0:3|0:0,0:0:0:0:
46,36,43893,1,2,0:0:0:0:
228,206,44080,2,0,P|255:141|244:86,1,115.199996484375,6|0,0:3|0:0,0:0:0:0:
249,98,44455,1,4,0:3:0:0:
285,125,44549,1,4,0:3:0:0:
330,134,44643,1,10,0:0:0:0:
320,46,44830,1,2,0:0:0:0:
310,235,45018,6,0,L|526:177,1,172.799994726563,6|0,0:3|3:0,0:0:0:0:
310,235,45393,6,0,B|322:281|322:281|361:315|413:285|413:285|480:282|487:227|487:227|476:188,1,288,2|0,0:0|3:0,0:0:0:0:
436,360,45768,5,6,0:3:0:0:
239,337,45955,2,0,B|147:310|147:310|153:341,1,115.199996484375,6|0,0:3|0:0,0:0:0:0:
151,329,46330,2,0,B|158:268|146:226|88:212|64:241|60:263|59:287|77:306|89:310,1,201.599993847656,6|0,0:3|3:0,0:0:0:0:
73,309,46705,2,0,P|62:287|73:242,1,57.5999982421876,6|0,0:3|3:0,0:0:0:0:
192,187,46893,1,6,0:3:0:0:
116,49,47080,1,6,0:3:0:0:
58,41,47174,1,4,0:3:0:0:
0,33,47268,1,14,0:2:0:0:
28,150,47455,5,0,0:0:0:0:
34,165,47549,1,0,0:0:0:0:
105,159,47643,1,0,0:0:0:0:
111,174,47737,1,0,0:0:0:0:
182,168,47830,1,0,0:0:0:0:
188,183,47924,1,0,0:0:0:0:
274,228,48018,6,0,B|275:221|275:221|279:226|279:226|288:225|288:225|293:230|293:230|294:224|294:224|303:222|303:222|305:216|305:216|309:221|309:221|318:220|318:220|322:225|322:225|324:219|324:219|333:217|333:217|335:210|335:210|339:216|339:216|348:214|348:214|352:220|352:220|354:213|354:213|363:212|363:212|365:205|365:205|369:211|369:211|378:209|378:209|382:214|382:214|384:208|384:208|393:206|393:206|395:200|395:200|399:205|399:205|407:204|407:204|412:209|412:209|414:203|414:203|423:201|423:201|425:195|425:195|429:200|429:200|438:198|438:198|442:204|442:204|444:197|444:197|453:196|453:196|455:189|455:189|459:195|459:195|489:189,1,288,6|0,0:3|3:0,0:0:0:0:
307,301,48393,2,0,B|296:337|296:337|318:368|318:368|386:356|386:356|453:344|453:344|464:307|464:307|441:277,1,288,6|0,0:3|3:0,0:0:0:0:
325,45,48768,2,0,B|318:92|318:92|340:133,1,96,4|0,0:3|3:0,0:0:0:0:
429,118,48955,2,0,B|435:70|435:70|413:29,1,96,0|0,0:0|3:0,0:0:0:0:
198,148,49143,2,0,B|189:156|183:164|183:164|185:170|185:170|177:164|177:164|179:170|179:170|173:181|170:190|170:190|173:195|173:195|163:192|163:192|166:198|166:198|163:210|162:219|162:219|167:223|167:223|157:223|157:223|162:227|162:227|161:240|163:249|163:249|170:252|170:252|159:254|159:254|165:257|165:257|167:269|172:278|172:278|179:279|179:279|170:283|170:283|176:285|176:285|182:296|188:303|188:303|194:303|194:303|187:309|187:309|193:309|193:309|201:316|208:321,1,288,6|0,0:3|3:0,0:0:0:0:
274,228,49518,5,4,1:3:0:0:
349,214,49611,1,0,1:0:0:0:
424,200,49705,1,0,1:0:0:0:
198,148,49893,5,4,1:3:0:0:
123,134,49986,1,0,1:0:0:0:
48,120,50080,1,0,1:0:0:0:
123,106,50174,1,0,1:0:0:0:
198,92,50268,2,0,B|348:119|348:119|256:136,1,192,12|4,1:3|0:3,0:0:0:0:
64,252,50643,2,0,B|47:186|47:186|74:192,1,96,12|0,0:3|3:0,0:0:0:0:
18,341,50830,1,4,0:3:0:0:
28,327,51018,6,0,B|33:319|39:314|39:314|38:309|38:309|44:314|44:314|44:310|44:310|50:303|57:299|57:299|57:293|57:293|61:301|61:301|62:295|62:295|70:290|77:288|77:288|78:282|78:282|82:290|82:290|83:285|83:285|91:281|99:280|99:280|101:275|101:275|103:283|103:283|105:278|105:278|115:276|122:276|122:276|125:272|125:272|125:280|125:280|128:276|128:276|138:276|145:276|145:276|149:272|149:272|148:281|148:281|152:277|152:277|161:279|168:281|168:281|173:278|173:278|170:285|170:285|174:283|174:283|183:286|190:289|190:289|195:287|195:287|191:294|191:294|195:293|195:293|203:297|210:301|210:301|215:301|215:301|210:306|210:306|215:306|215:306|224:314|231:321,1,288,6|0,0:3|3:0,0:0:0:0:
261,340,51393,5,0,1:0:0:0:
332,361,51486,1,0,1:0:0:0:
396,322,51580,1,0,1:0:0:0:
410,249,51674,1,0,1:0:0:0:
366,189,51768,5,8,1:2:0:0:
438,171,51861,1,0,1:0:0:0:
474,106,51955,1,0,1:0:0:0:
450,35,52049,1,0,1:0:0:0:
381,6,52143,6,0,L|259:25,1,96,4|0,1:3|3:0,0:0:0:0:
383,98,52330,6,0,L|285:113,1,57.5999982421876,0|0,1:0|3:0,0:0:0:0:
249,92,52518,5,0,1:0:0:0:
191,140,52611,1,0,1:0:0:0:
116,141,52705,1,0,1:0:0:0:
56,95,52799,1,0,1:0:0:0:
40,21,52893,6,0,L|26:196,1,96,12|0,1:2|3:0,0:0:0:0:
17,308,53080,5,6,0:3:0:0:
126,282,53268,1,2,0:0:0:0:
212,332,53455,1,0,0:0:0:0:
309,232,53643,2,0,L|296:359,1,115.199996484375,2|2,0:0|0:0,0:0:0:0:
445,351,54018,6,0,P|404:300|431:182,1,172.799994726563,6|0,0:3|3:0,0:0:0:0:
448,191,54393,2,0,P|411:234|401:290,1,115.199996484375,6|0,0:3|0:0,0:0:0:0:
482,271,54674,2,0,L|503:244,2,28.7999991210938,0|0|10,1:0|1:0|1:0,0:0:0:0:
357,156,54955,1,2,0:0:0:0:
498,118,55143,1,2,0:0:0:0:
279,129,55330,6,0,B|231:133|207:100|205:56|231:39|244:18|280:8|343:14|339:60|363:156|354:150|175:159|196:128|228:63|228:43|257:23|292:45|312:71|307:105|258:100|257:84|266:72|272:68,1,307.2,6|2,0:3|0:0,0:0:0:0:
147,130,55893,1,2,0:0:0:0:
295,211,56080,2,0,P|306:260|281:342,1,115.199996484375,6|0,0:3|0:0,0:0:0:0:
292,322,56455,1,4,0:3:0:0:
255,295,56549,1,4,0:3:0:0:
210,286,56643,1,10,0:0:0:0:
220,374,56830,1,2,0:0:0:0:
34,233,57018,6,0,L|204:202,1,172.799994726563,6|0,0:3|3:0,0:0:0:0:
34,233,57393,6,0,B|34:171|34:171|103:128|103:128|186:145|186:145|205:204,1,288,10|0,0:0|3:0,0:0:0:0:
124,251,57768,5,6,0:3:0:0:
249,92,57955,2,0,B|287:208,1,115.199996484375,6|0,0:3|0:0,0:0:0:0:
284,201,58330,6,0,P|317:203|350:180,1,57.5999982421876,6|0,0:3|3:0,0:0:0:0:
402,242,58518,2,0,P|417:209|416:169,1,67.1999979492188,0|0,0:0|3:0,0:0:0:0:
505,193,58705,2,0,P|499:145|466:87,1,76.8,2|0,0:0|3:0,0:0:0:0:
395,58,58893,1,2,0:0:0:0:
496,307,59080,1,6,0:3:0:0:
500,250,59174,1,4,0:3:0:0:
449,272,59268,6,0,B|326:312|367:169|305:292|244:169|285:312|162:272,1,307.2,14|4,0:2|0:3,0:0:0:0:
175,224,66018,6,0,P|162:164|84:73,1,153.6,14|0,0:3|0:0,0:0:0:0:
108,90,66580,1,2,0:0:0:0:
55,215,66768,2,0,P|39:260|41:311,2,76.8,10|2|2,0:0|0:0|0:0,0:0:0:0:
141,316,67330,6,0,B|232:345|202:239|248:330|294:239|263:345|355:316,1,230.4,6|0,0:3|0:0,0:0:0:0:
403,245,68080,1,2,0:0:0:0:
331,177,68268,2,0,L|260:163,1,38.4,8|0,0:0|0:0,0:0:0:0:
336,166,68455,5,2,1:2:0:0:
362,159,68549,1,0,1:0:0:0:
367,148,68643,5,2,1:2:0:0:
393,141,68737,1,0,1:0:0:0:
398,130,68830,6,0,P|445:121|412:42,1,153.6,6|0,0:0|0:0,0:0:0:0:
346,70,69393,1,2,0:0:0:0:
294,10,69580,6,0,P|247:19|280:98,1,153.6,6|2,0:0|0:0,0:0:0:0:
346,70,70143,1,2,0:0:0:0:
373,143,70330,6,0,P|317:182|286:122,1,153.6,6|10,0:0|0:0,0:0:0:0:
286,121,70893,1,2,0:0:0:0:
204,148,71080,2,0,P|204:171|225:205,1,38.4,6|0,0:0|3:0,0:0:0:0:
135,261,71268,2,0,L|146:195,1,38.4,8|0,0:0|0:0,0:0:0:0:
56,253,71455,2,0,L|67:187,1,38.4,10|0,0:0|0:0,0:0:0:0:
140,271,71643,5,14,1:3:0:0:
166,270,71736,1,0,1:0:0:0:
173,278,71830,5,2,1:2:0:0:
199,277,71923,1,0,1:0:0:0:
206,285,72018,6,0,P|257:291|325:240,1,115.2,14|0,0:3|0:0,0:0:0:0:
390,258,72393,2,0,P|339:252|271:303,1,115.2,2|0,0:0|3:0,0:0:0:0:
352,337,72768,1,10,0:0:0:0:
206,353,72955,2,0,B|158:342|148:305|148:305|133:241,1,115.2,2|0,0:0|3:0,0:0:0:0:
101,205,73330,6,0,B|82:179|91:149|118:144|118:144|146:139|165:165|156:195,1,153.6,6|2,0:3|0:0,0:0:0:0:
247,228,73893,1,6,0:3:0:0:
371,130,74080,2,0,B|389:104|380:74|353:69|353:69|325:64|306:90|315:120,1,153.6,2|6,0:0|0:3,0:0:0:0:
322,146,74549,1,0,1:0:0:0:
318,156,74643,5,6,1:3:0:0:
324,181,74737,1,0,1:0:0:0:
320,191,74830,5,6,1:3:0:0:
326,216,74924,1,0,1:0:0:0:
322,226,75018,6,0,P|366:234|401:266,1,76.8,6|0,0:3|0:0,0:0:0:0:
190,226,75393,2,0,P|146:234|111:266,1,76.8,2|2,0:0|0:0,0:0:0:0:
221,149,75768,2,0,L|238:102,1,38.4,10|0,0:0|3:0,0:0:0:0:
146,144,75955,2,0,L|137:94,1,38.4,2|0,0:0|3:0,0:0:0:0:
65,190,76143,2,0,L|32:151,1,38.4,2|0,0:0|3:0,0:0:0:0:
181,302,76330,6,0,P|95:327|42:258,1,153.6,14|2,0:3|0:0,0:0:0:0:
65,190,76893,1,2,0:0:0:0:
189,77,77080,2,0,B|217:39|179:10|179:10|133:24|147:69,1,153.6,14|2,0:3|0:0,0:0:0:0:
172,80,77549,1,0,1:2:0:0:
177,90,77643,5,14,1:3:0:0:
202,101,77737,1,0,1:0:0:0:
207,111,77830,5,0,1:0:0:0:
232,122,77924,1,0,1:0:0:0:
237,132,78018,6,0,L|365:118,1,115.2,14|0,0:3|3:0,0:0:0:0:
432,136,78393,2,0,L|304:122,1,115.2,2|0,0:0|3:0,0:0:0:0:
318,206,78768,1,10,0:0:0:0:
418,283,78955,2,0,B|466:272|476:235|476:235|491:171,1,115.2,2|0,0:0|3:0,0:0:0:0:
473,293,79330,6,0,B|481:323|463:348|435:343|435:343|407:338|399:308|417:283,1,153.6,6|2,0:3|0:0,0:0:0:0:
318,343,79893,1,2,0:0:0:0:
227,252,80080,2,0,B|235:221|217:196|189:201|189:201|161:206|153:236|171:261,1,153.6,2|6,0:0|1:3,0:0:0:0:
145,268,80549,1,0,1:0:0:0:
138,277,80643,5,6,1:3:0:0:
111,283,80737,1,0,1:0:0:0:
104,292,80830,6,0,B|114:345|163:338|163:338|260:322,1,153.6,6|0,1:3|0:0,0:0:0:0:
312,230,81393,1,2,0:0:0:0:
453,192,81580,6,0,B|470:141|424:122|424:122|332:88,1,153.6,2|2,0:0|0:0,0:0:0:0:
270,12,82143,1,2,0:0:0:0:
95,60,82330,6,0,B|72:96|100:147|100:147|130:194|111:232,1,153.6,14|2,0:3|0:0,0:0:0:0:
31,273,82893,1,10,0:0:0:0:
181,346,83080,6,0,B|158:310|186:259|186:259|216:212|197:174,1,153.6,14|10,0:3|0:0,0:0:0:0:
230,208,83549,1,0,1:0:0:0:
237,217,83643,5,14,0:3:0:0:
263,224,83737,1,0,0:0:0:0:
270,233,83830,5,2,0:2:0:0:
296,240,83924,1,0,0:0:0:0:
303,249,84018,5,14,1:3:0:0:
411,322,84205,1,0,1:0:0:0:
439,322,84299,1,0,1:0:0:0:
454,297,84392,1,8,1:0:0:0:
454,297,84580,1,0,0:0:0:0:
295,355,84768,5,10,1:0:0:0:
439,272,84955,1,2,1:0:0:0:
411,272,85049,1,0,1:0:0:0:
396,297,85143,1,10,1:0:0:0:
396,297,85330,1,2,0:0:0:0:
360,186,85518,5,10,1:0:0:0:
468,113,85705,1,0,1:0:0:0:
496,113,85799,1,0,1:0:0:0:
511,138,85892,1,8,1:0:0:0:
511,138,86080,1,0,0:0:0:0:
352,80,86268,5,10,1:0:0:0:
496,163,86455,1,2,1:0:0:0:
468,163,86549,1,0,1:0:0:0:
453,138,86643,1,10,1:0:0:0:
453,138,86830,1,2,0:0:0:0:
288,30,87018,6,0,P|273:94|298:147,1,96,14|0,1:3|1:0,0:0:0:0:
264,46,87300,1,0,1:0:0:0:
262,17,87393,1,8,1:0:0:0:
262,17,87580,1,0,0:0:0:0:
161,156,87768,6,0,P|176:92|151:39,1,96,10|2,1:0|1:0,0:0:0:0:
185,140,88050,1,0,1:0:0:0:
187,169,88143,1,10,1:0:0:0:
187,169,88330,1,2,0:0:0:0:
135,236,88518,6,0,P|199:251|252:226,1,96,10|0,1:0|1:0,0:0:0:0:
151,260,88800,1,0,1:0:0:0:
122,262,88893,1,8,1:0:0:0:
122,262,89080,1,2,0:0:0:0:
237,353,89268,6,0,P|301:338|354:363,1,96,10|2,1:0|1:0,0:0:0:0:
253,329,89550,1,0,1:0:0:0:
224,327,89643,1,10,1:0:0:0:
224,327,89830,1,2,0:0:0:0:
395,303,90018,6,0,B|454:263|454:263|459:192,1,144,14|2,0:3|1:0,0:0:0:0:
379,171,90393,2,0,B|338:197|338:197|336:245,1,96,14|2,1:3|0:0,0:0:0:0:
379,171,90768,6,0,B|374:92|374:92|308:49,1,158.400004833985,14|2,0:3|1:0,0:0:0:0:
243,112,91143,2,0,B|246:164|246:164|290:193,1,105.600003222656,14|2,1:3|0:0,0:0:0:0:
243,112,91518,6,0,B|165:73|165:73|88:111,1,172.799994726563,14|2,0:3|1:0,0:0:0:0:
110,208,91893,2,0,B|161:233|161:233|213:208,1,115.199996484375,14|2,1:3|0:0,0:0:0:0:
110,208,92268,6,0,B|31:259|31:259|26:352,1,187.199991430664,14|2,0:3|1:0,0:0:0:0:
127,384,92643,2,0,B|179:349|179:349|183:286,1,124.79999428711,10|2,1:3|0:0,0:0:0:0:
157,91,93018,5,10,0:0:0:0:
144,89,93111,1,0,0:0:0:0:
131,87,93205,1,0,0:0:0:0:
118,85,93299,1,0,1:0:0:0:
105,83,93393,1,10,1:0:0:0:
92,81,93486,1,0,0:0:0:0:
79,79,93580,1,2,0:0:0:0:
66,78,93674,1,0,0:0:0:0:
38,62,93768,5,10,0:0:0:0:
30,92,93861,1,0,0:0:0:0:
35,123,93955,1,2,1:0:0:0:
51,149,94049,1,0,1:0:0:0:
76,167,94143,1,8,1:0:0:0:
106,174,94236,1,0,0:0:0:0:
137,168,94330,1,2,0:0:0:0:
162,150,94424,1,0,0:0:0:0:
106,96,94518,5,6,0:3:0:0:
106,96,95174,6,0,L|148:99,1,31.1999985717774,0|0,1:2|1:0,0:0:0:0:
106,96,95268,1,4,1:3:0:0:
153,132,95361,1,0,1:0:0:0:
215,130,95455,1,0,1:0:0:0:
260,89,95549,1,0,1:0:0:0:
268,28,95643,6,0,L|278:119,1,62.3999971435548,6|0,1:0|3:0,0:0:0:0:
322,223,95830,2,0,L|312:314,1,62.3999971435548,0|0,0:0|3:0,0:0:0:0:
512,111,96018,6,0,B|508:104|508:104|506:110|506:110|497:112|497:112|494:119|494:119|491:114|491:114|482:115|482:115|478:110|478:110|476:116|476:116|467:118|467:118|465:124|465:124|461:119|461:119|452:120|452:120|448:114|448:114|446:121|446:121|437:123|437:123|435:130|435:130|431:124|431:124|422:126|422:126|418:120|418:120|416:127|416:127|407:128|407:128|405:134|405:134|401:129|401:129|392:131|392:131|388:126|388:126|386:132|386:132|378:133|378:133|375:140|375:140|371:135|371:135|362:136|362:136|358:131|358:131|356:137|356:137|347:138|347:138|345:145|345:145|341:140|341:140|332:142|332:142|328:136|328:136|326:143|326:143|296:147,1,288,6|0,0:3|3:0,0:0:0:0:
505,190,96393,6,0,B|527:220|527:220|517:256|517:256|449:268|449:268|382:280|382:280|359:249|359:249|370:213,1,288,2|0,0:0|3:0,0:0:0:0:
219,109,96768,6,0,B|143:96|143:96|175:140,1,96,8|0,0:0|3:0,0:0:0:0:
103,238,96955,2,0,B|175:211|175:211|125:189,1,96,0|0,0:0|3:0,0:0:0:0:
44,154,97143,5,4,1:3:0:0:
41,158,97236,1,0,1:0:0:0:
45,161,97330,1,0,1:0:0:0:
48,157,97424,1,0,1:0:0:0:
219,109,97518,1,0,1:0:0:0:
193,345,97705,5,0,1:0:0:0:
197,342,97799,1,0,1:0:0:0:
194,338,97892,1,0,1:0:0:0:
190,341,97986,1,0,1:0:0:0:
15,264,98080,1,0,1:0:0:0:
319,38,98268,6,0,L|302:147,1,96,12|0,0:3|3:0,0:0:0:0:
314,343,98455,2,0,P|347:317|405:313,1,96,4|0,0:3|0:0,0:0:0:0:
382,209,98643,6,0,P|429:236|458:281,1,72.0000027465821,12|0,0:3|3:0,0:0:0:0:
509,178,98830,2,0,P|512:215|506:248,1,48,4|0,0:3|0:0,0:0:0:0:
508,347,99018,6,0,B|493:354|478:358|478:358|478:363|478:363|475:354|475:354|475:359|475:359|459:362|443:360|443:360|441:365|441:365|443:355|443:355|440:359|440:359|425:356|411:349|411:349|408:353|408:353|412:343|412:343|408:348|408:348|394:339|379:335|379:335|376:339|376:339|378:330|378:330|376:334|376:334|361:331|345:333|345:333|344:338|344:338|342:329|342:329|342:334|342:334|328:337|315:342,1,288,6|0,0:3|3:0,0:0:0:0:
199,209,99393,6,0,B|290:163|290:254|381:209,1,192,2|4,0:0|0:3,0:0:0:0:
467,110,99674,1,4,0:3:0:0:
465,106,99768,5,0,0:0:0:0:
449,95,99861,1,0,1:0:0:0:
427,76,99955,1,0,1:0:0:0:
393,57,100049,1,0,1:0:0:0:
347,40,100143,1,4,1:3:0:0:
295,31,100236,1,0,1:0:0:0:
237,33,100330,1,0,1:0:0:0:
177,49,100424,1,0,1:0:0:0:
117,80,100518,1,0,1:0:0:0:
64,128,100611,1,0,1:0:0:0:
23,193,100705,1,0,1:0:0:0:
0,272,100799,1,0,1:0:0:0:
4,358,100893,5,12,1:2:0:0:
217,316,101080,1,6,0:3:0:0:
100,273,101268,1,2,0:0:0:0:
229,348,101455,1,0,0:0:0:0:
217,163,101643,2,0,P|201:225|210:297,1,115.199996484375,10|2,0:2|0:0,0:0:0:0:
393,323,102018,6,0,B|447:303|447:303|427:249,1,115.2,6|0,0:3|3:0,0:0:0:0:
343,218,102393,2,0,B|289:237|289:237|308:291,1,96,6|0,0:3|3:0,0:0:0:0:
302,274,102674,2,0,B|311:300,2,19.2,0|0|10,1:0|1:0|1:0,0:0:0:0:
408,170,102955,1,2,0:0:0:0:
393,323,103143,1,2,0:0:0:0:
502,162,103330,6,0,B|529:122|512:85|475:61|448:75|423:76|396:102|370:159|412:179|483:248|482:237|579:86|542:89|470:84|453:74|421:89|422:131|435:161|467:174|487:129|474:120|459:122|452:125,1,307.2,6|2,0:3|0:0,0:0:0:0:
342,70,103893,1,2,0:0:0:0:
245,26,104080,2,0,P|239:88|279:160,1,115.199996484375,6|0,0:3|0:0,0:0:0:0:
258,136,104455,1,4,0:3:0:0:
222,109,104549,1,4,0:3:0:0:
177,100,104643,1,10,0:0:0:0:
187,188,104830,1,2,0:0:0:0:
290,303,105018,6,0,L|74:245,1,172.799994726563,6|0,0:3|3:0,0:0:0:0:
290,303,105393,6,0,B|278:349|278:349|239:383|187:353|187:353|120:350|113:295|113:295|124:256,1,288,10|0,0:0|3:0,0:0:0:0:
268,224,105768,5,6,0:3:0:0:
32,310,105955,2,0,B|68:178,1,115.199996484375,6|0,0:3|0:0,0:0:0:0:
63,199,106330,6,0,P|90:180|130:184,1,57.5999982421876,6|0,0:3|3:0,0:0:0:0:
145,105,106518,2,0,P|174:126|193:161,1,67.1999979492188,0|0,0:0|3:0,0:0:0:0:
259,96,106705,2,0,P|277:140|278:207,1,76.8,2|0,0:0|3:0,0:0:0:0:
230,267,106893,1,2,0:0:0:0:
268,41,107080,1,6,0:3:0:0:
259,96,107173,1,4,0:3:0:0:
250,151,107268,1,14,0:2:0:0:
366,34,107455,5,0,0:0:0:0:
376,41,107549,1,0,0:0:0:0:
352,108,107643,1,0,0:0:0:0:
365,118,107736,1,0,0:0:0:0:
341,185,107830,1,0,0:0:0:0:
354,195,107924,1,0,0:0:0:0:
411,268,108018,6,0,B|418:283|418:298|418:298|423:300|423:300|413:299|413:299|418:301|418:301|417:319|409:332|409:332|414:335|414:335|404:331|404:331|408:334|408:334|399:349|387:357|387:357|389:362|389:362|383:354|383:354|385:359|385:359|371:368|355:371|355:371|354:376|354:376|353:365|353:365|352:372|352:372|336:373|322:368|322:368|319:373|319:373|322:362|322:362|319:367|319:367|306:362|298:355,1,288,6|0,0:3|3:0,0:0:0:0:
172,337,108393,2,0,B|129:315|129:315|86:337,1,96,6|0,0:3|3:0,0:0:0:0:
230,267,108580,1,0,0:0:0:0:
32,179,108768,6,0,L|50:339,1,96,4|0,0:3|3:0,0:0:0:0:
210,185,108955,1,0,0:0:0:0:
229,186,109049,1,0,0:0:0:0:
121,182,109143,6,0,L|103:22,1,96,4|0,0:3|3:0,0:0:0:0:
49,39,109330,1,0,1:0:0:0:
44,37,109424,1,0,1:0:0:0:
39,35,109518,5,0,1:0:0:0:
56,28,109611,1,0,1:0:0:0:
83,19,109705,1,0,1:0:0:0:
122,13,109799,1,0,1:0:0:0:
171,12,109893,1,0,1:0:0:0:
223,22,109986,1,0,1:0:0:0:
277,43,110080,1,0,1:0:0:0:
328,78,110174,1,0,1:0:0:0:
374,128,110268,1,12,0:3:0:0:
368,149,110455,6,0,B|361:170|361:170|367:178|367:178|352:175|352:175|357:184|357:184|348:220,1,96,4|0,0:3|0:0,0:0:0:0:
484,209,110643,6,0,B|471:196|471:196|463:196|463:196|471:188|471:188|463:188|463:188|444:169,1,72.0000027465821,12|0,0:3|3:0,0:0:0:0:
400,283,110830,2,0,B|410:279|410:279|413:275|413:275|415:282|415:282|418:277|418:277|436:272,1,48,4|0,0:3|0:0,0:0:0:0:
281,147,111018,6,0,B|269:143|259:142|259:142|255:146|255:146|256:136|256:136|252:141|252:141|239:141|230:143|230:143|227:148|227:148|225:138|225:138|221:144|221:144|209:147|201:151|201:151|200:157|200:157|195:148|195:148|194:155|194:155|182:160|176:167|176:167|176:174|176:174|169:166|169:166|170:172|170:172|160:180|155:189|155:189|158:196|158:196|150:190|150:190|151:196|151:196|144:207|141:215|141:215|144:221|144:221|136:217|136:217|139:223|139:223|137:233|136:242,1,288,6|0,0:3|3:0,0:0:0:0:
91,315,111393,5,0,1:0:0:0:
108,322,111486,1,0,1:0:0:0:
135,331,111580,1,0,1:0:0:0:
174,337,111674,1,0,1:0:0:0:
223,338,111768,1,10,1:0:0:0:
275,328,111861,1,0,1:0:0:0:
329,307,111955,1,0,1:0:0:0:
380,272,112049,1,0,1:0:0:0:
426,222,112143,5,2,0:0:0:0:
411,173,112236,1,2,0:0:0:0:
450,203,112330,1,2,0:0:0:0:
401,202,112424,1,2,0:0:0:0:
443,174,112518,6,0,B|439:145|459:125|459:125|462:154|443:174,1,96,2|0,0:0|3:0,0:0:0:0:
366,101,112705,2,0,B|348:77|356:50|356:50|373:73|366:101,1,96,0|0,0:0|3:0,0:0:0:0:
270,148,112893,2,0,P|275:190|315:158,1,96,12|0,1:2|0:0,0:0:0:0:
351,26,113080,5,6,0:3:0:0:
225,70,113268,1,2,0:0:0:0:
126,15,113455,1,0,0:0:0:0:
48,130,113643,6,0,L|40:6,1,115.199996484375,6|2,0:3|0:0,0:0:0:0:
164,169,114018,6,0,P|228:179|317:96,1,172.799994726563,6|0,0:3|3:0,0:0:0:0:
301,86,114393,2,0,P|282:139|238:176,1,115.199996484375,6|0,0:3|0:0,0:0:0:0:
214,96,114674,2,0,L|226:64,2,28.7999991210938,0|0|10,1:0|1:0|1:0,0:0:0:0:
303,235,114955,1,2,0:0:0:0:
164,169,115143,1,2,0:0:0:0:
253,308,115330,6,0,B|280:348|263:385|226:409|199:395|174:394|147:368|121:311|163:291|234:222|233:233|330:384|293:381|221:386|204:396|172:381|173:339|186:309|218:296|238:341|225:350|210:348|203:345,1,307.2,6|2,0:3|0:0,0:0:0:0:
364,347,115893,1,2,0:0:0:0:
240,187,116080,2,0,P|270:164|368:188,1,115.199996484375,6|0,0:3|0:0,0:0:0:0:
344,167,116455,1,4,0:3:0:0:
339,121,116549,1,4,0:3:0:0:
353,77,116643,1,10,0:0:0:0:
425,130,116830,1,2,0:0:0:0:
261,227,117018,6,0,L|91:196,1,172.799994726563,6|0,0:3|3:0,0:0:0:0:
261,227,117393,6,0,B|261:165|261:165|192:122|192:122|109:139|109:139|90:198,1,288,10|0,0:0|3:0,0:0:0:0:
171,245,117768,5,6,0:3:0:0:
46,86,117955,2,0,B|8:202,1,115.199996484375,6|0,0:3|0:0,0:0:0:0:
10,195,118330,6,0,P|28:213|46:195,1,57.5999982421876,6|0,0:3|3:0,0:0:0:0:
147,119,118518,2,0,P|168:97|189:119,1,67.1999979492188,0|0,0:0|3:0,0:0:0:0:
261,227,118705,2,0,P|285:251|309:227,1,76.8,2|0,0:0|3:0,0:0:0:0:
390,110,118893,1,2,0:0:0:0:
443,332,119080,1,6,0:3:0:0:
447,275,119174,1,0,0:0:0:0:
396,301,119268,6,0,B|345:436|328:351|345:284|243:284|260:351|243:436|192:301,1,307.2,14|4,0:2|0:3,0:0:0:0:
33,186,120580,5,2,0:0:0:0:
112,115,120768,2,0,L|120:29,2,72.0000027465821,10|2|2,0:0|0:0|0:0,0:0:0:0:
209,98,121330,2,0,L|237:407,1,288.000010986329,6|2,0:3|0:0,0:0:0:0:
431,374,122268,1,8,0:0:0:0:
333,351,122456,5,2,1:2:0:0:
331,326,122549,1,0,1:0:0:0:
329,316,122643,5,2,1:2:0:0:
327,291,122736,1,0,1:0:0:0:
325,281,122831,5,2,1:2:0:0:
323,256,122924,1,0,1:0:0:0:
321,246,123018,6,0,L|314:174,1,72.0000027465821,4|0,0:3|0:0,0:0:0:0:
411,196,123393,2,0,L|404:124,1,72.0000027465821,2|0,0:0|0:0,0:0:0:0:
298,0,123768,1,10,0:0:0:0:
306,88,123955,1,2,0:0:0:0:
314,176,124143,1,2,0:0:0:0:
486,44,124330,6,0,L|508:285,1,216.000008239746,6|2,0:3|0:0,0:0:0:0:
412,350,125080,2,0,L|418:278,1,72.0000027465821,4|8,0:3|0:0,0:0:0:0:
302,281,125455,5,2,1:2:0:0:
304,256,125548,1,0,1:0:0:0:
306,246,125642,5,6,1:3:0:0:
308,221,125735,1,0,1:0:0:0:
310,211,125830,5,2,1:2:0:0:
312,186,125923,1,0,1:0:0:0:
314,176,126018,6,0,L|328:19,1,144.000005493164,14|0,0:3|0:0,0:0:0:0:
230,86,126580,1,2,0:0:0:0:
141,35,126768,2,0,L|133:121,2,72.0000027465821,10|2|2,0:0|0:0|0:0,0:0:0:0:
29,98,127330,2,0,L|57:407,1,288.000010986329,6|2,0:3|0:0,0:0:0:0:
260,370,128268,1,8,0:0:0:0:
164,359,128455,5,2,1:2:0:0:
162,334,128548,1,0,1:0:0:0:
160,324,128643,5,2,1:2:0:0:
158,299,128736,1,0,1:0:0:0:
156,289,128830,6,0,B|162:203|243:172|320:199|331:269|293:309|250:300|234:276,1,288,6|2,0:0|0:0,0:0:0:0:
179,142,129580,6,0,B|261:101|333:160|350:245|291:293|233:279|219:234|232:207,1,316.800009667969,6|2,0:0|0:0,0:0:0:0:
329,83,130330,6,0,B|412:139|396:239|324:301|247:271|228:209|263:171|296:169,1,345.599989453125,6|2,0:0|0:0,0:0:0:0:
320,305,131080,6,0,B|301:296|253:285|245:210|285:179|347:186|359:228,1,201.599993847656,6|0,0:0|3:0,0:0:0:0:
249,286,131455,6,0,P|270:201|361:230,1,192,10|0,0:0|3:0,0:0:0:0:
