osu file format v14

[General]
AudioFilename: velocity.mp3
AudioLeadIn: 0
PreviewTime: 34336
Countdown: 0
SampleSet: Soft
StackLeniency: 0.4
Mode: 0
LetterboxInBreaks: 0
WidescreenStoryboard: 0

[Editor]
Bookmarks: 24024,36024,48024,60024,72024,84024,96024,108024,120024,128461
DistanceSpacing: 0.7
BeatDivisor: 4
GridSize: 4
TimelineZoom: 1.8

[Metadata]
Title:Velocity
TitleUnicode:Velocity
Artist:M2U
ArtistUnicode:M2U
Creator:Karen
Version:thzz's Extra
Source:
Tags:mmc mmc2 modhelp mapping contest yabai futurebass Ascendance sahuang My Angel Azusa ErunamoJAZZ Left thzz Monstrata
BeatmapID:1256485
BeatmapSetID:593985

[Difficulty]
HPDrainRate:5.5
CircleSize:5
OverallDifficulty:8
ApproachRate:9.1
SliderMultiplier:1.2
SliderTickRate:1

[Events]
//Background and Video events
0,0,"bg 1920.jpg",0,0
//Break Periods
//Storyboard Layer 0 (Background)
//Storyboard Layer 1 (Fail)
//Storyboard Layer 2 (Pass)
//Storyboard Layer 3 (Foreground)
//Storyboard Sound Samples

[TimingPoints]
24,375,4,2,6,70,1,0
399,-100,4,2,2,70,0,0
6024,-100,4,2,6,70,0,0
6399,-100,4,2,2,70,0,0
12024,-100,4,2,6,70,0,0
12399,-100,4,2,2,70,0,0
16336,-100,4,2,6,70,0,0
16711,-100,4,2,2,70,0,0
17086,-100,4,2,6,70,0,0
17649,-100,4,2,2,70,0,0
18024,-100,4,2,6,70,0,0
18399,-100,4,2,2,70,0,0
22336,-100,4,2,6,70,0,0
22711,-100,4,2,2,70,0,0
23086,-100,4,2,6,70,0,0
23461,-100,4,2,2,70,0,0
24024,-111.111111111111,4,2,6,70,0,0
30024,-90.9090909090909,4,2,6,70,0,0
31524,-100,4,2,6,70,0,0
33024,-111.111111111111,4,2,2,70,0,0
35086,-66.6666666666667,4,2,2,80,0,0
35649,-55.5555555555556,4,2,2,80,0,0
36024,-83.3333333333333,4,2,6,80,0,1
37711,-83.3333333333333,4,2,2,80,0,1
38649,-66.6666666666667,4,2,6,80,0,1
39399,-55.5555555555556,4,2,6,80,0,1
40149,-83.3333333333333,4,2,2,80,0,1
40899,-66.6666666666667,4,2,6,80,0,1
41086,-55.5555555555556,4,2,6,80,0,1
41274,-55.5555555555556,4,2,2,80,0,1
41461,-55.5555555555556,4,2,6,80,0,1
42024,-83.3333333333333,4,2,6,80,0,1
42961,-83.3333333333333,4,2,2,80,0,1
43149,-83.3333333333333,4,2,6,80,0,1
45024,-55.5555555555556,4,2,6,80,0,1
45961,-55.5555555555556,4,2,2,80,0,1
46336,-83.3333333333333,4,2,6,80,0,1
47461,-111.111111111111,4,2,2,80,0,1
48024,-66.6666666666667,4,2,6,80,0,1
49149,-100,4,2,6,80,0,1
50274,-55.5555555555556,4,2,6,80,0,1
51024,-83.3333333333333,4,2,6,80,0,1
51399,-83.3333333333333,4,2,2,80,0,1
53086,-55.5555555555556,4,2,6,80,0,1
53274,-55.5555555555556,4,2,2,80,0,1
53461,-55.5555555555556,4,2,6,80,0,1
54024,-83.3333333333333,4,2,6,80,0,1
54961,-83.3333333333333,4,2,2,80,0,1
55336,-100,4,2,6,80,0,1
57024,-55.5555555555556,4,2,6,80,0,1
57961,-55.5555555555556,4,2,2,80,0,1
58336,-66.6666666666667,4,2,6,80,0,1
60024,-100,4,2,6,70,0,0
60586,-100,4,2,2,70,0,0
66024,-100,4,2,6,70,0,0
66211,-100,4,2,2,70,0,0
68836,-100,4,2,6,70,0,0
69211,-100,4,2,2,70,0,0
69586,-100,4,2,6,70,0,0
69774,-100,4,2,2,70,0,0
70336,-100,4,2,6,70,0,0
70711,-100,4,2,2,70,0,0
71086,-100,4,2,6,70,0,0
71274,-100,4,2,2,70,0,0
72024,-100,4,2,6,70,0,0
72399,-100,4,2,2,70,0,0
78024,-100,4,2,6,70,0,0
78211,-100,4,2,2,70,0,0
82336,-100,4,2,6,70,0,0
82711,-100,4,2,2,70,0,0
83086,-100,4,2,6,70,0,0
83274,-100,4,2,6,70,0,0
83461,-90.9090909090909,4,2,6,70,0,0
84211,-100,4,2,2,70,0,0
87024,-100,4,2,6,70,0,0
87211,-100,4,2,2,70,0,0
90024,-90.9090909090909,4,2,6,70,0,0
91524,-100,4,2,6,70,0,0
93024,-111.111111111111,4,2,2,70,0,0
95086,-66.6666666666667,4,2,2,80,0,0
95649,-55.5555555555556,4,2,2,80,0,0
96024,-55.5555555555556,4,2,6,80,0,1
96399,-55.5555555555556,4,2,2,80,0,1
97149,-100,4,2,2,80,0,1
97664,-100,4,2,2,5,0,1
97711,-100,4,2,2,80,0,1
98227,-100,4,2,2,5,0,1
98274,-83.3333333333333,4,2,2,80,0,1
98461,-55.5555555555556,4,2,2,80,0,1
98836,-66.6666666666667,4,2,2,80,0,1
99024,-66.6666666666667,4,2,2,80,0,1
99399,-55.5555555555556,4,2,2,80,0,1
101086,-55.5555555555556,4,2,6,80,0,1
101274,-55.5555555555556,4,2,2,80,0,1
102024,-83.3333333333333,4,2,2,80,0,1
105024,-55.5555555555556,4,2,2,80,0,1
106336,-83.3333333333333,4,2,2,80,0,1
107461,-111.111111111111,4,2,2,80,0,1
108024,-66.6666666666667,4,2,2,80,0,1
110461,-55.5555555555556,4,2,2,80,0,1
113086,-83.3333333333333,4,2,6,80,0,1
113274,-83.3333333333333,4,2,2,80,0,1
115336,-100,4,2,2,80,0,1
117024,-55.5555555555556,4,2,6,80,0,1
117399,-55.5555555555556,4,2,2,80,0,1
118336,-66.6666666666667,4,2,2,80,0,1
120024,-100,4,2,6,70,0,0
120586,-100,4,2,2,70,0,0
126024,-100,4,2,6,70,0,0
126211,-100,4,2,2,70,0,0
128836,-83.3333333333333,4,2,6,80,0,0
129211,-83.3333333333333,4,2,2,80,0,0
129586,-83.3333333333333,4,2,6,80,0,0
129774,-83.3333333333333,4,2,2,80,0,0
130336,-83.3333333333333,4,2,6,80,0,0
130711,-83.3333333333333,4,2,2,80,0,0
131461,-66.6666666666667,4,2,2,80,0,0
131555,-83.3333333333333,4,2,2,5,0,0

[Colours]
Combo1 : 240,60,47
Combo2 : 250,140,50
Combo3 : 250,240,48
Combo4 : 184,92,203

[HitObjects]
112,216,24,6,0,P|168:228|215:194,1,120,6|2,0:0|0:0,0:0:0:0:
215,194,586,1,0,0:0:0:0:
160,96,774,2,0,P|151:124|153:154,2,60,8|0|2,0:0|0:0|0:0,0:0:0:0:
221,43,1336,1,0,0:0:0:0:
430,83,1524,6,0,B|310:94,1,120,4|2,0:0|0:0,0:0:0:0:
401,164,2086,2,0,L|461:169,1,60,0|8,0:0|0:0,0:0:0:0:
332,190,2461,1,0,0:0:0:0:
377,262,2649,1,2,0:0:0:0:
490,146,2836,1,0,0:0:0:0:
449,284,3024,6,0,P|415:330|356:336,1,120,4|2,0:0|0:0,0:0:0:0:
226,287,3586,1,0,0:0:0:0:
366,203,3774,2,0,L|376:261,1,60,8|0,0:0|0:0,0:0:0:0:
482,177,4149,1,2,0:0:0:0:
449,284,4336,1,0,0:0:0:0:
319,170,4524,6,0,P|348:174|378:176,1,60,4|0,0:0|0:0,0:0:0:0:
205,190,4899,1,2,0:0:0:0:
348,110,5086,1,4,0:0:0:0:
263,289,5274,2,0,P|263:259|270:229,1,60,8|0,0:0|0:0,0:0:0:0:
166,140,5649,2,2,P|206:127|231:161,1,90,6|0,0:0|0:0,0:1:0:0:
177,218,6024,6,0,B|141:227|141:227|112:208|112:208|89:208|65:220,1,120,6|2,0:0|0:0,0:0:0:0:
16,272,6586,1,0,0:0:0:0:
47,86,6774,2,0,L|52:145,1,60,8|0,0:0|0:0,0:0:0:0:
200,234,7149,1,2,0:0:0:0:
151,147,7336,1,0,0:0:0:0:
145,313,7524,6,0,P|204:303|263:296,1,120,4|2,0:0|0:0,0:0:0:0:
332,207,8086,2,0,L|329:267,1,60,0|8,0:0|0:0,0:0:0:0:
421,256,8461,1,0,0:0:0:0:
350,340,8649,1,2,0:0:0:0:
313,173,8836,1,0,0:0:0:0:
470,305,9024,6,0,P|482:277|487:248,1,60,4|0,0:0|0:0,0:0:0:0:
383,168,9399,2,0,P|387:197|400:224,1,60,2|0,0:0|0:0,0:0:0:0:
454,45,9774,1,8,0:0:0:0:
317,142,9961,1,0,0:0:0:0:
452,178,10149,1,2,0:0:0:0:
293,222,10336,6,0,P|263:215|234:213,1,60,2|4,0:0|0:0,0:0:0:0:
188,106,10711,2,0,P|217:112|247:115,1,60,2|0,0:0|0:0,0:0:0:0:
110,183,11086,1,6,0:0:0:0:
167,331,11274,2,0,L|179:273,1,60,8|0,0:0|0:0,0:0:0:0:
223,181,11649,6,2,P|249:215|293:223,1,90,6|0,0:0|0:0,0:1:0:0:
438,179,12024,6,0,L|348:187,1,90,6|0,0:0|0:0,0:0:0:0:
451,120,12399,2,0,L|437:178,1,60,2|0,0:0|0:0,0:0:0:0:
413,274,12774,1,8,0:0:0:0:
265,150,12961,2,0,P|294:155|323:164,1,60,2|0,0:0|0:0,0:0:0:0:
213,264,13336,6,0,L|204:205,1,60,6|0,0:0|0:0,0:0:0:0:
305,236,13711,1,2,0:0:0:0:
183,332,13899,1,2,0:0:0:0:
345,363,14086,2,0,L|289:339,1,60,0|8,0:0|0:0,0:0:0:0:
106,243,14461,6,0,L|76:249,1,30,4|0,3:2|3:0,0:0:0:0:
177,185,14649,2,0,L|147:191,1,30,4|0,3:2|3:0,0:0:0:0:
264,217,14836,2,0,L|234:223,1,30,4|0,3:2|3:0,0:0:0:0:
300,72,15024,6,0,P|256:64|222:91,1,90,6|0,0:0|0:0,0:0:0:0:
201,149,15399,2,0,L|212:211,1,60,2|0,0:0|0:0,0:0:0:0:
302,309,15774,1,8,0:0:0:0:
234,222,15961,1,2,0:0:0:0:
215,344,16149,1,2,0:0:0:0:
334,96,16336,6,0,L|325:215,1,120,6|2,0:0|0:0,0:0:0:0:
406,262,16899,1,2,0:0:0:0:
238,328,17086,1,6,0:0:0:0:
105,247,17274,2,0,P|139:253|171:262,1,60,8|0,0:0|0:0,0:0:0:0:
255,209,17649,2,0,L|263:170,3,30,2|0|0|0,3:2|3:0|3:0|3:0,0:0:0:0:
291,121,18024,6,0,P|262:87|218:86,1,90,6|0,0:0|0:0,0:0:0:0:
163,129,18399,2,0,P|133:124|105:113,1,60,2|0,0:0|0:0,0:0:0:0:
27,147,18774,1,8,0:0:0:0:
159,0,18961,2,0,L|150:59,1,60,2|0,0:0|0:0,0:0:0:0:
58,229,19336,6,0,L|49:169,1,60,2|4,0:0|0:0,0:0:0:0:
162,205,19711,1,2,0:0:0:0:
20,297,19899,1,2,0:0:0:0:
171,292,20086,2,0,P|143:279|114:274,1,60,0|8,0:0|0:0,0:0:0:0:
236,345,20461,6,0,L|229:374,1,30,4|0,3:2|3:0,0:0:0:0:
294,274,20649,2,0,L|287:303,1,30,4|0,3:2|3:0,0:0:0:0:
262,187,20836,2,0,L|255:216,1,30,4|0,3:2|3:0,0:0:0:0:
386,249,21024,6,0,P|356:250|326:252,1,60,6|0,0:0|0:0,0:0:0:0:
153,313,21399,2,0,P|182:314|212:316,1,60,2|0,0:0|0:0,0:0:0:0:
43,366,21774,1,8,0:0:0:0:
89,199,21961,1,2,0:0:0:0:
122,293,22149,1,0,0:0:0:0:
162,81,22336,6,0,P|102:86|42:93,1,120,6|2,0:0|0:0,0:0:0:0:
261,134,22899,1,8,0:0:0:0:
104,256,23086,2,0,P|94:227|88:198,1,60,6|0,0:0|0:0,0:0:0:0:
280,319,23461,6,0,L|310:325,1,30,4|0,3:2|3:0,0:0:0:0:
209,261,23649,2,0,L|239:267,1,30,4|0,3:2|3:0,0:0:0:0:
122,293,23836,2,0,L|152:299,1,30,4|0,3:2|3:0,0:0:0:0:
304,212,24024,5,6,0:0:0:0:
343,307,24211,1,0,0:0:0:0:
343,307,24305,1,0,3:0:0:0:
343,307,24399,2,0,L|399:320,1,53.9999983520508,8|0,0:1|3:0,0:0:0:0:
457,303,24774,2,0,P|471:279|475:253,1,53.9999983520508,8|0,0:1|3:0,0:0:0:0:
390,202,25149,2,0,P|403:225|407:251,1,53.9999983520508,8|0,0:1|3:0,0:0:0:0:
430,142,25524,5,8,0:1:0:0:
346,96,25711,1,0,0:0:0:0:
346,96,25805,1,0,3:0:0:0:
346,96,25899,1,8,0:1:0:0:
224,140,26086,1,0,3:0:0:0:
322,175,26274,2,0,L|325:121,1,53.9999983520508,8|0,0:1|3:0,0:0:0:0:
198,60,26649,2,0,L|201:113,1,53.9999983520508,8|0,0:1|3:0,0:0:0:0:
134,219,27024,6,0,P|175:215|225:209,1,80.9999975280763,6|0,0:0|3:0,0:0:0:0:
242,195,27399,2,0,P|268:197|295:202,1,53.9999983520508,8|0,0:1|3:0,0:0:0:0:
184,285,27774,1,8,0:1:0:0:
173,137,27961,1,0,3:0:0:0:
80,211,28149,2,0,P|106:213|133:218,1,53.9999983520508,8|0,0:1|3:0,0:0:0:0:
260,266,28524,5,8,0:1:0:0:
116,341,28711,1,0,0:0:0:0:
116,341,28805,1,0,3:0:0:0:
116,341,28899,2,0,L|112:287,1,53.9999983520508,8|0,0:1|3:0,0:0:0:0:
201,113,29274,1,8,0:1:0:0:
77,184,29461,2,0,L|79:210,1,26.9999991760254,0|0,0:0|3:0,0:0:0:0:
194,166,29649,2,0,L|200:113,1,53.9999983520508,8|0,0:1|3:0,0:0:0:0:
361,34,30024,6,0,P|315:52|266:48,1,99.0000030212403,6|0,0:0|1:0,0:0:0:0:
195,13,30399,1,2,0:0:0:0:
160,208,30586,1,0,1:0:0:0:
12,112,30774,6,0,P|57:93|106:97,1,99.0000030212403,6|0,0:0|1:0,0:0:0:0:
171,143,31149,2,0,L|160:211,1,66.0000020141602,2|0,0:0|1:0,0:0:0:0:
227,359,31524,6,0,P|270:365|312:350,1,90,6|0,0:0|1:0,0:0:0:0:
369,304,31899,1,2,0:0:0:0:
249,155,32086,1,0,1:0:0:0:
484,266,32274,6,0,L|439:272|394:278,1,90,6|0,0:0|1:0,0:0:0:0:
335,237,32649,2,0,P|329:208|325:178,1,60,2|0,0:0|1:0,0:0:0:0:
374,22,33024,6,0,L|460:31,2,80.9999975280763,2|2|2,0:0|3:2|3:2,0:0:0:0:
216,104,33774,2,0,P|176:104|142:82,2,80.9999975280763,2|2|2,0:0|3:2|3:2,0:0:0:0:
288,18,34524,5,4,0:0:0:0:
225,331,35180,2,0,L|223:303,1,22.5000008583069,0|0,3:0|3:0,0:0:0:0:
294,202,35274,6,0,L|291:246,1,45.0000017166138,8|4,0:0|0:0,0:0:0:0:
227,375,35461,2,0,L|225:331,1,45.0000017166138,4|4,0:0|0:0,0:0:0:0:
455,305,35649,2,0,P|414:272|365:288,1,107.999996704102,8|4,0:0|0:0,0:0:0:0:
184,328,36024,6,0,B|255:317|255:317|222:301,1,107.999996704102,2|2,0:0|0:0,0:0:0:0:
95,191,36586,6,0,B|59:244|96:297|96:297|68:282,1,143.999995605469,6|8,0:0|0:0,0:0:0:0:
298,212,37149,6,0,B|250:190|250:190|238:228|205:246|205:246|178:233|152:242,1,179.999994506836,6|0,0:0|0:0,0:0:0:0:
95,191,37711,5,2,3:2:0:0:
89,163,37805,1,2,3:2:0:0:
140,105,37899,5,2,3:2:0:0:
146,133,37993,1,2,3:2:0:0:
197,75,38086,5,2,3:2:0:0:
191,47,38180,1,2,3:2:0:0:
68,97,38274,6,0,P|103:100|139:104,1,71.9999978027344,6|0,0:0|0:0,0:0:0:0:
349,208,38649,6,0,B|356:174|356:174|311:216|265:201,1,135.000005149841,14|0,0:0|0:0,0:0:0:0:
286,51,39024,6,0,B|295:85|295:85|286:108|286:108|292:137,1,90.0000034332277,2|0,0:0|0:0,0:1:0:0:
205,278,39399,6,2,B|87:265|87:265|122:290,1,161.999995056153,2|0,1:0|0:0,1:0:0:0:
264,341,39774,6,0,B|302:320|302:320|338:331|338:331|391:313|391:313|380:336,1,161.999995056153,8|0,0:0|0:0,0:0:0:0:
455,271,40149,6,0,L|464:227,3,35.9999989013672,4|2|2|2,0:0|0:0|0:0|0:0,0:0:0:0:
401,191,40524,2,0,L|392:147,3,35.9999989013672,4|2|2|2,0:0|0:0|0:0|0:0,0:0:0:0:
291,233,40899,6,0,P|268:229|246:224,1,45.0000017166138,8|0,0:0|0:0,0:0:0:0:
167,72,41086,6,0,L|158:125,1,53.9999983520508,6|0,0:0|0:0,0:0:0:0:
60,202,41274,2,0,L|51:255,1,53.9999983520508,2|0,0:0|0:0,0:0:0:0:
205,288,41461,2,0,L|196:341,1,53.9999983520508,2|2,0:0|0:0,0:0:0:0:
325,214,41649,5,8,0:0:0:0:
120,240,41836,1,2,0:0:0:0:
355,346,42024,6,0,P|404:332|438:370,1,107.999996704102,6|0,0:0|0:0,0:0:0:0:
288,312,42399,2,0,P|238:325|203:308,1,89.9999972534181,2|0,0:0|0:0,0:0:0:0:
174,279,42680,2,0,L|149:271,2,17.9999994506836,2|2|2,0:0|0:0|1:0,0:0:0:0:
349,212,42961,1,2,0:0:0:0:
235,78,43149,1,0,0:0:0:0:
81,276,43336,6,0,B|135:296|186:251|186:251|174:278,1,143.999995605469,2|2,0:0|0:0,0:0:0:0:
16,225,43899,1,8,0:0:0:0:
132,127,44086,2,0,L|121:198,1,71.9999978027344,2|0,0:0|0:0,0:0:0:0:
288,299,44461,5,2,0:0:0:0:
288,299,44555,1,2,0:0:0:0:
288,299,44649,1,8,0:0:0:0:
164,377,44836,1,2,0:0:0:0:
369,364,45024,6,0,B|418:354|418:354|437:329|437:329|469:346|469:346|513:339,1,161.999995056153,6|0,0:0|0:0,0:0:0:0:
402,206,45399,6,2,B|377:200|362:180|362:180|378:241|378:241|373:295,1,161.999995056153,0|0,1:0|0:0,1:0:0:0:
475,259,45774,5,6,0:0:0:0:
229,274,45961,1,6,0:0:0:0:
418,145,46149,1,2,1:0:0:0:
166,116,46336,6,0,P|234:137|282:89,1,143.999995605469,6|8,0:0|0:0,0:0:0:0:
109,60,46899,1,8,0:0:0:0:
262,202,47086,2,0,L|251:242,1,35.9999989013672,2|2,0:0|0:0,0:0:0:0:
216,68,47274,1,8,0:0:0:0:
66,261,47461,6,0,L|71:292,1,26.9999991760254,2|0,3:2|3:0,0:0:0:0:
133,314,47649,2,0,L|157:294,1,26.9999991760254,2|0,3:2|3:0,0:0:0:0:
146,230,47836,2,0,L|116:218,1,26.9999991760254,2|0,3:2|3:0,0:0:0:0:
112,270,48024,6,0,B|157:258|157:258|195:274|195:274|238:256,1,135.000005149841,2|0,0:0|0:0,0:0:0:0:
307,239,48399,2,2,P|267:188|202:195,1,135.000005149841,2|0,0:0|0:0,1:0:0:0:
307,275,48774,6,0,L|354:284,1,45.0000017166138,2|0,0:0|0:0,0:0:0:0:
304,105,48961,2,0,L|257:114,1,45.0000017166138,2|0,0:1|0:0,0:0:0:0:
113,186,49149,6,0,L|202:194,1,90,2|0,0:0|0:0,0:0:0:0:
117,93,49524,5,2,3:2:0:0:
97,99,49617,1,0,3:0:0:0:
76,105,49711,1,0,3:0:0:0:
119,262,49899,1,2,3:2:0:0:
139,267,49992,1,0,3:0:0:0:
159,272,50086,1,0,3:0:0:0:
179,277,50180,1,0,3:0:0:0:
203,282,50274,6,0,L|209:335,1,53.9999983520508,8|0,0:0|0:0,0:0:0:0:
357,229,50461,2,0,L|350:286,1,53.9999983520508,2|0,0:0|0:0,0:0:0:0:
257,189,50649,1,8,0:0:0:0:
447,148,50836,1,2,0:0:0:0:
256,188,51024,6,2,B|334:169|334:169|306:162,1,107.999996704102,2|0,0:0|0:0,0:1:0:0:
262,106,51399,5,2,0:0:0:0:
269,88,51492,1,2,0:0:0:0:
282,71,51586,1,2,0:0:0:0:
303,57,51680,1,2,0:0:0:0:
331,49,51774,1,2,0:0:0:0:
362,49,51867,1,2,0:0:0:0:
392,60,51961,1,2,0:0:0:0:
416,88,52055,1,2,0:0:0:0:
431,159,52149,5,4,0:0:0:0:
477,55,52336,2,0,P|442:64|415:87,1,71.9999978027344,2|0,0:0|0:0,0:0:0:0:
384,117,52617,1,2,0:0:0:0:
334,136,52711,1,2,0:0:0:0:
265,135,52805,1,2,0:0:0:0:
198,94,52899,1,2,0:0:0:0:
325,14,53086,6,0,L|335:66,1,53.9999983520508,6|0,0:0|0:0,0:0:0:0:
265,135,53274,2,0,L|275:187,1,53.9999983520508,2|0,0:0|0:0,0:0:0:0:
205,256,53461,2,0,L|215:308,1,53.9999983520508,2|2,0:0|0:0,0:0:0:0:
325,264,53649,5,8,0:0:0:0:
129,200,53836,1,2,0:0:0:0:
281,364,54024,6,0,P|333:352|387:349,1,107.999996704102,2|0,0:0|0:0,0:0:0:0:
215,309,54399,2,0,P|161:297|122:295,1,89.9999972534181,2|0,0:0|0:0,0:0:0:0:
90,318,54680,2,0,L|60:324,2,17.9999994506836,2|2|2,0:0|0:0|1:0,0:0:0:0:
239,173,54961,1,2,0:0:0:0:
298,279,55149,1,0,0:0:0:0:
60,235,55336,6,0,B|137:220|137:220|174:238,1,120,2|2,0:0|0:0,0:0:0:0:
237,347,55899,1,8,0:0:0:0:
307,138,56086,2,0,L|314:197,1,60,2|0,0:0|0:0,0:0:0:0:
126,294,56461,1,2,0:0:0:0:
126,294,56555,1,2,0:0:0:0:
126,294,56649,1,8,0:0:0:0:
190,149,56836,1,2,0:0:0:0:
72,90,57024,6,0,P|113:155|190:149,1,161.999995056153,6|0,0:0|0:0,0:0:0:0:
285,83,57399,6,2,B|228:97|184:47|184:47|159:58|150:80,1,161.999995056153,8|0,0:0|0:0,0:1:0:0:
275,165,57774,5,6,0:0:0:0:
122,223,57961,1,6,0:0:0:0:
259,6,58149,1,2,1:0:0:0:
353,136,58336,6,0,P|396:142|431:116,1,90.0000034332277,6|0,0:0|0:0,0:0:0:0:
275,165,58711,2,0,L|261:206,3,30.0000011444092,2|0|0|8,0:0|0:0|0:0|0:0,0:0:0:0:
164,67,59086,2,0,L|216:71,1,45.0000017166138,2|2,0:0|0:0,0:0:0:0:
380,77,59274,1,8,0:0:0:0:
256,192,59367,12,6,60024,0:0:0:0:
75,138,60586,5,0,0:0:0:0:
163,116,60774,2,0,P|169:86|171:56,2,60,8|0|2,0:0|0:0|0:0,0:0:0:0:
87,239,61336,2,0,P|129:278|187:269,1,120,4|0,0:0|0:0,0:0:0:0:
276,191,61899,1,2,0:0:0:0:
310,266,62086,2,0,L|301:325,1,60,0|8,0:0|0:0,0:0:0:0:
438,286,62461,6,0,L|468:292,1,30,4|0,3:2|3:0,3:0:0:0:
367,228,62649,2,0,L|397:234,1,30,4|0,3:2|3:0,3:0:0:0:
280,260,62836,2,0,L|310:266,1,30,4|0,3:2|3:0,3:0:0:0:
436,222,63024,6,0,P|446:194|448:165,1,60,6|0,0:0|0:0,0:0:0:0:
245,275,63399,2,0,P|234:303|232:332,1,60,2|0,0:0|0:0,0:0:0:0:
397,340,63774,1,8,0:0:0:0:
240,367,63961,1,2,0:0:0:0:
335,251,64149,1,2,0:0:0:0:
218,151,64336,6,0,P|272:133|312:173,1,120,4|2,0:0|0:0,0:0:0:0:
181,213,64899,1,2,0:0:0:0:
257,64,65086,1,4,0:0:0:0:
454,165,65274,2,0,P|424:164|395:174,1,60,8|0,0:0|0:0,0:0:0:0:
382,187,65555,1,0,3:0:0:0:
376,204,65649,2,0,L|381:243,3,30,4|0|0|0,3:2|3:0|3:0|3:0,0:0:0:0:
421,290,66024,5,6,0:0:0:0:
306,335,66211,2,0,P|282:317|252:316,1,60,2|0,0:0|0:0,0:0:0:0:
185,350,66586,1,0,0:0:0:0:
61,241,66774,2,0,P|53:270|49:300,1,60,8|0,0:0|0:0,0:0:0:0:
139,296,67149,1,2,0:0:0:0:
23,176,67336,6,0,P|80:166|124:204,1,120,4|0,0:0|0:0,0:0:0:0:
99,354,67899,1,2,0:0:0:0:
197,284,68086,2,0,P|167:287|139:296,1,60,2|8,0:0|0:0,0:0:0:0:
325,320,68461,6,0,L|320:350,1,30,4|0,3:2|3:0,3:0:0:0:
294,233,68649,2,0,L|289:263,1,30,4|0,3:2|3:0,3:0:0:0:
468,270,68836,6,0,P|416:298|357:291,1,120,6|2,0:0|0:0,0:0:0:0:
231,217,69399,1,2,0:0:0:0:
447,100,69586,1,6,0:0:0:0:
400,224,69774,2,0,P|393:194|391:164,2,60,8|2|2,0:0|0:0|0:0,0:0:0:0:
215,335,70336,6,0,P|228:276|230:216,1,120,6|8,0:0|0:0,0:0:0:0:
196,152,70899,1,2,0:0:0:0:
85,297,71086,1,6,0:0:0:0:
67,172,71274,1,8,0:0:0:0:
67,172,71461,6,0,L|37:178,1,30,2|0,3:2|3:0,3:0:0:0:
138,114,71649,2,0,L|108:120,1,30,4|0,3:2|3:0,3:0:0:0:
225,146,71836,2,0,L|195:152,1,30,2|0,3:2|3:0,3:0:0:0:
194,269,72024,6,0,P|251:276|289:232,1,120,6|2,0:0|0:0,0:0:0:0:
298,161,72586,1,0,0:0:0:0:
167,252,72774,1,8,0:0:0:0:
126,126,72961,2,0,L|131:156|136:186,1,60,2|0,0:0|0:0,0:0:0:0:
78,296,73336,6,0,P|133:274|193:267,1,120,4|2,0:0|0:0,0:0:0:0:
361,304,73899,1,2,0:0:0:0:
228,348,74086,2,0,L|220:288,1,60,0|8,0:0|0:0,0:0:0:0:
223,110,74461,6,0,L|227:79,1,30,4|0,3:2|3:0,3:0:0:0:
253,196,74649,2,0,L|257:165,1,30,4|0,3:2|3:0,3:0:0:0:
193,267,74836,2,0,L|197:236,1,30,4|0,3:2|3:0,3:0:0:0:
315,239,75024,5,6,0:0:0:0:
315,239,75211,1,2,0:0:0:0:
141,191,75399,1,2,0:0:0:0:
141,191,75586,1,2,0:0:0:0:
247,296,75774,1,10,0:0:0:0:
211,123,75961,1,2,0:0:0:0:
124,219,76149,1,2,0:0:0:0:
134,71,76336,6,0,P|136:130|140:190,1,120,6|2,0:0|0:0,0:0:0:0:
246,126,76899,1,2,0:0:0:0:
66,190,77086,1,4,0:0:0:0:
169,14,77274,1,8,0:0:0:0:
205,179,77461,6,0,L|175:185,1,30,2|0,3:2|3:0,3:0:0:0:
276,121,77649,2,0,L|246:127,1,30,4|0,3:2|3:0,3:0:0:0:
363,153,77836,2,0,L|333:159,1,30,2|0,3:2|3:0,3:0:0:0:
394,63,78024,6,0,L|392:122,1,60,6|0,0:0|0:0,0:0:0:0:
453,245,78399,1,2,0:0:0:0:
483,160,78586,1,0,0:0:0:0:
314,226,78774,1,8,0:0:0:0:
462,304,78961,2,0,L|452:244,1,60,2|0,0:0|0:0,0:0:0:0:
270,288,79336,6,0,P|327:299|375:266,1,120,4|2,0:0|0:0,0:0:0:0:
212,235,79899,1,2,0:0:0:0:
307,166,80086,2,0,L|313:225,1,60,2|8,0:0|0:0,0:0:0:0:
126,91,80461,6,0,L|131:61,1,30,4|0,3:2|3:3,3:3:0:0:
157,178,80649,2,0,L|162:148,1,30,4|0,3:2|3:3,3:3:0:0:
94,259,80836,6,0,P|153:249|212:242,1,120,4|2,0:0|0:0,0:0:0:0:
323,266,81399,1,8,0:1:0:0:
188,333,81586,1,2,0:0:0:0:
225,157,81774,2,0,P|228:186|233:216,1,60,8|2,0:0|0:0,0:0:0:0:
301,342,82149,1,8,0:1:0:0:
509,338,82336,6,0,B|468:311|468:311|398:322,1,120,6|2,0:0|0:0,0:0:0:0:
250,289,82899,1,8,0:0:0:0:
436,189,83086,2,0,L|427:248,1,60,6|0,0:0|0:0,0:0:0:0:
358,117,83461,6,0,L|397:125,1,33.0000010070801,2|0,3:2|3:0,3:0:0:0:
218,160,83649,2,0,L|254:168,1,33.0000010070801,4|0,3:2|3:0,3:0:0:0:
265,269,83836,2,0,L|303:278,1,33.0000010070801,2|0,3:2|0:0,3:0:0:0:
424,188,84024,6,0,P|429:217|425:257,1,66.0000020141602,6|0,0:0|3:0,0:0:0:0:
388,317,84399,1,8,0:1:0:0:
321,284,84586,1,0,3:0:0:0:
197,336,84774,1,8,0:1:0:0:
136,297,84961,1,0,0:0:0:0:
136,297,85055,1,0,3:0:0:0:
136,297,85149,2,0,L|145:231,1,60,8|0,0:1|3:0,0:0:0:0:
201,167,85524,5,8,0:1:0:0:
63,210,85711,1,0,0:0:0:0:
63,210,85805,1,0,3:0:0:0:
63,210,85899,2,0,L|127:217,1,60,8|0,0:1|3:0,0:0:0:0:
211,308,86274,1,8,0:1:0:0:
231,303,86367,1,0,3:0:0:0:
251,299,86461,1,0,3:0:0:0:
271,295,86555,1,0,3:0:0:0:
291,290,86649,2,0,L|282:353,1,60,8|0,0:1|3:0,0:0:0:0:
388,295,87024,5,6,0:0:0:0:
194,313,87211,1,0,0:0:0:0:
194,313,87305,1,0,3:0:0:0:
194,313,87399,2,0,L|185:253,1,60,8|0,0:1|3:0,0:0:0:0:
305,213,87774,1,8,0:1:0:0:
291,290,87961,1,0,3:0:0:0:
132,192,88149,2,0,P|103:184|73:182,1,60,8|0,0:1|3:0,0:0:0:0:
93,259,88524,5,8,0:1:0:0:
234,188,88711,1,0,0:0:0:0:
234,188,88805,1,0,3:0:0:0:
234,188,88899,2,0,L|227:128,1,60,8|0,0:1|3:0,0:0:0:0:
300,56,89274,1,8,0:1:0:0:
156,97,89461,2,0,L|151:126,1,30,0|0,0:0|3:0,0:0:0:0:
302,248,89649,2,0,L|295:188,1,60,8|0,0:1|3:0,0:0:0:0:
390,80,90024,6,0,P|349:53|300:57,1,99.0000030212403,6|0,0:0|1:0,0:0:0:0:
156,97,90399,2,0,L|188:104|220:111,1,66.0000020141602,2|0,0:0|1:0,0:0:0:0:
300,288,90774,6,0,P|297:238|296:189,1,99.0000030212403,6|0,0:0|1:0,0:0:0:0:
333,119,91149,1,2,0:0:0:0:
131,196,91336,1,0,1:0:0:0:
363,341,91524,6,0,P|322:360|277:362,1,90,6|0,0:0|1:0,0:0:0:0:
207,345,91899,1,2,0:0:0:0:
380,218,92086,1,0,1:0:0:0:
67,224,92274,6,0,L|156:215,1,90,6|0,0:0|1:0,0:0:0:0:
257,149,92649,2,0,P|228:139|198:137,1,60,2|0,0:0|1:0,0:0:0:0:
364,289,93024,6,0,P|403:282|439:262,2,80.9999975280763,2|2|2,0:2|3:2|3:2,0:0:0:0:
198,136,93774,2,0,L|188:55,2,80.9999975280763,2|2|2,0:2|3:2|3:2,0:0:0:0:
285,198,94524,5,4,0:0:0:0:
285,198,95180,2,0,L|307:194,1,22.5000008583069,4|4,0:0|0:0,0:0:0:0:
415,155,95274,6,0,L|363:147,1,45.0000017166138,8|4,0:0|0:0,0:0:0:0:
243,270,95461,2,0,L|287:276,1,45.0000017166138,4|4,0:0|0:0,0:0:0:0:
230,138,95649,2,0,B|209:121|209:121|180:151|134:139,1,107.999996704102,8|4,0:0|0:0,0:0:0:0:
34,93,96024,6,0,P|72:46|161:84,1,161.999995056153,6|0,0:0|0:0,0:0:0:0:
267,210,96399,6,2,B|235:208|208:224|208:224|180:198|180:198|153:214|121:212,1,161.999995056153,2|0,0:1|0:0,0:1:0:0:
257,341,96774,6,0,L|249:288,1,53.9999983520508,8|0,0:0|0:0,0:0:0:0:
344,112,96961,2,0,L|336:166,1,53.9999983520508,2|0,0:1|0:0,0:0:0:0:
405,274,97149,5,4,3:2:0:0:
413,276,97242,1,0,3:0:0:0:
421,278,97336,1,0,3:0:0:0:
429,280,97430,1,0,3:0:0:0:
437,282,97524,2,0,L|447:229,1,45,0|0,3:0|0:0,3:0:0:0:
368,59,97712,5,0,3:0:0:0:
360,61,97806,1,0,3:0:0:0:
352,63,97899,1,0,3:0:0:0:
344,65,97993,1,0,3:0:0:0:
335,67,98086,2,0,L|343:111,1,45,0|0,3:0|0:0,3:0:0:0:
321,182,98274,6,0,L|283:177,1,35.9999989013672,8|0,0:0|0:0,0:0:0:0:
90,94,98461,6,0,L|148:87,1,53.9999983520508,4|0,0:0|0:0,0:0:0:0:
224,55,98649,6,2,B|231:83|231:83|221:109|221:109|227:132,1,80.9999975280763,4|0,0:0|0:0,0:1:0:0:
178,202,98836,6,0,L|170:179,1,22.5000008583069,4|0,0:0|0:0,0:0:0:0:
22,313,99024,6,2,B|39:332|44:351|44:351|44:300|81:268,1,135.000005149841,4|0,0:0|0:0,1:0:0:0:
223,340,99399,6,0,B|186:320|186:320|121:332,1,107.999996704102,2|4,0:0|0:0,0:0:0:0:
78,270,99680,1,4,0:0:0:0:
78,270,99774,6,0,L|70:217,1,53.9999983520508,8|2,0:0|0:0,0:0:0:0:
113,153,99961,2,0,L|116:126,2,26.9999991760254,2|2|2,0:0|0:0|0:0,0:0:0:0:
148,228,100149,5,2,0:0:0:0:
162,243,100242,1,2,0:0:0:0:
191,259,100336,1,2,0:0:0:0:
236,266,100430,1,2,0:0:0:0:
294,262,100524,1,2,0:0:0:0:
360,231,100617,1,2,0:0:0:0:
404,159,100711,1,2,0:0:0:0:
401,75,100805,1,2,0:0:0:0:
353,0,100899,1,2,1:0:0:0:
66,78,101086,6,0,L|118:91,1,53.9999983520508,6|0,0:0|0:0,0:0:0:0:
180,170,101274,2,0,L|232:183,1,53.9999983520508,2|0,0:0|0:0,0:0:0:0:
294,262,101461,2,0,L|346:275,1,53.9999983520508,2|0,0:0|0:0,0:0:0:0:
453,225,101649,5,8,0:0:0:0:
212,324,101836,1,2,0:0:0:0:
325,161,102024,6,0,P|313:109|310:55,1,107.999996704102,4|0,0:0|0:0,0:0:0:0:
199,181,102399,2,0,P|187:235|185:274,1,89.9999972534181,4|0,0:0|0:0,0:0:0:0:
208,306,102680,2,0,L|214:336,2,17.9999994506836,4|4|2,0:0|0:0|1:0,0:0:0:0:
134,122,102961,1,0,0:0:0:0:
266,242,103149,1,0,0:0:0:0:
44,299,103336,6,0,P|114:282|184:269,1,143.999995605469,4|4,0:0|0:0,0:0:0:0:
358,296,103899,1,10,0:0:0:0:
205,202,104086,2,0,P|188:233|183:268,1,71.9999978027344,4|0,0:0|0:0,0:0:0:0:
339,357,104461,2,0,L|334:306,1,35.9999989013672,4|4,0:0|0:0,0:0:0:0:
301,151,104649,1,10,0:0:0:0:
254,258,104836,1,4,0:0:0:0:
503,225,105024,6,0,B|458:233|428:205|428:205|391:224|391:224|348:214,1,161.999995056153,6|0,0:0|0:0,0:0:0:0:
179,130,105399,6,2,P|247:96|300:150,1,161.999995056153,2|0,1:0|0:0,1:0:0:0:
254,258,105774,5,8,0:0:0:0:
482,153,105961,1,4,0:0:0:0:
364,84,106149,1,0,0:0:0:0:
414,275,106336,6,0,P|426:241|427:205,1,71.9999978027344,4|0,0:0|0:0,0:0:0:0:
202,135,106711,2,0,L|171:128,2,23.9999992675781,8|0|0,0:0|0:0|0:0,0:0:0:0:
227,141,106899,1,8,0:0:0:0:
346,227,107086,2,0,L|309:236,1,35.9999989013672,4|4,0:0|0:0,0:0:0:0:
427,205,107274,1,8,0:0:0:0:
377,49,107461,6,0,L|398:32,1,26.9999991760254,2|0,3:2|3:0,3:0:0:0:
460,58,107649,2,0,L|465:85,1,26.9999991760254,2|0,3:2|3:0,3:0:0:0:
410,126,107836,2,0,L|385:116,1,26.9999991760254,2|0,3:2|3:0,3:0:0:0:
419,76,108024,6,0,B|374:88|374:88|336:72|336:72|293:90,1,135.000005149841,4|0,0:0|0:0,0:0:0:0:
228,56,108399,2,0,P|281:17|343:38,1,135.000005149841,4|0,0:0|0:0,0:0:0:0:
340,191,108774,6,0,L|334:146,1,45.0000017166138,4|0,0:0|0:0,0:0:0:0:
449,215,108961,1,2,0:1:0:0:
461,219,109055,1,0,0:0:0:0:
473,223,109149,2,0,L|467:267,1,45.0000017166138,2|0,0:0|0:0,0:0:0:0:
411,331,109336,5,2,0:0:0:0:
380,347,109430,1,2,0:0:0:0:
339,358,109524,1,2,0:0:0:0:
291,355,109617,1,2,0:0:0:0:
245,329,109711,1,2,0:0:0:0:
185,321,109805,1,2,0:0:0:0:
122,336,109899,5,2,0:0:0:0:
55,329,109992,1,2,0:0:0:0:
7,273,110086,1,2,0:0:0:0:
0,197,110180,1,2,0:0:0:0:
20,118,110274,1,10,0:0:0:0:
316,79,110461,6,0,L|263:89,1,53.9999983520508,4|0,0:0|0:0,0:0:0:0:
118,129,110649,2,0,B|161:121|161:121|217:152,1,107.999996704102,8|4,0:0|0:0,0:0:0:0:
434,210,111024,6,2,B|387:227|387:227|335:196|335:196|287:215,1,161.999995056153,6|0,0:0|0:0,0:1:0:0:
154,295,111399,5,2,0:0:0:0:
210,269,111492,1,2,0:0:0:0:
276,277,111586,1,2,0:0:0:0:
332,318,111680,1,2,0:0:0:0:
409,334,111774,1,2,0:0:0:0:
483,300,111867,1,2,0:0:0:0:
512,215,111961,1,2,0:0:0:0:
497,122,112055,1,2,0:0:0:0:
425,49,112149,5,4,3:2:0:0:
414,45,112242,1,0,3:0:0:0:
403,41,112336,1,0,3:0:0:0:
392,38,112430,1,0,3:0:0:0:
381,35,112524,6,0,L|327:29,1,53.9999983520508,2|0,1:0|0:0,0:0:0:0:
347,114,112711,2,0,L|293:108,1,53.9999983520508,2|0,1:0|0:0,0:0:0:0:
219,155,112899,2,0,P|243:184|285:192,1,80.9999975280763,8|0,0:0|0:0,0:0:0:0:
394,182,113086,6,0,L|385:260,2,71.9999978027344,6|2|2,0:0|0:0|0:0,0:0:0:0:
279,342,113649,1,8,0:0:0:0:
470,269,113836,1,2,0:0:0:0:
283,193,114024,6,0,P|230:189|187:220,1,107.999996704102,4|0,0:0|0:0,0:0:0:0:
342,144,114399,2,0,P|386:152|427:135,1,89.9999972534181,4|0,0:0|0:0,0:0:0:0:
454,103,114680,2,0,L|481:99,2,17.9999994506836,4|4|2,0:0|0:0|1:0,0:0:0:0:
274,62,114961,1,0,0:0:0:0:
410,18,115149,1,0,0:0:0:0:
221,126,115336,6,0,B|192:87|192:87|202:16,1,120,4|4,0:0|0:0,0:0:0:0:
278,188,115899,1,8,0:0:0:0:
83,162,116086,2,0,P|111:152|141:149,1,60,4|0,0:0|0:0,0:0:0:0:
354,148,116461,1,4,0:0:0:0:
354,148,116555,1,4,0:0:0:0:
354,148,116649,1,8,0:0:0:0:
210,248,116836,1,4,0:0:0:0:
429,178,117024,6,0,P|370:229|296:207,1,161.999995056153,6|0,0:0|0:0,1:0:0:0:
136,160,117399,6,2,B|181:140|181:140|230:158|230:158|251:131|281:129,1,161.999995056153,2|0,1:0|0:0,1:0:0:0:
426,150,117774,5,8,0:0:0:0:
357,358,117961,1,4,0:0:0:0:
296,207,118149,1,2,1:0:0:0:
88,275,118336,6,0,P|130:261|175:262,1,90.0000034332277,4|0,0:0|0:0,0:0:0:0:
282,307,118711,2,0,L|291:343,3,30.0000011444092,8|0|0|0,0:0|0:0|0:0|0:0,0:0:0:0:
360,140,119086,2,0,L|316:147,1,45.0000017166138,4|4,0:0|0:0,0:0:0:0:
174,168,119274,1,8,0:0:0:0:
256,192,119367,12,6,120024,0:0:0:0:
338,88,120586,5,0,0:0:0:0:
391,136,120774,2,0,P|420:140|450:142,2,60,8|0|2,0:0|0:0|0:0,0:0:0:0:
316,62,121336,6,0,P|258:54|214:92,1,120,4|0,0:0|0:0,0:0:0:0:
200,163,121899,1,2,0:0:0:0:
110,66,122086,2,0,P|82:55|52:50,1,60,2|8,0:0|0:0,0:0:0:0:
70,154,122461,6,0,L|64:124,1,30,4|0,3:2|3:0,3:0:0:0:
128,225,122649,2,0,L|122:195,1,30,4|0,3:2|3:0,3:0:0:0:
96,312,122836,2,0,L|90:282,1,30,4|0,3:2|3:0,3:0:0:0:
164,244,123024,6,0,P|192:236|222:231,1,60,4|0,0:0|0:0,0:0:0:0:
359,304,123399,2,0,P|330:295|300:290,1,60,2|0,0:0|0:0,0:0:0:0:
426,225,123774,1,8,0:0:0:0:
202,306,123961,1,2,0:0:0:0:
309,165,124149,1,2,0:0:0:0:
461,321,124336,6,0,P|405:337|358:303,1,120,4|2,0:0|0:0,0:0:0:0:
381,153,124899,1,2,0:0:0:0:
273,263,125086,1,4,0:0:0:0:
279,79,125274,2,0,L|282:138,1,60,8|2,0:0|0:0,0:0:0:0:
271,153,125555,1,0,3:0:0:0:
257,164,125649,2,0,L|218:169,3,30,4|0|2|0,3:2|3:0|3:2|3:0,3:0:0:0:
139,134,126024,5,6,0:0:0:0:
87,259,126211,2,0,P|114:271|130:296,1,60,2|0,0:0|0:0,0:0:0:0:
145,376,126586,1,0,0:0:0:0:
266,316,126774,2,0,L|274:255,2,60,8|2|2,0:0|0:0|0:0,0:0:0:0:
430,342,127336,6,0,P|370:346|318:375,1,120,4|0,0:0|0:0,0:0:0:0:
206,295,127899,1,2,0:0:0:0:
310,180,128086,2,0,L|303:240,1,60,2|8,0:0|0:0,0:0:0:0:
374,141,128461,6,0,L|404:136,1,30,4|0,3:2|3:0,3:0:0:0:
287,110,128649,2,0,L|317:105,1,30,4|0,3:2|3:0,3:0:0:0:
489,26,128836,6,0,P|422:12|382:68,1,143.999995605469,6|2,0:0|0:0,0:0:0:0:
397,202,129399,1,2,0:0:0:0:
287,110,129586,1,6,0:0:0:0:
252,270,129774,2,0,P|216:282|169:282,2,71.9999978027344,8|2|2,0:0|0:0|0:0,0:0:0:0:
66,190,130336,6,0,B|102:183|102:183|132:194|132:194|170:183,1,107.999996704102,6|0,0:0|0:0,0:0:0:0:
237,141,130711,1,8,0:0:0:0:
346,256,130899,1,0,0:0:0:0:
188,319,131086,2,0,L|226:323,1,35.9999989013672,4|0,0:0|0:0,0:0:0:0:
405,350,131274,5,10,0:0:0:0:
321,123,131461,2,0,P|315:144|313:167,1,45.0000017166138,14|0,0:0|0:0,0:0:0:0:
