osu file format v14

[General]
AudioFilename: velocity.mp3
AudioLeadIn: 0
PreviewTime: 34336
Countdown: 0
SampleSet: Soft
StackLeniency: 0.6
Mode: 0
LetterboxInBreaks: 0
WidescreenStoryboard: 0

[Editor]
DistanceSpacing: 1.2
BeatDivisor: 2
GridSize: 8
TimelineZoom: 1.9

[Metadata]
Title:Velocity
TitleUnicode:Velocity
Artist:M2U
ArtistUnicode:M2U
Creator:Karen
Version:sahuang's Easy
Source:
Tags:mmc mmc2 modhelp mapping contest yabai futurebass Ascendance sahuang My Angel Azusa ErunamoJAZZ Left thzz Monstrata
BeatmapID:1258909
BeatmapSetID:593985

[Difficulty]
HPDrainRate:2
CircleSize:2.6
OverallDifficulty:2.5
ApproachRate:2.5
SliderMultiplier:0.749999999999999
SliderTickRate:1

[Events]
//Background and Video events
0,0,"bg 1920.jpg",0,0
//Break Periods
2,60224,70336
//Storyboard Layer 0 (Background)
//Storyboard Layer 1 (Fail)
//Storyboard Layer 2 (Pass)
//Storyboard Layer 3 (Foreground)
//Storyboard Sound Samples

[TimingPoints]
24,375,4,2,1,70,1,0
24024,-100,4,2,1,50,0,0
30024,-100,4,2,1,70,0,0
33024,-100,4,2,1,60,0,0
34524,-100,4,2,1,80,0,0
47461,-100,4,2,1,60,0,0
48024,-100,4,2,1,80,0,0
59274,-100,4,2,1,60,0,0
82336,-100,4,2,1,70,0,0
84024,-100,4,2,1,50,0,0
90024,-100,4,2,1,70,0,0
93024,-100,4,2,1,60,0,0
94524,-100,4,2,1,80,0,0
107461,-100,4,2,1,50,0,0
108024,-100,4,2,1,80,0,0
120024,-100,4,2,1,60,0,0

[Colours]
Combo1 : 128,0,255
Combo2 : 255,255,60
Combo3 : 255,0,0
Combo4 : 96,175,255

[HitObjects]
227,79,24,6,0,L|212:181,1,74.9999999999999,4|2,0:0|0:0,0:0:0:0:
140,201,774,2,0,L|155:303,1,74.9999999999999,10|2,0:0|0:0,0:0:0:0:
214,338,1524,2,0,P|284:313|365:328,1,150,4|10,0:0|0:0,0:0:0:0:
477,190,3024,6,0,L|483:107,2,74.9999999999999,4|2|10,0:0|0:0|0:0,0:0:0:0:
399,235,4149,1,2,0:0:0:0:
326,181,4524,2,0,L|156:163,1,150,4|10,0:0|0:0,0:0:0:0:
87,178,5649,1,2,0:0:0:0:
120,94,6024,6,0,P|149:59|262:68,2,150,4|10|4,0:0|0:0|0:0,0:0:0:0:
176,165,7899,1,2,0:0:0:0:
115,231,8274,2,0,P|106:271|114:307,1,74.9999999999999,10|2,0:0|0:0,0:0:0:0:
185,356,9024,6,0,P|225:365|261:357,1,74.9999999999999,4|2,0:0|0:0,0:0:0:0:
322,295,9774,2,0,L|314:208,1,74.9999999999999,10|2,0:0|0:0,0:0:0:0:
364,144,10524,2,0,L|296:88,1,74.9999999999999,4|2,0:0|0:0,0:0:0:0:
266,14,11274,2,0,L|179:22,1,74.9999999999999,10|4,0:0|0:0,0:0:0:0:
110,61,12024,5,2,1:2:0:0:
151,142,12399,1,2,0:0:0:0:
232,101,12774,2,0,P|240:162|178:230,1,150,10|2,0:0|0:0,0:0:0:0:
323,340,14274,1,10,0:0:0:0:
363,259,14649,1,4,0:0:0:0:
403,178,15024,6,0,L|392:87,1,74.9999999999999,4|2,0:0|0:0,0:0:0:0:
334,36,15774,2,0,L|243:47,1,74.9999999999999,10|2,0:0|0:0,0:0:0:0:
205,117,16524,2,0,P|199:153|216:208,1,74.9999999999999,0|2,0:0|0:0,0:0:0:0:
279,246,17274,2,0,P|285:293|266:336,1,74.9999999999999,10|4,0:0|3:0,0:0:0:0:
195,280,18024,5,4,0:0:0:0:
116,323,18399,1,2,0:0:0:0:
42,271,18774,2,0,B|30:198|30:198|47:112,1,150,10|4,0:0|0:0,0:0:0:0:
210,52,20274,1,10,0:0:0:0:
291,92,20649,1,4,0:0:0:0:
372,132,21024,6,0,L|463:121,1,74.9999999999999,4|2,0:0|0:0,0:0:0:0:
455,212,21774,2,0,L|419:296,1,74.9999999999999,10|2,0:0|0:0,0:0:0:0:
339,255,22524,2,0,L|283:181,1,74.9999999999999,2|10,0:0|0:0,0:0:0:0:
240,122,23274,1,0,0:0:0:0:
207,205,23649,1,4,3:3:0:0:
152,133,24024,6,0,P|78:142|35:210,1,150,2|8,1:2|0:0,0:0:0:0:
55,288,25149,1,8,0:0:0:0:
136,326,25524,2,0,B|212:305|207:347|292:318,1,150,8|8,0:0|0:0,0:0:0:0:
343,253,26649,1,8,0:0:0:0:
432,263,27024,6,0,P|467:221|394:190,1,150,12|8,0:0|0:0,0:0:0:0:
326,134,28149,1,8,0:0:0:0:
245,174,28524,2,0,P|203:209|172:136,1,150,8|8,0:0|0:0,0:0:0:0:
233,84,29649,1,8,0:0:0:0:
256,192,30024,12,0,34524,1:0:0:0:
110,325,36024,6,0,L|90:151,1,150,2|0,1:0|0:0,0:0:0:0:
151,107,37149,1,2,1:0:0:0:
235,138,37524,2,0,B|274:148|274:148|307:137|307:137|341:146|341:146|378:132,1,150,0|2,0:0|1:0,0:0:0:0:
460,96,38649,1,2,1:0:0:0:
451,185,39024,6,0,P|472:219|472:277,2,74.9999999999999,2|2|2,1:0|1:0|1:0,0:0:0:0:
387,248,40149,1,4,0:0:0:0:
308,210,40524,1,0,0:0:0:0:
320,121,40899,2,0,P|354:100|412:100,2,74.9999999999999,10|0|2,1:2|0:0|1:0,0:0:0:0:
237,156,42024,6,0,B|138:165|138:165|76:143,2,150,2|4|0,1:0|0:0|0:0,0:0:0:0:
308,211,43899,2,0,P|313:280|243:341,1,150,2|2,0:0|1:2,0:0:0:0:
174,362,45024,6,0,P|136:363|90:339,2,74.9999999999999,2|2|4,1:0|1:0|0:0,0:0:0:0:
153,274,46149,1,2,0:0:0:0:
85,214,46524,2,0,L|75:132,1,74.9999999999999,0|2,0:0|0:0,0:0:0:0:
133,70,47274,6,0,B|155:61|155:61|175:69|175:69|196:61|196:61|217:68|217:68|235:61|235:61|258:69|258:69|278:61,1,150,14|2,1:2|1:0,0:0:0:0:
341,121,48399,1,2,1:0:0:0:
411,65,48774,2,0,L|408:23,2,37.5,2|2|2,1:0|1:0|1:0,0:0:0:0:
468,134,49524,2,0,P|482:174|484:226,1,74.9999999999999,2|2,1:2|1:2,0:0:0:0:
441,285,50274,2,0,L|444:327,2,37.5,2|2|2,1:2|1:2|1:2,0:0:0:0:
361,242,51024,6,0,B|311:226|311:226|199:250,1,150,2|2,1:0|1:2,0:0:0:0:
129,273,52149,1,0,1:0:0:0:
51,226,52524,2,0,P|40:190|46:147,2,74.9999999999999,2|0|0,0:0|1:2|0:0,0:0:0:0:
129,273,53649,1,2,1:0:0:0:
215,246,54024,6,0,B|206:216|205:192|205:192|229:151|223:99,2,150,2|6|0,1:0|0:0|0:0,0:0:0:0:
247,330,55899,2,0,P|298:277|294:205,1,150,2|2,0:0|1:2,0:0:0:0:
359,143,57024,6,0,P|393:157|430:155,2,74.9999999999999,2|2|4,1:0|1:0|0:0,0:0:0:0:
314,64,58149,1,2,0:0:0:0:
233,103,58524,2,0,L|153:116,2,74.9999999999999,0|0|2,0:0|0:0|1:0,0:0:0:0:
55,132,60024,5,4,0:0:0:0:
149,116,72024,6,0,L|156:197,1,74.9999999999999,4|0,0:0|0:0,0:0:0:0:
125,275,72774,1,10,0:0:0:0:
233,355,73336,2,0,P|312:357|399:278,1,187.5,4|10,0:0|0:0,0:0:0:0:
401,201,74649,1,4,3:0:0:0:
340,134,75024,6,0,L|257:122,2,74.9999999999999,4|0|10,0:0|0:0|0:0,0:0:0:0:
241,41,76336,2,0,L|262:242,1,187.5,4|10,0:0|0:0,0:0:0:0:
227,311,77649,1,4,3:0:0:0:
142,279,78024,6,0,L|133:195,1,74.9999999999999,4|0,0:0|0:0,0:0:0:0:
74,136,78774,1,10,0:0:0:0:
179,51,79336,2,0,B|221:38|268:61|268:61|318:34|360:47,1,187.5,4|10,0:0|0:0,0:0:0:0:
433,100,80649,1,4,3:0:0:0:
395,181,81024,6,0,P|362:195|317:195,2,74.9999999999999,8|0|10,0:0|0:0|0:0,0:0:0:0:
272,124,82336,2,0,L|291:310,1,187.5,4|4,0:0|0:0,0:0:0:0:
218,364,83649,1,4,3:0:0:0:
139,319,84024,5,8,0:0:0:0:
153,139,84774,2,0,L|148:235,1,74.9999999999999,8|8,0:0|0:0,0:0:0:0:
218,270,85524,1,8,0:0:0:0:
398,284,86274,2,0,L|302:279,1,74.9999999999999,8|8,0:0|0:0,0:0:0:0:
279,201,87024,5,12,0:0:0:0:
293,21,87774,2,0,L|288:117,1,74.9999999999999,8|8,0:0|0:0,0:0:0:0:
212,142,88524,1,8,0:0:0:0:
32,128,89274,2,0,L|128:133,1,74.9999999999999,8|8,0:0|0:0,0:0:0:0:
256,192,90024,12,0,94524,1:0:0:0:
390,216,96024,6,0,P|356:228|312:226,1,74.9999999999999,2|2,1:0|1:0,0:0:0:0:
259,158,96774,2,0,P|225:146|181:148,1,74.9999999999999,2|6,1:0|1:2,0:0:0:0:
102,180,97524,2,0,L|92:136,2,37.5,2|2|2,0:1|0:2|0:2,0:0:0:0:
85,268,98274,1,2,1:2:0:0:
144,335,98649,1,2,1:2:0:0:
228,304,99024,6,0,P|289:289|381:328,2,150,2|4|2,1:0|0:0|0:2,0:0:0:0:
144,335,100899,1,2,1:2:0:0:
161,246,101274,2,0,L|152:145,1,74.9999999999999,0|2,0:0|1:0,0:0:0:0:
207,99,102024,6,0,P|243:87|280:88,2,74.9999999999999,2|2|6,1:0|1:0|0:0,0:0:0:0:
316,179,103336,2,0,P|372:114|367:48,1,150,2|2,1:0|1:0,0:0:0:0:
242,6,104649,1,2,1:2:0:0:
164,51,105024,6,0,L|83:66,1,74.9999999999999,2|2,1:0|1:0,0:0:0:0:
38,138,105774,2,0,L|53:219,1,74.9999999999999,4|0,0:0|0:0,0:0:0:0:
126,261,106524,2,0,L|207:246,1,74.9999999999999,0|0,0:0|0:0,0:0:0:0:
247,170,107274,2,0,B|253:185|253:185|245:208|245:208|252:226|252:226|245:247|245:247|253:268|253:268|245:288|245:288|254:310,1,150,14|2,0:0|1:0,0:0:0:0:
331,355,108399,5,2,1:0:0:0:
415,323,108774,2,0,L|446:366,2,37.5,2|2|2,1:0|0:0|1:0,0:0:0:0:
446,238,109524,2,0,P|441:196|412:152,1,74.9999999999999,2|2,0:0|0:0,0:0:0:0:
336,155,110274,2,0,L|323:97,2,37.5,2|2|2,1:2|1:2|1:2,0:0:0:0:
274,220,111024,6,0,P|209:234|123:170,1,150,2|0,1:0|1:0,0:0:0:0:
109,110,112149,1,2,1:2:0:0:
169,43,112524,2,0,L|260:50,1,74.9999999999999,2|0,1:0|1:0,0:0:0:0:
303,116,113274,2,0,L|394:109,1,74.9999999999999,0|2,0:0|1:0,0:0:0:0:
451,161,114024,6,0,L|463:255,2,74.9999999999999,2|2|6,1:0|1:0|0:0,0:0:0:0:
337,234,115336,2,0,B|285:245|285:245|238:232|238:232|185:242,1,150,2|2,1:0|1:0,0:0:0:0:
80,319,116649,1,2,1:2:0:0:
47,235,117024,6,0,L|49:150,1,74.9999999999999,2|2,1:0|1:0,0:0:0:0:
109,93,117774,2,0,L|194:95,1,74.9999999999999,4|2,0:0|0:0,0:0:0:0:
261,139,118524,6,0,P|276:217|229:276,2,150,0|2|4,0:0|1:0|0:0,0:0:0:0:
412,41,120774,2,0,L|424:164,1,112.5,10|4,0:0|0:0,0:0:0:0:
274,321,122274,1,10,0:0:0:0:
185,338,122649,1,4,3:0:0:0:
104,296,123024,6,0,P|73:232|80:136,1,150,4|10,0:0|0:0,0:0:0:0:
204,121,124336,2,0,P|235:185|228:281,1,150,4|4,0:0|0:0,0:0:0:0:
350,331,125649,1,4,3:0:0:0:
421,276,126024,6,0,L|415:116,1,150,4|10,0:0|0:0,0:0:0:0:
291,72,127336,2,0,P|233:104|113:60,1,187.5,4|10,0:0|0:0,0:0:0:0:
256,192,128836,12,4,131461,0:0:0:0:
