osu file format v14

[General]
AudioFilename: velocity.mp3
AudioLeadIn: 0
PreviewTime: 34336
Countdown: 0
SampleSet: Soft
StackLeniency: 0.5
Mode: 0
LetterboxInBreaks: 0
WidescreenStoryboard: 0

[Editor]
Bookmarks: 60024,96024,131461
DistanceSpacing: 1
BeatDivisor: 8
GridSize: 32
TimelineZoom: 2.3

[Metadata]
Title:Velocity
TitleUnicode:Velocity
Artist:M2U
ArtistUnicode:M2U
Creator:Karen
Version:Monstrata's Extra
Source:
Tags:mmc mmc2 modhelp mapping contest yabai futurebass Ascendance sahuang My Angel Azusa ErunamoJAZZ Left thzz Monstrata
BeatmapID:1256484
BeatmapSetID:593985

[Difficulty]
HPDrainRate:5
CircleSize:4
OverallDifficulty:8
ApproachRate:9
SliderMultiplier:2
SliderTickRate:1

[Events]
//Background and Video events
0,0,"bg 1920.jpg",0,0
//Break Periods
//Storyboard Layer 0 (Background)
//Storyboard Layer 1 (Fail)
//Storyboard Layer 2 (Pass)
//Storyboard Layer 3 (Foreground)
//Storyboard Sound Samples

[TimingPoints]
24,375,4,2,2,75,1,0
24,-125,4,2,2,75,0,0
774,-111.111111111111,4,2,0,75,0,0
1149,-125,4,2,2,75,0,0
2274,-125,4,2,0,75,0,0
2367,-125,4,2,2,75,0,0
3024,-125,4,2,2,55,0,0
3117,-125,4,2,2,75,0,0
3774,-125,4,2,0,75,0,0
3867,-125,4,2,2,75,0,0
5086,-125,4,2,0,75,0,0
5367,-125,4,2,2,75,0,0
5649,-125,4,2,2,55,0,0
5742,-125,4,2,2,75,0,0
6774,-113.636363636364,4,2,0,75,0,0
7149,-125,4,2,2,75,0,0
8274,-125,4,2,0,75,0,0
8367,-125,4,2,2,75,0,0
9774,-125,4,2,0,75,0,0
9867,-125,4,2,2,75,0,0
11086,-125,4,2,0,75,0,0
11367,-125,4,2,2,75,0,0
12024,-100,4,2,2,75,0,0
12774,-100,4,2,0,75,0,0
12867,-100,4,2,2,75,0,0
14274,-100,4,2,0,75,0,0
14367,-100,4,2,1,50,0,0
15024,-100,4,2,2,75,0,0
15774,-100,4,2,0,75,0,0
15867,-100,4,2,2,75,0,0
17086,-100,4,2,1,40,0,0
17274,-100,4,2,0,75,0,0
17367,-100,4,2,1,75,0,0
17461,-100,4,2,1,55,0,0
17649,-100,4,2,2,45,0,0
18024,-100,4,2,2,75,0,0
18774,-100,4,2,0,75,0,0
18867,-100,4,2,2,75,0,0
20274,-100,4,2,0,75,0,0
20461,-100,4,2,1,45,0,0
21024,-100,4,2,2,75,0,0
21774,-100,4,2,0,75,0,0
21867,-100,4,2,2,75,0,0
22899,-100,4,2,0,75,0,0
22992,-100,4,2,2,75,0,0
24024,-142.857142857143,4,2,2,55,0,0
30024,-142.857142857143,4,2,1,55,0,0
30774,-125,4,2,1,65,0,0
31524,-111.111111111111,4,2,1,75,0,0
32274,-100,4,2,0,60,0,0
32367,-100,4,2,1,60,0,0
33024,-90.9090909090909,4,2,0,55,0,0
34524,-90.9090909090909,4,2,1,55,0,0
35649,-90.9090909090909,4,2,2,55,0,0
36024,-66.6666666666667,4,2,2,75,0,0
36211,-66.6666666666667,4,2,2,6,0,0
36305,-66.6666666666667,4,2,2,75,0,0
36492,-66.6666666666667,4,2,2,6,0,0
36586,-66.6666666666667,4,2,2,75,0,0
37149,-66.6666666666667,4,2,1,75,0,0
38274,-83.3333333333333,4,2,2,75,0,0
39024,-50,4,2,2,75,0,0
39305,-50,4,2,2,6,0,0
39399,-50,4,2,2,75,0,0
39680,-50,4,2,2,6,0,0
39774,-50,4,2,2,75,0,0
40149,-76.9230769230769,4,2,2,75,0,0
40899,-66.6666666666667,4,2,2,75,0,0
41086,-74.0740740740741,4,2,2,75,0,0
43336,-100,4,2,1,75,0,0
43524,-100,4,2,2,75,0,0
44086,-117.647058823529,4,2,2,75,0,0
45024,-66.6666666666667,4,2,2,75,0,0
45305,-66.6666666666667,4,2,2,6,0,0
45399,-57.1428571428571,4,2,2,75,0,0
45680,-57.1428571428571,4,2,2,6,0,0
45774,-57.1428571428571,4,2,2,75,0,0
46336,-66.6666666666667,4,2,1,75,0,0
46430,-66.6666666666667,4,2,2,75,0,0
47461,-66.6666666666667,4,2,2,35,0,0
47649,-57.1428571428571,4,2,2,45,0,0
47836,-50,4,2,2,55,0,0
48024,-30,4,2,1,75,0,0
48305,-30,4,2,1,6,0,0
48399,-30,4,2,2,75,0,0
48680,-30,4,2,2,6,0,0
48774,-50,4,2,2,75,0,0
50274,-76.9230769230769,4,2,2,75,0,0
50649,-55.5555555555556,4,2,2,75,0,0
51024,-42,4,2,2,75,0,0
51305,-42,4,2,2,6,0,0
51399,-100,4,2,2,30,0,0
51586,-100,4,2,2,40,0,0
51774,-100,4,2,2,50,0,0
51961,-100,4,2,2,60,0,0
52149,-66.6666666666667,4,2,2,75,0,0
52336,-57.1428571428571,4,2,2,75,0,0
52617,-57.1428571428571,4,2,2,55,0,0
52711,-57.1428571428571,4,2,2,65,0,0
52805,-57.1428571428571,4,2,2,75,0,0
52899,-50,4,2,2,75,0,0
53086,-54.054054054054,4,2,2,75,0,0
53274,-58.8235294117647,4,2,2,75,0,0
53461,-64.5161290322581,4,2,2,75,0,0
53649,-71.4285714285714,4,2,2,75,0,0
53836,-80,4,2,2,75,0,0
54024,-90.9090909090909,4,2,2,75,0,0
54305,-90.9090909090909,4,2,2,6,0,0
54399,-76.9230769230769,4,2,2,75,0,0
55336,-100,4,2,2,75,0,0
57024,-50,4,2,2,75,0,0
57305,-50,4,2,2,6,0,0
57399,-50,4,2,2,75,0,0
57680,-50,4,2,2,6,0,0
57774,-50,4,2,2,75,0,0
57961,-57.1428571428571,4,2,2,75,0,0
58336,-66.6666666666667,4,2,2,55,0,0
58711,-83.3333333333333,4,2,2,75,0,0
60024,-133.333333333333,4,2,2,55,0,0
62461,-133.333333333333,4,2,1,35,0,0
63024,-133.333333333333,4,2,2,55,0,0
66211,-133.333333333333,4,2,2,35,0,0
66399,-133.333333333333,4,2,2,25,0,0
66586,-133.333333333333,4,2,2,55,0,0
68461,-133.333333333333,4,2,1,35,0,0
68836,-133.333333333333,4,2,0,35,0,0
68930,-133.333333333333,4,2,2,25,0,0
69024,-133.333333333333,4,2,2,55,0,0
74461,-133.333333333333,4,2,1,55,0,0
75024,-133.333333333333,4,2,2,55,0,0
78024,-116.279069767442,4,2,2,60,0,0
80461,-116.279069767442,4,2,1,60,0,0
80836,-116.279069767442,4,2,2,60,0,0
84024,-116.279069767442,4,2,1,55,0,0
85524,-142.857142857143,4,2,2,75,0,0
90024,-142.857142857143,4,2,2,55,0,0
90774,-117.647058823529,4,2,2,65,0,0
91524,-100,4,2,2,75,0,0
92274,-86.9565217391304,4,2,0,75,0,0
93024,-76.9230769230769,4,2,0,55,0,0
94524,-76.9230769230769,4,2,1,55,0,0
95649,-76.9230769230769,4,2,2,55,0,0
96024,-50,4,2,2,75,0,0
96305,-50,4,2,2,6,0,0
96399,-50,4,2,2,75,0,0
96680,-50,4,2,2,6,0,0
96774,-50,4,2,2,75,0,0
97149,-76.9230769230769,4,2,2,35,0,0
97524,-76.9230769230769,4,2,2,95,0,0
97711,-76.9230769230769,4,2,2,35,0,0
98086,-76.9230769230769,4,2,2,95,0,0
98274,-66.6666666666667,4,2,2,75,0,0
98461,-58.8235294117647,4,2,2,75,0,0
98649,-52.6315789473684,4,2,2,75,0,0
99024,-30,4,2,2,75,0,0
99305,-30,4,2,2,6,0,0
99399,-50,4,2,2,75,0,0
99774,-66.6666666666667,4,2,2,75,0,0
99961,-60.6060606060606,4,2,2,35,0,0
100149,-55.5555555555556,4,2,2,75,0,0
100336,-51.2820512820513,4,2,2,45,0,0
100524,-51.2820512820513,4,2,2,55,0,0
100711,-51.2820512820513,4,2,2,70,0,0
100899,-51.2820512820513,4,2,2,85,0,0
101086,-57.1428571428571,4,2,2,75,0,0
101274,-64.5161290322581,4,2,2,75,0,0
101461,-74.0740740740741,4,2,2,75,0,0
102024,-83.3333333333333,4,2,2,75,0,0
103336,-100,4,2,2,75,0,0
105024,-55.5555555555556,4,2,2,75,0,0
105305,-55.5555555555556,4,2,2,6,0,0
105399,-55.5555555555556,4,2,2,75,0,0
105680,-55.5555555555556,4,2,2,6,0,0
105774,-62.5,4,2,2,75,0,0
106336,-100,4,2,1,75,0,0
107274,-100,4,2,2,75,0,0
107461,-76.9230769230769,4,2,2,35,0,0
107649,-62.5,4,2,2,55,0,0
107836,-52.6315789473684,4,2,2,75,0,0
108024,-40,4,2,2,75,0,0
108305,-40,4,2,2,6,0,0
108399,-40,4,2,2,75,0,0
108680,-40,4,2,2,6,0,0
108774,-50,4,2,2,75,0,0
109336,-100,4,2,2,30,0,0
109524,-100,4,2,2,40,0,0
109711,-100,4,2,2,50,0,0
109899,-100,4,2,2,60,0,0
110086,-100,4,2,2,70,0,0
110274,-50,4,2,2,75,0,0
111024,-50,4,2,1,75,0,0
111399,-50,4,2,1,40,0,0
111586,-50,4,2,1,50,0,0
111774,-50,4,2,2,60,0,0
111961,-50,4,2,1,70,0,0
112149,-50,4,2,1,80,0,0
112336,-50,4,2,1,90,0,0
112524,-50,4,2,1,100,0,0
112899,-57.1428571428571,4,2,2,75,0,0
114024,-76.9230769230769,4,2,2,75,0,0
114305,-76.9230769230769,4,2,2,6,0,0
114399,-76.9230769230769,4,2,2,75,0,0
115336,-100,4,2,2,75,0,0
117024,-50,4,2,2,75,0,0
117305,-50,4,2,2,6,0,0
117399,-50,4,2,2,75,0,0
117680,-50,4,2,2,6,0,0
117774,-66.6666666666667,4,2,2,75,0,0
120024,-125,4,2,2,50,0,0
120774,-125,4,2,0,50,0,0
120867,-125,4,2,2,50,0,0
122274,-125,4,2,0,50,0,0
122367,-125,4,2,1,35,0,0
123024,-125,4,2,2,50,0,0
123774,-125,4,2,0,50,0,0
123867,-125,4,2,2,50,0,0
125274,-125,4,2,0,50,0,0
125367,-125,4,2,2,50,0,0
126774,-125,4,2,0,50,0,0
126867,-125,4,2,2,50,0,0
128274,-125,4,2,0,50,0,0
128367,-125,4,2,1,50,0,0
128836,-125,4,2,0,50,0,0
128930,-125,4,2,2,50,0,0
129774,-125,4,2,0,50,0,0
129867,-125,4,2,2,50,0,0
130336,-125,4,2,0,50,0,0
130430,-125,4,2,2,50,0,0
130711,-125,4,2,0,50,0,0
130805,-125,4,2,2,50,0,0
131274,-125,4,2,0,50,0,0
131367,-125,4,2,2,50,0,0

[Colours]
Combo1 : 255,128,128
Combo2 : 255,255,128
Combo3 : 128,255,128
Combo4 : 128,255,255

[HitObjects]
352,316,24,6,0,B|345:209|345:209|359:243|401:257,1,160,4|0,0:0|0:0,0:0:0:0:
423,171,586,1,2,0:0:0:0:
340,34,774,2,0,L|345:123,1,89.9999972534181,8|0,0:2|0:0,0:0:0:0:
268,168,1149,2,0,P|228:161|190:172,1,80,0|2,0:0|0:0,0:0:0:0:
75,202,1524,6,0,B|128:183|170:223|170:223|202:201|184:136,1,160,4|0,0:0|0:0,0:0:0:0:
123,114,2086,1,2,0:0:0:0:
107,282,2274,2,0,P|140:303|179:308,1,80,8|0,0:0|0:0,0:0:0:0:
264,285,2649,2,0,P|266:324|250:361,1,80,0|2,0:0|0:0,0:0:0:0:
200,223,3024,6,0,B|176:158|217:109|258:114|266:144|236:171,1,160,4|2,0:0|0:0,0:0:0:0:
123,114,3586,1,0,0:0:0:0:
309,91,3774,2,0,P|321:167|277:231,1,160,10|0,0:0|0:0,0:0:0:0:
231,148,4336,1,2,0:0:0:0:
415,108,4524,6,0,L|513:124,1,80,4|0,0:0|0:0,0:0:0:0:
309,91,4899,1,0,0:0:0:0:
385,291,5086,2,0,L|483:275,1,80,4|8,0:0|0:0,0:0:0:0:
347,191,5461,1,2,0:0:0:0:
301,358,5649,1,4,0:0:0:0:
240,196,5836,1,2,0:0:0:0:
134,303,6024,6,0,P|172:310|210:298,2,80,4|0|0,0:0|0:0|0:0,0:0:0:0:
240,196,6586,1,2,0:0:0:0:
300,357,6774,2,0,L|314:270,1,88.0000026855469,8|0,0:0|0:0,0:0:0:0:
227,117,7149,2,0,L|241:203,1,80,0|2,0:0|0:0,0:0:0:0:
333,80,7524,6,0,B|288:43|220:79|220:79|229:127,1,160,4|0,0:0|0:0,0:0:0:0:
345,158,8086,1,2,0:0:0:0:
346,1,8274,2,0,L|333:79,1,80,8|0,0:0|0:0,0:0:0:0:
426,192,8649,2,0,L|438:113,1,80,0|2,0:0|0:0,0:0:0:0:
279,217,9024,6,0,P|314:267|275:365,1,160,4|2,0:0|0:0,0:0:0:0:
231,290,9586,1,0,0:0:0:0:
400,277,9774,1,10,0:0:0:0:
279,217,9961,1,2,0:0:0:0:
391,142,10149,1,0,0:0:0:0:
357,212,10336,1,2,0:0:0:0:
347,77,10524,6,0,B|394:55|429:75|429:75|461:90|501:76,1,160,6|0,0:0|0:0,0:0:0:0:
302,12,11086,2,0,P|277:39|266:81,1,80,4|8,0:0|0:0,0:0:0:0:
357,212,11461,1,2,0:0:0:0:
390,141,11649,2,0,P|345:135|309:150,1,80,4|0,0:0|0:0,0:0:0:0:
161,273,12024,6,0,L|124:180,1,100,4|0,0:0|0:0,0:0:0:0:
118,353,12399,2,0,L|39:290,1,100,2|0,0:0|0:0,0:0:0:0:
203,384,12774,1,10,0:0:0:0:
246,304,12961,2,0,L|260:205,1,100,2|0,0:0|0:0,0:0:0:0:
336,302,13336,6,0,P|384:288|431:303,1,100,6|0,0:0|0:0,0:0:0:0:
350,203,13711,1,2,0:0:0:0:
440,201,13899,1,2,0:0:0:0:
365,104,14086,2,0,L|350:202,1,100,2|8,0:0|0:0,0:0:0:0:
454,102,14461,6,0,B|452:78|452:78|439:55,1,50,4|0,0:0|0:0,0:0:0:0:
317,27,14649,2,0,B|297:40|297:40|284:63,1,50,4|0,0:0|0:0,0:0:0:0:
320,183,14836,2,0,B|341:193|341:193|367:193,1,50,4|0,0:0|0:0,0:0:0:0:
364,104,15024,6,0,L|242:118,1,100
229,209,15399,1,2,0:0:0:0:
165,130,15586,1,0,0:0:0:0:
93,290,15774,2,0,L|215:304,1,100,10|2,0:0|0:0,0:0:0:0:
229,209,16149,1,0,0:0:0:0:
90,131,16336,6,0,B|53:224|53:224|97:360,1,200,2|0,0:0|0:0,0:0:0:0:
210,232,16899,1,2,0:0:0:0:
151,182,17086,2,0,B|132:228,1,50,6|0,0:0|0:0,0:0:0:0:
147,275,17274,2,0,B|123:202,1,50,8|0,0:0|0:0,0:0:0:0:
273,189,17461,2,0,B|296:261,1,50,6|0,0:0|0:0,0:0:0:0:
269,282,17648,2,0,B|341:99,1,150,6|0,0:0|0:0,0:0:0:0:
308,94,18024,6,0,P|343:129|392:135,1,100,6|0,0:0|0:0,0:0:0:0:
461,19,18399,2,0,P|412:24|377:59,1,100,2|0,0:0|0:0,0:0:0:0:
240,130,18774,1,8,0:0:0:0:
225,54,18961,2,0,P|273:59|308:94,1,100,2|0,0:0|0:0,0:0:0:0:
255,206,19336,6,0,B|196:210|171:163|171:163|127:213|158:256,1,200,2|0,0:0|0:0,0:0:0:0:
240,130,19899,1,2,0:0:0:0:
75,63,20086,2,0,L|84:195,1,100,2|8,0:0|0:0,0:0:0:0:
252,218,20461,6,0,L|306:181,1,50,4|0,0:0|0:0,0:0:0:0:
310,74,20648,2,0,L|250:44,1,50,4|0,0:0|0:0,0:0:0:0:
157,96,20836,2,0,L|161:162,1,50,4|0,0:0|0:0,0:0:0:0:
240,130,21024,5,6,0:0:0:0:
240,130,21211,1,0,0:0:0:0:
184,19,21399,1,2,0:0:0:0:
184,19,21586,1,0,0:0:0:0:
172,233,21774,1,10,0:0:0:0:
295,240,21961,1,2,0:0:0:0:
240,130,22149,1,0,0:0:0:0:
226,306,22336,6,0,P|288:334|391:241,1,200,2|0,0:0|0:0,0:0:0:0:
295,240,22899,1,10,0:0:0:0:
368,80,23086,2,0,B|353:202,1,100,2|0,0:0|0:0,0:0:0:0:
492,313,23461,6,0,B|442:307,1,50,0|0,3:0|3:0,0:0:0:0:
479,224,23649,2,0,B|528:218,1,50,0|0,3:0|0:0,0:0:0:0:
501,332,23836,2,0,B|451:326,1,50,0|0,3:0|0:0,0:0:0:0:
470,205,24024,5,4,0:0:0:0:
424,133,24211,2,0,P|457:119|491:122,1,69.9999978637696,2|0,0:0|0:0,0:0:0:0:
348,168,24586,1,0,3:0:0:0:
302,239,24774,2,0,P|334:252|368:249,1,69.9999978637696,2|0,0:0|0:0,0:0:0:0:
264,164,25149,2,0,P|229:161|197:174,1,69.9999978637696,2|0,0:0|0:0,0:0:0:0:
143,239,25524,5,2,0:0:0:0:
213,330,25711,2,0,L|223:261,1,69.9999978637696,2|0,0:0|0:0,0:0:0:0:
375,283,26086,1,0,3:0:0:0:
303,374,26274,2,0,L|294:305,1,69.9999978637696,2|0,0:0|0:0,0:0:0:0:
385,213,26649,2,0,L|375:282,1,69.9999978637696,2|0,0:0|0:0,0:0:0:0:
223,260,27024,5,6,0:0:0:0:
200,179,27211,2,0,P|234:176|267:188,1,69.9999978637696,2|0,0:0|0:0,0:0:0:0:
311,259,27586,1,0,3:0:0:0:
334,179,27774,2,0,P|299:176|266:188,1,69.9999978637696,2|0,0:0|0:0,0:0:0:0:
397,122,28149,2,0,P|431:124|464:112,1,69.9999978637696,2|0,0:0|0:0,0:0:0:0:
318,92,28524,5,2,0:0:0:0:
412,13,28711,2,0,L|402:82,1,69.9999978637696,2|0,0:0|0:0,0:0:0:0:
334,178,29086,1,0,3:0:0:0:
240,99,29274,2,0,L|249:168,1,69.9999978637696,2|0,0:0|0:0,0:0:0:0:
327,22,29649,2,0,L|317:91,1,69.9999978637696,2|0,0:0|0:0,0:0:0:0:
162,106,30024,6,0,L|171:175,1,69.9999978637696,6|0,0:0|0:0,0:0:0:0:
214,259,30305,2,0,L|144:249,1,69.9999978637696,2|0,3:2|0:0,0:0:0:0:
62,194,30586,2,0,L|110:187,1,34.9999989318848,2|0,3:2|0:0,0:0:0:0:
240,99,30774,6,0,L|253:192,1,80,6|0,0:0|0:0,0:0:0:0:
293,270,31055,2,0,L|213:258,1,80,2|0,3:2|0:0,0:0:0:0:
125,197,31336,2,0,L|164:191,1,40,2|0,3:2|0:0,0:0:0:0:
317,91,31524,6,0,L|333:209,1,89.9999972534181,6|0,0:0|0:0,0:0:0:0:
382,282,31805,2,0,L|263:265,1,89.9999972534181,2|0,3:2|0:0,0:0:0:0:
192,200,32086,2,0,L|267:189,1,44.999998626709,2|0,3:2|0:0,0:0:0:0:
394,83,32274,6,0,L|410:201,1,100,6|0,0:2|0:0,0:0:0:0:
481,295,32555,2,0,L|362:278,1,100,2|0,0:0|0:0,0:0:0:0:
263,218,32836,2,0,L|348:205,1,50,2|0,0:0|0:0,0:0:0:0:
471,75,33024,6,0,L|487:193,1,110.000003356934,6|0,0:0|0:0,0:0:0:0:
381,281,33305,1,0,0:0:0:0:
381,281,33399,2,0,L|469:268,1,55.0000016784668,8|0,0:0|0:0,0:0:0:0:
360,306,33586,2,0,L|448:293,1,55.0000016784668,8|0,0:0|0:0,0:0:0:0:
486,183,33774,6,0,P|437:160|384:172,1,110.000003356934,10|0,0:0|0:0,0:0:0:0:
306,182,34055,1,2,0:0:0:0:
306,182,34149,2,0,L|318:270,1,55.0000016784668,8|0,0:0|0:0,0:0:0:0:
392,118,34336,2,0,L|379:206,1,55.0000016784668,2|0,0:0|0:0,0:0:0:0:
252,19,34524,5,6,0:0:0:0:
219,120,34711,1,2,0:0:0:0:
306,182,34899,1,2,0:0:0:0:
359,19,35086,1,2,0:0:0:0:
359,19,35180,1,0,3:0:0:0:
359,19,35274,5,4,3:2:0:0:
306,93,35461,1,4,0:0:0:0:
392,118,35649,1,8,0:0:0:0:
306,182,35836,1,0,1:0:0:0:
425,217,36024,6,0,B|465:245|465:245|342:313,1,150.000005722046,2|0,1:2|0:0,0:0:0:0:
299,342,36305,2,0,B|327:382|327:382|395:259,1,150.000005722046,2|0,1:2|0:0,0:0:0:0:
306,182,36586,1,4,0:0:0:0:
185,268,36774,2,0,L|260:259,1,75.0000028610231,2|0,0:0|0:0,0:0:0:0:
380,191,36961,2,0,L|305:181,1,75.0000028610231,2|0,0:0|0:0,0:0:0:0:
195,119,37149,6,0,P|257:48|251:190,1,300.000011444092,4|0,0:0|0:0,0:0:0:0:
174,191,37711,5,0,3:0:0:0:
163,227,37804,1,0,3:0:0:0:
153,263,37898,1,2,3:0:0:0:
167,286,37992,5,0,3:0:0:0:
177,250,38086,1,0,3:0:0:0:
188,214,38179,1,2,3:0:0:0:
174,191,38274,6,0,P|117:175|61:192,1,119.999996337891,8|0,0:0|0:0,0:0:0:0:
249,133,38649,2,0,P|291:91|305:34,1,119.999996337891,4|0,0:0|0:0,0:0:0:0:
268,232,39024,6,0,B|268:252|274:271|274:271|293:292|293:292|310:300|331:304|331:304|358:298|358:298|375:287|388:272|388:272|396:245|396:245|395:225|388:206|388:206|370:185|370:185|352:176|332:171,1,300,6|0,0:0|0:0,0:0:0:0:
174,191,39399,2,0,B|165:189|147:180|147:180|129:159|129:159|122:140|121:120|121:120|129:93|129:93|142:78|159:67|159:67|186:61|186:61|207:65|224:73|224:73|243:94|243:94|249:113|249:133,1,300,6|0,0:0|0:0,0:0:0:0:
184,296,39774,2,0,B|208:308|208:308|252:308|252:308|272:296|272:296|316:296|316:296|336:308|336:308|384:308|384:308|400:296|400:296|456:296|456:296|472:308,1,300,10|0,0:0|0:0,0:0:0:0:
359,169,40149,6,0,L|359:234,1,64.9999970245363,4|2,3:2|3:0,0:0:0:0:
227,233,40336,2,0,L|227:168,2,64.9999970245363,0|0|0,3:0|3:0|0:0,0:0:0:0:
295,370,40617,5,2,3:0:0:0:
295,370,40711,2,0,P|328:385|360:384,1,64.9999970245363,2|0,2:0|3:0,0:0:0:0:
344,308,40899,2,0,P|311:293|274:294,1,75.0000028610231
220,351,41086,2,0,P|251:294|227:233,1,135.000000514984,4|0,0:0|0:0,0:0:0:0:
104,292,41461,1,0,3:0:0:0:
104,292,41555,1,0,3:0:0:0:
104,292,41649,2,0,L|172:289,1,67.5000002574921,2|0,1:2|0:0,0:0:0:0:
197,156,41836,2,0,L|264:152,1,67.5000002574921,2|0,0:0|0:0,0:0:0:0:
361,224,42024,6,0,L|226:232,1,135.000000514984,4|0,0:0|0:0,0:0:0:0:
431,199,42399,2,0,L|341:300,1,135.000000514984,4|2,0:0|3:0,0:0:0:0:
268,375,42680,1,0,3:0:0:0:
268,375,42774,2,0,L|262:276,1,67.5000002574921,2|0,1:2|0:0,0:0:0:0:
221,164,42961,2,0,L|225:231,1,67.5000002574921,2|0,0:0|0:0,0:0:0:0:
201,155,43336,6,0,B|251:183|299:154|299:154|347:123|415:169,1,200,4|0,0:0|0:0,0:0:0:0:
251,88,43899,1,0,1:0:0:0:
341,221,44086,2,0,P|412:235|473:162,1,170.000003242493,4|0,0:0|0:0,0:0:0:0:
391,154,44555,1,2,0:0:0:0:
391,154,44649,2,0,L|395:255,1,85.0000016212464,2|0,1:2|1:0,0:0:0:0:
251,322,45024,6,0,B|318:299|318:299|491:341,1,225.000008583069,6|0,0:0|0:0,0:0:0:0:
308,221,45399,2,0,B|194:261|194:261|129:247|129:247|12:288,1,262.500002503395,6|0,0:0|0:0,0:0:0:0:
106,160,45774,2,0,B|190:181|190:181|274:152,2,175.00000166893,10|4|0,0:0|0:0|0:0,0:0:0:0:
407,227,46336,6,0,P|365:115|307:220,1,300.000011444092,4|0,0:0|1:0,0:0:0:0:
389,365,46899,1,0,0:0:0:0:
349,293,47086,5,0,3:0:0:0:
328,328,47180,1,0,3:0:0:0:
307,364,47274,1,8,0:0:0:0:
450,275,47461,6,0,L|429:364,1,75.0000028610231,2|2,0:0|0:0,0:0:0:0:
345,205,47649,2,0,L|348:296,1,87.500000834465,2|2,0:0|0:0,0:0:0:0:
244,288,47836,2,0,L|287:429,1,100,2|2,0:0|0:0,0:0:0:0:
55,212,48024,6,0,B|62:184|62:184|45:165|45:165|48:154|48:154|72:146|72:146|98:120|98:120|106:96|106:96|116:93|116:93|135:109|135:109|170:118|170:118|195:113|195:113|203:121|203:121|198:146|198:146|209:181|209:181|226:200|226:200|223:210|223:210|198:219|198:219|174:244|174:244|166:269|166:269|156:272|156:272|136:255|136:255|101:245|101:245|77:253|77:253|47:233,1,500,6|0,0:0|0:0,0:0:0:0:
450,275,48399,2,0,B|443:247|443:247|460:228|460:228|457:217|457:217|433:209|433:209|407:183|407:183|399:159|399:159|389:156|389:156|370:172|370:172|335:181|335:181|310:176|310:176|302:184|302:184|307:209|307:209|296:244|296:244|279:263|279:263|282:273|282:273|307:282|307:282|331:307|331:307|339:332|339:332|349:335|349:335|369:318|369:318|404:308|404:308|428:316|428:316|458:296,1,500,6|0,0:0|0:0,0:0:0:0:
425,85,48774,2,0,B|376:75|376:75|333:99,1,100,4|0,0:0|0:0,0:0:0:0:
201,274,48961,2,0,B|216:322|216:322|259:347,1,100,2|0,0:0|0:0,0:0:0:0:
492,362,49149,2,0,B|525:324|525:324|526:274,1,100,4|0,0:0|0:0,0:0:0:0:
370,246,49524,5,4,3:2:0:0:
370,246,49617,1,0,3:0:0:0:
370,246,49711,1,0,3:0:0:0:
201,274,49899,1,4,3:2:0:0:
206,249,49992,1,0,3:0:0:0:
211,225,50086,1,0,3:0:0:0:
216,200,50180,1,0,3:0:0:0:
221,176,50274,6,0,L|128:188,1,64.9999970245363,8|0,0:0|0:0,0:0:0:0:
74,194,50461,2,0,L|-19:206,1,64.9999970245363,4|0,0:0|0:0,0:0:0:0:
176,96,50649,6,0,L|156:184,1,89.9999972534181,8|0,0:0|0:0,0:0:0:0:
135,271,50836,2,0,L|114:358,1,89.9999972534181,4|0,0:0|0:0,0:0:0:0:
243,180,51024,6,0,B|269:165|269:165|297:171|297:171|316:192|316:192|319:220|319:220|306:245|306:245|280:258|280:258|252:251|252:251|228:263|228:263|214:288|214:288|217:316|217:316|237:338|237:338|264:343|264:343|290:330,1,357.142857142857,6|0,0:0|0:0,0:0:0:0:
125,189,51399,5,2,0:0:0:0:
133,176,51492,1,2,0:0:0:0:
148,166,51586,1,2,0:0:0:0:
172,163,51680,1,2,0:0:0:0:
200,172,51774,1,2,0:0:0:0:
221,199,51867,1,0,0:0:0:0:
254,221,51961,1,2,0:0:0:0:
298,221,52055,1,2,0:0:0:0:
338,191,52149,6,0,P|308:189|245:243,1,75.0000028610231,6|0,0:0|0:0,0:0:0:0:
285,340,52336,2,0,P|312:306|318:263,1,87.500000834465,2|0,0:0|0:0,0:0:0:0:
232,85,52524,5,0,0:0:0:0:
193,111,52617,1,2,0:0:0:0:
172,163,52711,1,2,0:0:0:0:
183,227,52805,1,2,0:0:0:0:
242,275,52899,6,0,L|341:280,1,100,8|0,0:0|0:0,0:0:0:0:
432,149,53086,6,0,L|345:98,1,92.4999996471405,4|0,0:0|0:0,0:0:0:0:
218,185,53274,6,0,L|272:268,1,85.0000016212464,2|0,0:0|0:0,0:0:0:0:
419,234,53461,6,0,L|408:134,1,77.5000005912781,2|0,0:0|0:0,0:0:0:0:
261,117,53649,6,0,L|224:210,1,69.9999978637696,6|0,0:0|0:0,0:0:0:0:
358,276,53836,6,0,L|432:209,1,62.5
289,37,54024,6,0,P|211:48|178:120,1,165.000005035401,4|0,0:2|0:0,0:0:0:0:
352,102,54399,2,0,B|436:102|436:102|412:106|384:152,1,129.999994049073,4|2,0:2|0:3,0:0:0:0:
459,171,54680,1,0,0:0:0:0:
463,175,54774,2,0,L|463:259,1,64.9999970245363,2|0,1:2|0:0,0:0:0:0:
351,217,54961,2,0,B|390:202|390:202|391:309,1,129.999994049073,2|0,1:2|0:0,0:0:0:0:
184,296,55336,6,0,B|247:275|248:315|310:289|310:289|325:317|288:359,1,200,6|0,0:0|0:0,0:0:0:0:
270,221,55899,1,0,1:0:0:0:
123,250,56086,2,0,P|107:297|123:344,1,100,6|0,0:0|0:0,0:0:0:0:
169,190,56461,1,0,3:0:0:0:
122,174,56554,1,0,3:0:0:0:
75,190,56648,1,2,1:2:0:0:
184,296,56836,1,0,1:0:0:0:
305,81,57024,6,0,B|314:20|314:20|166:103|166:103|230:125,1,300,6|0,0:0|0:0,0:0:0:0:
319,177,57399,2,0,B|419:127|419:127|189:125,1,300,10|0,0:0|0:0,0:0:0:0:
269,259,57774,2,0,L|375:259,1,100,8|0,0:0|0:0,0:0:0:0:
180,207,57961,2,0,P|176:300|255:361,1,175.00000166893,4|0,0:0|0:0,0:0:0:0:
276,86,58336,6,0,L|35:87,1,225.000008583069,6|0,0:0|0:0,0:0:0:0:
94,177,58711,2,0,L|34:177,1,59.9999981689454,2|0,1:2|0:0,0:0:0:0:
14,262,58899,2,0,L|74:261,1,59.9999981689454,2|0,0:0|0:0,0:0:0:0:
0,347,59086,1,0,3:0:0:0:
0,347,59179,1,0,3:0:0:0:
0,346,59274,2,0,P|87:267|212:291,1,239.999992675781,8|0,0:0|0:0,0:0:0:0:
201,283,60024,6,0,L|222:193,2,75.0000028610231,6|0|0,0:0|0:0|0:0,0:0:0:0:
260,326,60586,1,2,0:0:0:0:
409,277,60774,2,0,P|353:232|284:254,1,150.000005722046,10|0,0:0|0:0,0:0:0:0:
340,305,61336,6,0,L|377:144,1,150.000005722046,6|0,0:0|0:0,0:0:0:0:
302,134,61899,1,2,0:0:0:0:
342,13,62086,2,0,L|360:87,1,75.0000028610231,2|8,0:0|0:0,0:0:0:0:
243,86,62461,6,0,L|259:20,1,37.5000014305115,4|0,0:0|0:0,0:0:0:0:
302,134,62649,2,0,L|310:170,1,37.5000014305115,4|0,0:0|0:0,0:0:0:0:
251,218,62836,2,0,L|242:254,1,37.5000014305115,4|0,0:0|0:0,0:0:0:0:
318,375,63024,6,0,L|302:302,1,75.0000028610231,6|0,0:0|0:0,0:0:0:0:
344,239,63399,2,0,P|374:264|411:268,1,75.0000028610231,2|0,0:0|0:0,0:0:0:0:
397,122,63774,2,0,P|410:156|404:192,1,75.0000028610231,10|0,0:0|0:0,0:0:0:0:
334,165,64149,1,0,0:0:0:0:
354,59,64336,6,0,B|402:29|449:64|449:64|448:11,1,150.000005722046,6|0,0:0|0:0,0:0:0:0:
291,102,64899,1,2,0:0:0:0:
404,192,65086,2,0,P|410:156|397:122,1,75.0000028610231,4|8,0:0|0:0,0:0:0:0:
334,165,65461,2,0,L|288:195,1,37.5000014305115,2|0,3:0|3:0,0:0:0:0:
313,266,65649,2,0,L|344:245,1,37.5000014305115,2|0,3:2|3:0,0:0:0:0:
244,234,65836,1,2,0:0:0:0:
179,324,66024,6,0,P|211:307|249:308,2,75.0000028610231,6|2|2,0:0|0:0|0:0,0:0:0:0:
229,379,66586,1,2,0:0:0:0:
342,278,66774,2,0,B|291:245|234:274|234:274|249:309,1,150.000005722046,8|0,0:0|0:0,0:0:0:0:
380,343,67336,6,0,P|352:276|393:217,1,150.000005722046,4|0,0:0|0:0,0:0:0:0:
426,285,67899,1,2,0:0:0:0:
500,285,68086,2,0,P|491:248|466:222,1,75.0000028610231,4|8,0:0|0:0,0:0:0:0:
438,115,68461,2,0,L|434:153,1,37.5000014305115,4|0,0:0|0:0,0:0:0:0:
508,160,68649,2,0,L|512:122,1,37.5000014305115,4|0,0:0|0:0,0:0:0:0:
481,53,68836,1,4,1:0:0:0:
268,42,69211,5,2,0:0:0:0:
280,116,69399,1,2,0:0:0:0:
338,68,69586,1,4,0:0:0:0:
362,216,69774,5,8,0:0:0:0:
350,142,69961,1,2,0:0:0:0:
292,190,70149,1,2,0:0:0:0:
374,289,70336,6,0,P|430:245|423:173,1,150.000005722046,4|0,0:0|1:0,0:0:0:0:
362,216,70899,1,2,0:0:0:0:
301,302,71086,2,0,L|397:309,1,75.0000028610231,4|0,0:0|0:0,0:0:0:0:
288,228,71461,1,0,1:0:0:0:
234,337,71649,1,4,0:0:0:0:
213,217,71836,1,0,0:0:0:0:
105,289,72024,6,0,L|180:284,1,75.0000028610231,4|0,0:0|0:0,0:0:0:0:
218,142,72399,2,0,L|212:216,1,75.0000028610231,2|0,0:0|0:0,0:0:0:0:
98,213,72774,2,0,L|136:211,1,37.5000014305115,8|0,0:0|0:0,0:0:0:0:
147,60,72961,2,0,L|141:134,1,75.0000028610231,2|0,0:0|0:0,0:0:0:0:
222,64,73336,6,0,P|280:95|287:179,1,150.000005722046,4|0,0:0|0:0,0:0:0:0:
211,216,73899,1,2,0:0:0:0:
218,142,74086,1,2,0:0:0:0:
282,246,74274,2,0,P|301:246|319:242,1,37.5000014305115,8|0,0:0|0:0,0:0:0:0:
364,179,74461,2,0,P|363:160|359:142,1,37.5000014305115,4|0,0:0|0:0,0:0:0:0:
296,97,74649,2,0,P|277:97|259:101,1,37.5000014305115,4|0,0:0|0:0,0:0:0:0:
214,164,74836,2,0,P|214:182|218:200,1,37.5000014305115,4|0,0:0|0:0,0:0:0:0:
289,172,75024,5,6,0:0:0:0:
289,172,75211,1,2,0:0:0:0:
364,65,75399,1,2,0:0:0:0:
364,65,75586,1,0,0:0:0:0:
234,53,75774,2,0,P|222:89|226:126,1,75.0000028610231,8|0,0:0|0:0,0:0:0:0:
296,97,76149,1,2,0:0:0:0:
129,45,76336,6,0,P|201:60|226:127,1,150.000005722046,4|0,0:0|0:0,0:0:0:0:
137,193,76899,1,2,0:0:0:0:
152,120,77086,1,4,0:0:0:0:
161,263,77274,1,8,0:0:0:0:
210,207,77461,1,2,0:0:0:0:
146,335,77649,1,2,3:0:0:0:
164,336,77742,1,2,0:3:0:0:
183,333,77836,1,0,3:0:0:0:
200,326,77930,1,2,3:0:0:0:
214,314,78024,6,0,P|245:294|298:297,1,86.0000013122559,6|0,0:0|0:0,0:0:0:0:
405,289,78399,2,0,P|369:267|350:230,1,86.0000013122559,2|0,0:0|0:0,0:0:0:0:
436,164,78774,2,0,L|433:207,1,43.0000006561279,8|0,0:0|0:0,0:0:0:0:
379,99,78961,2,0,P|415:77|458:80,1,86.0000013122559,2|0,0:0|0:0,0:0:0:0:
315,157,79336,6,0,P|253:98|152:145,1,172.000002624512,4|0,0:0|0:0,0:0:0:0:
192,256,79899,1,2,0:0:0:0:
277,254,80086,1,2,0:0:0:0:
233,181,80274,6,0,L|231:248,1,43.0000006561279,8|0,0:0|0:0,0:0:0:0:
235,328,80461,2,0,L|294:296,1,43.0000006561279,4|0,0:0|0:0,0:0:0:0:
361,252,80649,2,0,L|303:216,1,43.0000006561279,4|0,0:0|0:0,0:0:0:0:
168,279,80836,6,0,B|90:353|90:353|160:353,1,172.000002624512,4|0,0:0|0:0,0:0:0:0:
111,225,81399,2,0,B|33:299,1,86.0000013122559,2|0,0:0|0:0,0:0:0:0:
235,328,81774,5,8,0:0:0:0:
216,245,81961,1,0,0:0:0:0:
317,309,82148,1,0,0:0:0:0:
299,226,82336,1,4,0:0:0:0:
197,331,82524,5,2,0:0:0:0:
212,207,82711,1,0,0:0:0:0:
319,346,82898,1,8,0:0:0:0:
336,222,83086,1,4,0:0:0:0:
249,312,83274,1,0,0:0:0:0:
371,289,83461,1,4,0:0:0:0:
259,233,83649,1,8,0:0:0:0:
237,233,83742,1,0,0:0:0:0:
217,240,83836,1,0,0:0:0:0:
198,251,83930,1,0,0:0:0:0:
183,266,84024,5,4,0:0:0:0:
371,289,84399,1,2,3:0:0:0:
297,115,84774,1,2,0:3:0:0:
311,189,84961,1,2,0:0:0:0:
418,127,85149,1,2,0:3:0:0:
387,196,85336,1,0,0:0:0:0:
361,76,85524,5,2,0:3:0:0:
433,48,85711,2,0,L|523:55,1,69.9999978637696,2|2,0:0|0:3,0:0:0:0:
346,155,86086,1,2,0:0:0:0:
418,127,86274,2,0,L|508:134,1,69.9999978637696,2|0,0:3|0:0,0:0:0:0:
331,234,86649,1,2,0:3:0:0:
403,206,86836,1,0,0:0:0:0:
378,358,87024,5,4,0:0:0:0:
319,309,87211,2,0,P|304:341|304:376,1,69.9999978637696,2|2,0:0|0:3,0:0:0:0:
134,358,87586,1,2,0:0:0:0:
192,309,87773,2,0,P|207:341|207:376,1,69.9999978637696,2|0,0:3|0:0,0:0:0:0:
109,206,88149,1,2,0:3:0:0:
253,262,88336,1,0,0:0:0:0:
120,282,88524,5,2,0:3:0:0:
169,157,88711,2,0,L|252:146,1,69.9999978637696,2|2,0:0|0:3,0:0:0:0:
62,99,89086,1,2,0:0:0:0:
50,272,89274,2,0,L|133:283,1,69.9999978637696,2|0,0:3|0:0,0:0:0:0:
324,190,89649,5,2,0:3:0:0:
214,353,89836,1,0,0:0:0:0:
410,367,90024,6,0,L|502:328,1,69.9999978637696,6|0,0:0|0:0,0:0:0:0:
380,279,90305,2,0,L|479:266,1,69.9999978637696,2|0,3:2|0:0,0:0:0:0:
374,186,90586,2,0,L|423:192,1,34.9999989318848,2|0,3:2|0:0,0:0:0:0:
322,377,90774,6,0,L|421:364,1,85.0000016212464,6|0,0:0|0:0,0:0:0:0:
295,266,91055,2,0,L|394:279,1,85.0000016212464,2|0,3:2|0:0,0:0:0:0:
295,152,91336,2,0,L|353:176,1,42.5000008106232,2|0,3:2|0:0,0:0:0:0:
223,363,91524,6,0,L|348:379,1,100,6|0,0:0|0:0,0:0:0:0:
202,228,91805,2,0,L|318:276,1,100,2|0,3:2|0:0,0:0:0:0:
216,92,92086,2,0,L|276:138,1,50,2|0,3:2|0:0,0:0:0:0:
116,318,92274,6,0,L|232:366,1,115.000002193451,4|0,0:0|0:0,0:0:0:0:
110,158,92555,2,0,L|210:235,1,115.000002193451,2|0,3:2|0:0,0:0:0:0:
145,1,92836,2,0,L|198:71,1,57.5000010967255,2|0,3:2|0:0,0:0:0:0:
13,238,93024,6,0,L|157:349,1,129.999994049073,4|0,0:0|0:0,0:0:0:0:
201,228,93305,1,2,0:3:0:0:
201,228,93399,2,0,L|302:217,1,64.9999970245363,8|0,0:0|0:0,0:0:0:0:
317,326,93586,2,0,L|418:337,1,64.9999970245363,8|0,0:0|0:0,0:0:0:0:
385,218,93774,6,0,P|357:275|381:333,1,129.999994049073,4|0,0:0|0:0,0:0:0:0:
498,269,94055,1,2,0:0:0:0:
498,269,94149,2,0,L|434:277,1,64.9999970245363,8|0,0:0|0:0,0:0:0:0:
468,134,94336,2,0,L|460:198,1,64.9999970245363,8|0,0:0|0:0,0:0:0:0:
458,350,94524,5,4,0:0:0:0:
385,218,94711,1,2,0:0:0:0:
308,348,94899,1,2,0:0:0:0:
498,269,95086,1,0,0:0:0:0:
498,269,95180,1,0,3:0:0:0:
498,269,95274,6,0,L|434:277,1,64.9999970245363,4|0,0:0|0:0,0:0:0:0:
380,172,95461,2,0,L|316:164,1,64.9999970245363,4|0,0:0|0:0,0:0:0:0:
361,315,95649,2,0,L|353:251,1,64.9999970245363,8|0,0:0|0:0,0:0:0:0:
468,134,95836,2,0,L|460:198,1,64.9999970245363,4|0,0:0|0:0,0:0:0:0:
259,384,96024,6,0,B|277:235|277:235|149:344,1,300,6|0,0:0|0:0,0:0:0:0:
211,39,96399,2,0,B|193:188|193:188|68:296,1,300,6|0,0:0|0:0,0:0:0:0:
31,210,96774,2,0,B|144:111,1,100,10|0,0:0|0:0,0:0:0:0:
118,45,96961,2,0,B|100:194,1,100,2|0,0:0|0:0,0:0:0:0:
286,140,97149,5,2,0:0:0:0:
307,128,97242,1,2,0:0:0:0:
332,122,97336,1,2,0:0:0:0:
357,125,97430,1,2,0:0:0:0:
423,64,97524,6,0,L|409:-5,1,64.9999970245363,2|0,3:2|0:0,0:0:0:0:
452,141,97711,5,2,0:0:0:0:
427,146,97805,1,2,0:0:0:0:
402,143,97899,1,2,0:0:0:0:
380,135,97993,1,2,0:0:0:0:
336,203,98086,6,0,L|322:272,1,64.9999970245363,2|0,3:2|0:0,0:0:0:0:
428,301,98274,6,0,L|413:227,1,75.0000028610231,4|0,0:0|0:0,0:0:0:0:
306,183,98461,2,0,L|336:335,1,85.0000016212464,4|0,0:0|0:0,0:0:0:0:
394,320,98649,6,0,L|427:155,1,94.9999974632264,8|0,0:0|0:0,0:0:0:0:
325,89,98836,2,0,L|306:182,1,94.9999974632264,4|0,0:0|0:0,0:0:0:0:
191,326,99024,6,0,B|227:318|227:318|231:280|231:280|252:248|252:248|227:219|227:219|219:181|219:181|181:178|181:178|149:157|149:157|119:182|119:182|81:189|81:189|79:228|79:228|57:260|57:260|82:290|82:290|89:328,1,500,4|0,0:0|0:0,0:0:0:0:
155,258,99399,2,0,L|402:230,1,200,6|2,0:0|3:0,0:0:0:0:
410,176,99680,1,0,3:0:0:0:
410,176,99774,6,0,P|431:207|435:245,1,75.0000028610231,4|0,0:0|0:0,0:0:0:0:
327,310,99961,2,0,P|331:269|354:235,1,82.5000007867813,2|2,0:0|0:0,0:0:0:0:
440,94,100149,6,0,P|435:138|410:175,1,89.9999972534181,4|0,0:0|0:0,0:0:0:0:
266,146,100336,2,0,P|302:114|350:107,1,97.500000371933,2|2,0:0|0:0,0:0:0:0:
495,21,100524,5,2,0:0:0:0:
468,49,100617,1,2,0:0:0:0:
419,71,100711,1,2,0:0:0:0:
351,61,100805,1,2,0:0:0:0:
289,4,100899,6,0,P|320:40|328:87,1,97.500000371933,10|0,0:0|0:0,0:0:0:0:
205,148,101086,6,0,P|216:106|246:75,1,87.500000834465,4|0,0:0|0:0,0:0:0:0:
350,229,101274,6,0,P|342:191|317:163,1,77.5000005912781,2|0,0:0|0:0,0:0:0:0:
244,288,101461,6,0,P|249:255|271:230,1,67.5000002574921,2|0,0:0|0:0,0:0:0:0:
344,340,101649,6,0,P|409:326|452:275,1,135.000000514984,8|0,0:0|0:0,0:0:0:0:
441,156,102024,6,0,L|453:287,1,119.999996337891,6|0,0:0|0:0,0:0:0:0:
361,109,102399,2,0,L|349:240,1,119.999996337891,6|0,0:0|0:0,0:0:0:0:
280,285,102680,1,0,3:0:0:0:
280,285,102774,2,0,L|220:279,1,59.9999981689454,2|0,1:2|0:0,0:0:0:0:
232,156,102961,2,0,L|270:202,1,59.9999981689454,2|0,1:2|0:0,0:0:0:0:
208,160,103336,6,0,P|267:107|221:-3,1,200,6|0,0:0|0:0,0:0:0:0:
185,76,103899,1,0,1:0:0:0:
356,101,104086,2,0,P|405:91|437:54,1,100,6|0,0:0|0:0,0:0:0:0:
360,16,104461,1,0,3:0:0:0:
360,16,104555,1,0,3:0:0:0:
360,16,104649,6,0,L|358:80,1,50,2|0,1:2|0:0,0:0:0:0:
278,115,104836,2,0,L|280:179,1,50,0|0,1:0|0:0,0:0:0:0:
187,242,105024,6,0,B|235:242|235:242|239:238|239:238|243:242|243:242|323:242|323:242|327:238|327:238|331:242|331:242|383:242|383:242|311:298,1,269.999991760254,6|0,0:0|0:0,0:0:0:0:
120,336,105399,2,0,B|120:284|120:284|108:268|108:268|108:212|108:212|120:196|120:196|120:144|120:144|108:132|108:132|108:72,1,269.999991760254,6|0,0:0|0:0,0:0:0:0:
40,172,105774,2,0,L|168:172,1,80,10|0,0:0|0:0,0:0:0:0:
188,78,105961,2,0,L|108:78,1,80,4|0,0:0|0:0,0:0:0:0:
204,96,106336,6,0,P|300:80|357:196,1,200,4|0,0:0|1:0,0:0:0:0:
234,263,106899,1,0,0:0:0:0:
264,173,107086,5,0,3:0:0:0:
295,208,107180,1,0,3:0:0:0:
328,244,107274,1,8,0:0:0:0:
169,258,107461,6,0,L|269:265,1,64.9999970245363,2|2,0:0|0:0,0:0:0:0:
102,213,107649,6,0,L|185:269,1,80,2|2,0:0|0:0,0:0:0:0:
60,127,107836,6,0,L|103:217,1,94.9999974632264,2|2,0:0|0:0,0:0:0:0:
179,41,108024,6,0,B|224:28|224:28|268:45|268:45|293:84|293:84|290:131|290:131|260:167|260:167|214:179|214:179|169:161|169:161|144:121|144:121|146:73,1,375,6|0,0:0|0:0,0:0:0:0:
102,213,108399,2,0,B|57:200|57:200|13:217|13:217|-12:256|-12:256|-9:303|-9:303|21:339|21:339|67:351|67:351|112:333|112:333|137:293|137:293|135:245,1,375,6|0,0:0|0:0,0:0:0:0:
236,255,108774,2,0,B|363:257|363:257|321:269|307:318,1,200,10|2,0:0|3:0,0:0:0:0:
388,337,109055,1,0,3:0:0:0:
388,337,109149,2,0,P|429:311|447:236,1,100,8|0,0:0|0:0,0:0:0:0:
416,178,109336,5,2,0:0:0:0:
387,157,109430,1,2,0:0:0:0:
347,150,109524,1,2,0:0:0:0:
306,169,109617,1,2,0:0:0:0:
284,214,109711,1,2,0:0:0:0:
244,252,109805,1,2,0:0:0:0:
185,264,109899,1,2,0:0:0:0:
122,248,109992,1,2,0:0:0:0:
81,190,110086,1,2,0:0:0:0:
75,115,110180,1,2,0:0:0:0:
122,50,110274,6,0,B|167:30|167:30|216:42,1,100,8|0,0:0|0:0,0:0:0:0:
268,106,110461,2,0,B|223:126|223:126|174:114,1,100,4|0,0:0|0:0,0:0:0:0:
164,274,110649,6,0,B|214:287|214:287|259:267,1,100,8|0,0:0|0:0,0:0:0:0:
207,203,110836,2,0,B|158:191|158:191|113:211,1,100,4|0,0:0|0:0,0:0:0:0:
160,353,111024,6,0,B|219:368|219:368|289:338|289:338|352:353,1,200,4|0,0:0|0:0,0:0:0:0:
336,127,111399,5,2,0:0:0:0:
333,118,111492,1,2,0:0:0:0:
339,104,111586,1,2,0:0:0:0:
359,95,111680,1,2,0:0:0:0:
384,104,111774,1,10,0:0:0:0:
399,133,111867,1,2,0:0:0:0:
388,169,111961,1,2,0:0:0:0:
348,190,112055,1,2,0:0:0:0:
298,174,112149,1,6,0:0:0:0:
271,121,112242,1,2,0:0:0:0:
292,57,112336,1,2,0:0:0:0:
359,22,112430,1,2,0:0:0:0:
438,46,112524,6,0,P|470:84|473:134,1,100,2|0,1:2|0:0,0:0:0:0:
410,288,112711,2,0,P|427:242|468:215,1,100,2|0,3:2|0:0,0:0:0:0:
305,109,112899,6,0,L|396:115,1,87.500000834465,4|0,0:0|0:0,0:0:0:0:
255,212,113086,2,0,L|346:206,1,87.500000834465,8|0,0:0|0:0,0:0:0:0:
190,117,113274,5,2,0:0:0:0:
167,273,113461,1,0,0:0:0:0:
175,131,113649,5,2,1:2:0:0:
155,259,113836,1,0,0:0:0:0:
54,176,114024,6,0,P|148:157|237:192,1,194.999991073609,6|0,0:0|0:0,0:0:0:0:
349,155,114399,2,0,P|286:151|237:192,1,129.999994049073,6|2,0:0|3:0,0:0:0:0:
312,230,114680,1,0,3:0:0:0:
312,230,114774,2,0,P|322:260|321:292,1,64.9999970245363,2|0,1:2|0:0,0:0:0:0:
252,332,114961,2,0,P|241:302|243:270,1,64.9999970245363,2|0,1:2|0:0,0:0:0:0:
292,368,115336,6,0,B|348:383|385:344|385:344|444:320|488:372,1,200,6|0,0:0|0:0,0:0:0:0:
321,292,115899,1,0,1:0:0:0:
411,165,116086,2,0,L|396:264,1,100,6|0,0:0|0:0,0:0:0:0:
273,218,116461,2,0,L|322:210,1,50,4|0,0:0|0:0,0:0:0:0:
240,294,116649,2,0,P|197:269|148:272,1,100,8|0,0:0|0:0,0:0:0:0:
256,373,117024,6,0,B|274:217|274:217|301:176|301:176|282:128|282:128|254:168,1,300,6|0,0:0|0:0,0:0:0:0:
349,248,117399,2,0,B|388:182|388:182|354:97|354:97|442:99|442:99|415:144,1,300,10|0,0:0|0:0,0:0:0:0:
457,216,117774,2,0,L|502:146,1,75.0000028610231,10|0,0:0|0:0,0:0:0:0:
446,22,117961,2,0,L|366:20,1,75.0000028610231,4|0,0:0|0:0,0:0:0:0:
275,106,118149,2,0,L|303:180,1,75.0000028610231,2|0,1:2|0:0,0:0:0:0:
449,178,118336,6,0,B|302:175|302:175|335:262,1,225.000008583069,6|0,0:0|0:0,0:0:0:0:
325,326,118711,2,0,P|361:320|391:298,1,75.0000028610231,2|0,1:2|0:0,0:0:0:0:
234,211,118899,2,0,L|261:282,1,75.0000028610231,2|0,0:0|0:0,0:0:0:0:
314,103,119086,2,0,L|301:177,1,75.0000028610231,2|0,1:2|0:0,0:0:0:0:
252,54,119274,5,10,0:0:0:0:
253,47,120024,5,6,0:0:0:0:
238,125,120211,1,0,0:0:0:0:
316,140,120399,1,0,0:0:0:0:
331,62,120586,1,2,0:0:0:0:
176,73,120774,2,0,P|160:148|213:203,1,160,8|0,0:0|0:0,0:0:0:0:
345,237,121336,6,0,P|288:185|213:203,1,160,4|0,0:0|0:0,0:0:0:0:
194,280,121899,2,0,P|233:280|268:261,1,80,2|0,0:0|0:0,0:0:0:0:
161,143,122274,1,8,0:0:0:0:
138,221,122461,6,0,L|83:227,1,40,4|0,0:0|0:0,0:0:0:0:
115,299,122649,2,0,L|60:305,1,40,4|0,0:0|0:0,0:0:0:0:
92,377,122836,2,0,L|37:383,1,40,4|0,0:0|0:0,0:0:0:0:
195,279,123024,6,0,P|231:264|271:266,1,80,6|0,0:0|0:0,0:0:0:0:
320,358,123399,2,0,P|281:359|244:344,1,80,2|0,0:0|0:0,0:0:0:0:
411,280,123774,2,0,L|403:359,1,80,8|0,0:0|0:0,0:0:0:0:
344,232,124149,1,2,0:0:0:0:
478,165,124336,6,0,L|485:244,2,80,6|0|2,0:0|0:0|0:0,0:0:0:0:
405,131,124899,1,2,0:0:0:0:
344,232,125086,1,4,0:0:0:0:
332,97,125274,1,8,0:0:0:0:
265,142,125461,6,0,P|256:126|251:105,1,40,0|0,3:0|3:0,0:0:0:0:
325,16,125649,2,0,P|344:15|364:21,1,40,6|0,3:2|0:0,0:0:0:0:
405,131,125836,2,0,P|395:148|380:162,1,40,2|0,0:0|0:0,0:0:0:0:
332,97,126024,5,6,0:0:0:0:
436,54,126211,2,0,P|467:75|486:121,1,80,2|0,0:0|0:0,0:0:0:0:
405,131,126586,1,2,0:0:0:0:
324,16,126774,2,0,P|287:29|260:58,1,80,10|0,0:0|0:0,0:0:0:0:
339,177,127149,1,2,0:0:0:0:
436,54,127336,6,0,P|467:75|486:121,2,80,4|0|0,0:0|0:0|0:0,0:0:0:0:
332,97,127899,1,2,0:0:0:0:
405,131,128086,1,0,0:0:0:0:
267,144,128274,1,8,0:0:0:0:
259,63,128461,2,0,L|257:10,1,40,4|0,0:0|0:0,0:0:0:0:
186,152,128649,2,0,L|133:154,1,40,4|0,0:0|0:0,0:0:0:0:
149,35,128836,6,0,L|275:151,1,160,6|0,0:0|0:0,0:0:0:0:
341,129,129399,2,0,P|302:125|267:142,1,80,2|4,0:0|0:0,0:0:0:0:
289,283,129774,1,8,0:0:0:0:
391,233,129961,1,0,0:0:0:0:
315,207,130149,1,2,0:0:0:0:
365,309,130336,6,0,P|433:301|468:213,1,160,6|8,0:0|0:0,0:0:0:0:
315,207,130899,1,2,0:0:0:0:
407,80,131086,1,2,0:0:0:0:
407,80,131180,1,2,0:0:0:0:
407,80,131274,1,8,0:0:0:0:
397,170,131461,5,8,0:0:0:0:
