osu file format v14

[General]
AudioFilename: velocity.mp3
AudioLeadIn: 0
PreviewTime: 34336
Countdown: 0
SampleSet: Soft
StackLeniency: 0.4
Mode: 0
LetterboxInBreaks: 0
WidescreenStoryboard: 0

[Editor]
Bookmarks: 36024,96024
DistanceSpacing: 1.2
BeatDivisor: 4
GridSize: 8
TimelineZoom: 1.9

[Metadata]
Title:Velocity
TitleUnicode:Velocity
Artist:M2U
ArtistUnicode:M2U
Creator:Karen
Version:Left's Insane
Source:
Tags:mmc mmc2 modhelp mapping contest yabai futurebass Ascendance sahuang My Angel Azusa ErunamoJAZZ Left thzz Monstrata
BeatmapID:1265816
BeatmapSetID:593985

[Difficulty]
HPDrainRate:6
CircleSize:4
OverallDifficulty:8
ApproachRate:9
SliderMultiplier:1.55
SliderTickRate:1

[Events]
//Background and Video events
0,0,"bg 1920.jpg",0,0
//Break Periods
//Storyboard Layer 0 (Background)
//Storyboard Layer 1 (Fail)
//Storyboard Layer 2 (Pass)
//Storyboard Layer 3 (Foreground)
//Storyboard Sound Samples

[TimingPoints]
24,375,4,2,1,70,1,0
774,-142.857142857143,4,2,1,70,0,0
1524,-100,4,2,1,70,0,0
2274,-142.857142857143,4,2,1,70,0,0
3024,-100,4,2,1,70,0,0
3774,-142.857142857143,4,2,1,70,0,0
4524,-100,4,2,1,70,0,0
6774,-142.857142857143,4,2,1,70,0,0
7524,-100,4,2,1,70,0,0
8274,-142.857142857143,4,2,1,70,0,0
9024,-100,4,2,1,70,0,0
24774,-117.647058823529,4,2,1,70,0,0
27024,-100,4,2,1,70,0,0
27774,-117.647058823529,4,2,1,70,0,0
30024,-100,4,2,1,70,0,0
32274,-111.111111111111,4,2,1,70,0,0
33024,-125,4,2,1,70,0,0
35274,-100,4,2,1,70,0,0
35649,-66.6666666666667,4,2,1,70,0,0
36024,-125,4,2,1,70,0,0
36586,-71.4285714285714,4,2,1,70,0,0
37149,-125,4,2,1,70,0,0
38274,-90.9090909090909,4,2,1,70,0,0
38649,-76.9230769230769,4,2,1,70,0,0
39024,-62.5,4,2,1,70,0,0
39399,-76.9230769230769,4,2,1,70,0,0
39774,-62.5,4,2,1,70,0,0
41086,-125,4,2,1,70,0,0
42024,-90.9090909090909,4,2,1,70,0,0
45024,-62.5,4,2,1,70,0,0
46336,-90.9090909090909,4,2,1,70,0,0
48024,-62.5,4,2,1,70,0,0
50649,-57.1428571428571,4,2,1,70,0,0
51024,-111.111111111111,4,2,1,70,0,0
51774,-62.5,4,2,1,70,0,0
54024,-90.9090909090909,4,2,1,70,0,0
57024,-62.5,4,2,1,70,0,0
58336,-90.9090909090909,4,2,1,70,0,0
60024,-117.647058823529,4,2,1,70,0,0
87024,-100,4,2,1,70,0,0
87774,-117.647058823529,4,2,1,70,0,0
90024,-100,4,2,1,70,0,0
92274,-111.111111111111,4,2,1,70,0,0
93024,-125,4,2,1,70,0,0
95274,-100,4,2,1,70,0,0
95649,-66.6666666666667,4,2,1,70,0,0
96024,-62.5,4,2,1,70,0,0
99024,-125,4,2,1,70,0,0
99399,-62.5,4,2,1,70,0,0
102024,-90.9090909090909,4,2,1,70,0,0
105024,-62.5,4,2,1,70,0,0
106336,-90.9090909090909,4,2,1,70,0,0
108024,-62.5,4,2,1,70,0,0
111399,-111.111111111111,4,2,1,70,0,0
111774,-62.5,4,2,1,70,0,0
113086,-90.9090909090909,4,2,1,70,0,0
117024,-62.5,4,2,1,70,0,0
118336,-90.9090909090909,4,2,1,70,0,0
120024,-117.647058823529,4,2,1,70,0,0

[Colours]
Combo1 : 128,0,255
Combo2 : 255,255,60
Combo3 : 255,0,0
Combo4 : 96,175,255

[HitObjects]
101,283,24,6,0,B|130:236|99:169|99:169|71:98|112:55,1,232.5,4|0,0:0|0:0,0:0:0:0:
249,84,774,6,0,P|221:127|170:116,1,108.499996688843,10|2,0:0|0:0,0:0:0:0:
171,117,1336,1,0,0:0:0:0:
309,227,1524,6,0,P|371:136|471:209,1,232.5,4|0,0:0|0:0,0:0:0:0:
414,321,2274,6,0,L|388:206,1,108.499996688843,10|0,0:0|0:0,0:0:0:0:
390,215,2836,1,0,0:0:0:0:
216,266,3024,6,0,B|269:173|258:73|132:133|190:196,1,232.5,4|0,0:0|0:0,0:0:0:0:
216,266,3774,6,0,P|143:266|106:227,1,108.499996688843,10|2,0:0|0:0,0:0:0:0:
117,245,4336,1,0,0:0:0:0:
161,52,4524,6,0,B|179:192,1,116.25,4|0,0:0|0:0,0:0:0:0:
166,180,4899,1,2,0:0:0:0:
91,119,5086,2,0,L|5:133,1,77.5,0|10,0:0|0:0,0:0:0:0:
242,167,5461,1,0,0:0:0:0:
242,167,5649,2,0,B|165:179,1,77.5,2|0,0:0|0:0,0:0:0:0:
91,216,6024,6,0,B|75:378|75:378|89:338|135:327,1,232.5,4|0,0:0|0:0,0:0:0:0:
99,135,6774,6,0,P|35:153|11:199,1,108.499996688843,10|2,0:0|0:0,0:0:0:0:
14,187,7336,1,0,0:0:0:0:
176,237,7524,6,0,B|231:216|287:260|287:260|348:305|409:269,1,232.5,4|0,0:0|0:0,0:0:0:0:
380,114,8274,6,0,P|338:169|356:208,1,108.499996688843,10|2,0:0|0:0,0:0:0:0:
349,200,8836,1,0,0:0:0:0:
258,302,9024,6,0,P|274:238|145:219,1,232.5,4|0,0:0|0:0,0:0:0:0:
258,302,9774,1,10,0:0:0:0:
335,294,9961,1,0,0:0:0:0:
413,284,10149,1,2,0:0:0:0:
413,284,10336,1,0,0:0:0:0:
290,95,10524,6,0,L|275:239,1,116.25,4|0,0:0|0:0,0:0:0:0:
289,223,10899,1,2,0:0:0:0:
211,103,11086,2,0,L|201:211,1,77.5,0|10,0:0|0:0,0:0:0:0:
63,271,11461,1,0,0:0:0:0:
135,219,11649,2,0,L|150:326,1,77.5,4|0,0:0|0:0,0:0:0:0:
225,322,12024,6,0,P|142:319|67:375,2,155,2|2|10,1:2|0:0|0:0,0:0:0:0:
355,290,12961,2,0,P|314:268|270:276,1,77.5,0|2,0:0|0:0,0:0:0:0:
300,348,13336,6,0,B|312:180,1,155,4|0,0:0|0:0,0:0:0:0:
264,127,13899,2,0,L|269:49,1,77.5,2|2,0:0|0:0,0:0:0:0:
29,167,14274,5,10,0:0:0:0:
29,167,14367,1,2,0:0:0:0:
29,167,14461,2,0,L|90:157,1,38.75,4|0,0:0|0:0,0:0:0:0:
145,148,14649,2,0,L|206:138,1,38.75,4|0,0:0|0:0,0:0:0:0:
264,127,14836,2,0,L|325:117,1,38.75,4|0,0:0|0:0,0:0:0:0:
338,235,15024,6,0,P|267:238|233:183,1,116.25,4|0,0:0|0:0,0:0:0:0:
239,208,15399,2,0,P|260:249|247:311,1,77.5,2|0,0:0|0:0,0:0:0:0:
126,331,15774,1,10,0:0:0:0:
179,267,15961,1,0,0:0:0:0:
207,343,16149,1,2,0:0:0:0:
308,211,16336,6,0,B|346:195|384:217|384:217|435:243|483:204,1,155,4|0,0:0|0:0,0:0:0:0:
284,134,16899,1,2,0:0:0:0:
249,266,17086,2,0,P|228:221|245:161,1,77.5,4|10,0:0|0:0,0:0:0:0:
287,95,17461,1,4,3:0:0:0:
287,95,17554,1,0,3:0:0:0:
287,95,17649,2,0,L|282:148,2,38.75,4|0|4,3:0|3:0|3:0,0:0:0:0:
364,205,18024,6,0,P|298:173|199:184,2,155,4|2|10,0:0|0:0|0:0,0:0:0:0:
124,232,18961,2,0,P|135:190|138:141,1,77.5,0|2,0:0|0:0,0:0:0:0:
218,176,19336,6,0,P|215:139|196:77,1,77.5,0|4,0:0|0:0,0:0:0:0:
114,76,19711,1,0,0:0:0:0:
35,129,19899,2,0,P|37:163|48:208,1,77.5,2|2,0:0|0:0,0:0:0:0:
143,313,20274,5,10,0:0:0:0:
143,313,20367,1,2,0:0:0:0:
143,313,20461,2,0,L|204:303,1,38.75,4|0,0:0|0:0,0:0:0:0:
259,294,20649,2,0,L|320:284,1,38.75,4|0,0:0|0:0,0:0:0:0:
378,273,20836,2,0,L|439:263,1,38.75,4|0,0:0|0:0,0:0:0:0:
358,137,21024,5,4,0:0:0:0:
325,212,21211,1,0,0:0:0:0:
358,137,21399,2,0,P|352:88|340:48,1,77.5,2|0,0:0|0:0,0:0:0:0:
408,201,21774,5,10,0:0:0:0:
279,141,21961,2,0,P|238:146|186:167,1,77.5,0|2,0:0|0:0,0:0:0:0:
13,221,22336,6,0,P|86:222|162:259,1,155,4|0,0:0|0:0,0:0:0:0:
98,189,22899,1,10,0:0:0:0:
158,256,23086,2,0,P|209:245|240:221,1,77.5
284,83,23461,1,4,3:3:0:0:
253,88,23554,1,0,3:0:0:0:
235,115,23648,1,4,3:3:0:0:
243,145,23742,1,0,3:0:0:0:
270,161,23836,1,4,3:3:0:0:
300,152,23929,1,0,3:0:0:0:
315,124,24024,6,0,B|308:282,1,155,2|8,1:2|0:0,0:0:0:0:
308,278,24774,5,8,0:0:0:0:
254,338,24961,2,0,P|185:346|145:279,1,131.750002512932,0|0,0:0|1:0,0:0:0:0:
142,317,25524,6,0,P|204:319|233:242,1,131.750002512932,8|8,0:0|0:0,0:0:0:0:
199,192,26086,2,0,P|187:154|184:111,1,65.8750012564659,0|8,0:0|0:0,0:0:0:0:
268,112,26461,1,0,0:0:0:0:
268,112,26555,1,0,0:0:0:0:
268,112,26649,2,0,P|278:143|282:196,1,65.8750012564659,8|0,0:0|1:0,0:0:0:0:
390,334,27024,6,0,P|338:280|257:314,1,155,12|8,0:0|0:0,0:0:0:0:
267,299,27774,5,8,0:0:0:0:
182,322,27961,2,0,L|200:179,1,131.750002512932,0|0,0:0|1:0,0:0:0:0:
186,205,28524,6,0,L|168:63,1,131.750002512932,8|8,0:0|0:0,0:0:0:0:
96,114,29086,2,0,L|107:193,1,65.8750012564659,0|8,0:0|0:0,0:0:0:0:
186,205,29461,1,0,0:0:0:0:
186,205,29554,1,0,0:0:0:0:
186,205,29648,1,8,0:0:0:0:
254,153,29836,1,0,1:0:0:0:
366,260,30024,6,0,P|331:231|248:245,1,116.25,0|0,1:0|0:0,0:0:0:0:
252,222,30399,1,4,0:0:0:0:
252,222,30586,1,0,0:0:0:0:
117,128,30774,6,0,P|152:99|235:113,1,116.25,0|0,1:0|0:0,0:0:0:0:
236,91,31149,1,4,0:0:0:0:
236,91,31336,1,0,0:0:0:0:
395,21,31524,6,0,P|368:82|388:134,1,116.25,0|0,1:0|0:0,0:0:0:0:
371,143,31899,1,4,0:0:0:0:
371,143,32086,1,0,0:0:0:0:
319,315,32274,6,0,P|326:260|293:214,1,104.624996807098,0|0,1:0|0:0,0:0:0:0:
309,201,32649,1,4,0:0:0:0:
309,201,32836,1,0,0:0:0:0:
224,254,33024,6,0,L|116:247,1,93,2|2,0:0|0:0,0:0:0:0:
118,235,33399,2,0,P|125:203|156:172,1,62,0|2,0:0|0:0,0:0:0:0:
80,130,33774,2,0,P|117:103|180:107,2,93,2|2|2,0:0|0:0|0:0,0:0:0:0:
324,170,34524,5,6,0:0:0:0:
324,170,35086,1,2,0:0:0:0:
324,170,35180,1,0,0:0:0:0:
324,170,35274,2,0,L|334:234,1,38.75,4|4,0:0|0:0,0:0:0:0:
351,327,35461,2,0,L|343:280,1,38.75,4|4,0:0|0:0,0:0:0:0:
503,225,35649,6,0,L|307:206,1,174.375006651879,2|0,1:2|0:0,0:0:0:0:
172,267,36024,6,0,P|233:241|272:257,1,93,2|0,1:0|0:0,0:0:0:0:
269,262,36399,1,10,1:2:0:0:
119,161,36586,6,0,P|188:118|288:159,1,162.749995033264,2|0,0:1|0:0,0:0:0:0:
275,152,36961,1,2,1:2:0:0:
208,207,37149,6,0,L|227:349,1,124,2|0,1:0|0:0,0:0:0:0:
305,287,37711,1,2,0:0:0:0:
279,261,37804,1,2,0:0:0:0:
245,248,37898,1,2,0:0:0:0:
210,248,37992,1,2,0:0:0:0:
176,263,38086,1,2,0:0:0:0:
151,288,38179,1,2,0:0:0:0:
138,322,38274,6,0,L|121:210,1,85.2500026016236,2|0,1:0|0:0,0:0:0:0:
152,161,38649,6,0,B|112:143|97:110|97:110|99:146|62:191,1,151.124993082047,2|0,1:0|0:0,0:0:0:0:
3,103,39024,6,0,B|223:61,1,186,2|0,1:0|0:0,0:0:0:0:
284,194,39399,2,0,P|217:211|169:149,1,151.124993082047,2|0,1:0|0:0,0:0:0:0:
152,161,39774,2,0,P|216:228|306:199,1,186,2|0,1:0|0:0,0:0:0:0:
273,115,40149,5,4,0:0:0:0:
271,99,40242,1,2,0:0:0:0:
269,84,40336,1,2,0:0:0:0:
267,68,40430,1,2,0:0:0:0:
267,53,40524,2,0,L|355:60,1,62,0|2,0:0|0:0,0:0:0:0:
471,72,40711,2,0,L|389:66,1,62,2|2,0:0|0:0,0:0:0:0:
363,136,40899,1,10,1:2:0:0:
429,246,41086,5,2,1:0:0:0:
287,234,41274,1,0,0:0:0:0:
391,372,41461,5,4,0:0:0:0:
391,372,41555,1,4,0:0:0:0:
391,372,41649,1,2,1:0:0:0:
303,364,41836,1,2,1:0:0:0:
359,200,42024,6,0,B|337:46,1,127.875003902435,2|0,1:0|0:0,0:0:0:0:
340,73,42399,2,0,P|379:98|443:85,1,85.2500026016236,2|0,1:0|0:0,0:0:0:0:
416,97,42680,1,4,0:0:0:0:
416,97,42774,1,4,0:0:0:0:
274,162,42961,5,2,0:0:0:0:
259,236,43149,1,2,0:0:0:0:
285,309,43336,2,0,B|247:324|203:294|203:294|163:265|117:282,1,170.500005203247,2|0,1:0|0:0,0:0:0:0:
123,279,43899,1,2,0:0:0:0:
201,167,44086,2,0,L|209:260,1,85.2500026016236,2|0,1:0|0:0,0:0:0:0:
347,324,44461,1,4,0:0:0:0:
347,324,44554,1,4,0:0:0:0:
347,324,44648,1,2,1:2:0:0:
356,244,44836,1,0,0:0:0:0:
245,180,45024,6,0,B|312:171|312:171|358:202|358:202|473:186,1,186,2|0,1:0|0:0,0:0:0:0:
408,49,45399,2,0,B|366:55|366:55|333:94|333:94|375:125|375:125|436:116,1,186,2|0,1:0|0:0,0:0:0:0:
480,79,45774,1,4,0:0:0:0:
259,100,45961,1,4,0:0:0:0:
480,79,46336,6,0,L|473:173,1,85.2500026016236,2|0,1:0|0:0,0:0:0:0:
319,65,46711,2,0,L|314:151,1,85.2500026016236,4|2,0:0|0:0,0:0:0:0:
394,157,47086,1,4,0:0:0:0:
397,114,47179,1,4,0:0:0:0:
399,73,47274,1,14,1:2:0:0:
62,266,48024,6,0,B|97:232|97:182|97:182|113:234|180:261,1,186,2|0,1:0|0:0,0:0:0:0:
122,322,48399,2,0,L|82:97,1,186,2|0,1:0|0:0,0:0:0:0:
38,67,48774,6,0,P|77:63|114:42,1,62,2|0,1:0|0:0,0:0:0:0:
165,106,48961,2,0,P|204:110|241:131,1,62,2|0,1:0|0:0,0:0:0:0:
279,56,49149,2,0,P|243:115|311:201,1,186,2|0,1:0|0:0,0:0:0:0:
364,117,49524,5,2,1:2:0:0:
342,117,49617,1,2,0:2:0:0:
325,125,49711,1,2,0:2:0:0:
228,272,49899,1,2,1:2:0:0:
245,268,49992,1,2,0:2:0:0:
265,269,50086,1,2,0:2:0:0:
285,277,50180,1,2,0:2:0:0:
302,290,50274,2,0,L|289:188,1,62,2|0,1:2|0:0,0:0:0:0:
223,186,50461,2,0,L|211:90,1,62,2|0,1:2|0:0,0:0:0:0:
156,310,50649,6,0,L|127:88,1,203.437501940131,2|0,1:2|0:0,0:0:0:0:
57,143,51024,6,0,L|72:263,1,104.624996807098,2|0,1:0|0:0,0:0:0:0:
39,322,51399,2,0,L|93:331,3,34.8749989356995,2|2|2|2,0:0|0:0|0:0|0:0,0:0:0:0:
25,333,51774,6,0,L|134:352,1,62,2|2,1:2|0:2,0:0:0:0:
163,279,51961,1,2,0:2:0:0:
163,279,52055,1,2,0:2:0:0:
163,279,52149,2,0,L|272:298,1,62,0|0,1:0|0:0,0:0:0:0:
45,183,52336,2,0,L|154:202,1,62,0|0,1:0|0:0,0:0:0:0:
177,127,52524,1,2,0:0:0:0:
192,129,52617,1,2,0:0:0:0:
207,132,52711,1,2,0:0:0:0:
222,134,52805,1,2,0:0:0:0:
238,137,52899,1,2,1:2:0:0:
106,193,53086,5,2,1:0:0:0:
163,279,53274,1,0,0:0:0:0:
86,343,53461,5,0,0:0:0:0:
163,279,53649,1,2,1:0:0:0:
106,193,53836,1,2,1:0:0:0:
177,127,54024,6,0,B|326:144,1,127.875003902435,2|0,1:0|0:0,0:0:0:0:
304,141,54399,2,0,P|284:106|289:52,1,85.2500026016236,2|0,1:0|0:0,0:0:0:0:
285,62,54680,1,4,0:0:0:0:
285,62,54774,1,6,0:0:0:0:
384,122,54961,2,0,P|386:80|365:43,1,85.2500026016236,2|2,0:0|0:0,0:0:0:0:
176,211,55336,6,0,P|246:209|342:265,1,170.500005203247,2|0,1:0|0:0,0:0:0:0:
335,154,55899,1,2,0:0:0:0:
421,277,56086,2,0,P|406:239|407:175,1,85.2500026016236,2|0,1:0|0:0,0:0:0:0:
424,55,56461,1,4,0:0:0:0:
424,55,56555,1,4,0:0:0:0:
424,55,56649,1,2,1:2:0:0:
344,72,56836,1,0,0:0:0:0:
403,195,57024,6,0,B|370:168|321:177|321:177|286:229|210:208,1,186,2|0,1:0|0:0,0:0:0:0:
249,43,57399,2,0,B|276:81|328:91|328:91|275:92|249:131,1,186,2|0,1:0|0:0,0:0:0:0:
182,88,57774,5,4,0:0:0:0:
408,96,57961,1,4,0:0:0:0:
182,88,58336,6,0,P|199:127|204:185,1,85.2500026016236,2|0,1:0|0:0,0:0:0:0:
28,135,58711,2,0,P|30:177|49:216,1,85.2500026016236,4|0,0:0|0:0,0:0:0:0:
129,195,59086,1,4,0:0:0:0:
116,152,59179,1,4,0:0:0:0:
103,109,59274,1,2,1:0:0:0:
103,109,60024,6,0,L|120:244,1,131.750002512932,4|0,0:0|0:0,0:0:0:0:
119,239,60586,1,0,0:0:0:0:
216,311,60774,2,0,P|248:307|295:281,1,65.8750012564659,10|0,0:0|0:0,0:0:0:0:
337,235,61149,1,0,0:0:0:0:
337,235,61336,6,0,P|403:237|475:282,1,131.750002512932,4|0,0:0|0:0,0:0:0:0:
256,217,61899,2,0,P|246:176|248:137,1,65.8750012564659
303,94,62274,2,0,P|336:96|383:119,1,65.8750012564659,10|4,0:0|3:0,0:0:0:0:
366,107,62555,1,0,3:0:0:0:
366,107,62649,1,4,3:0:0:0:
320,174,62836,1,4,3:0:0:0:
228,50,63024,6,0,B|90:65,2,131.750002512932,4|0|10,0:0|0:0|0:0,0:0:0:0:
39,121,63961,1,0,0:0:0:0:
39,121,64149,1,0,0:0:0:0:
117,142,64336,6,0,L|256:128,1,131.750002512932,4|0,0:0|0:0,0:0:0:0:
59,201,64899,1,0,0:0:0:0:
59,201,65086,1,4,0:0:0:0:
137,220,65274,2,0,L|225:213,1,65.8750012564659,10|4,0:0|3:0,0:0:0:0:
202,214,65555,1,0,3:0:0:0:
202,214,65649,1,4,3:0:0:0:
80,279,65836,1,4,3:0:0:0:
202,361,66024,6,0,B|235:349|266:365|266:365|306:387|347:362,1,131.750002512932,4|0,0:0|0:0,0:0:0:0:
305,294,66586,1,0,0:0:0:0:
385,314,66774,2,0,L|399:224,1,65.8750012564659,10|0,0:0|0:0,0:0:0:0:
472,164,67149,1,0,0:0:0:0:
472,164,67336,2,0,L|341:175,1,131.750002512932,4|0,0:0|0:0,0:0:0:0:
258,182,67899,2,0,L|271:101,1,65.8750012564659
205,22,68274,2,0,L|194:91,1,65.8750012564659,10|4,0:0|3:0,0:0:0:0:
194,87,68555,1,0,3:0:0:0:
194,87,68649,1,4,3:0:0:0:
109,187,68836,6,0,P|53:197|-6:128,1,131.750002512932,4|0,3:0|0:0,0:0:0:0:
70,118,69399,1,0,0:0:0:0:
70,118,69586,1,4,0:0:0:0:
153,259,69774,1,10,0:0:0:0:
229,235,69961,1,0,0:0:0:0:
305,253,70149,1,0,0:0:0:0:
364,310,70336,2,0,P|396:305|427:290,1,65.8750012564659,4|0,0:0|0:0,0:0:0:0:
380,147,70711,2,0,P|347:153|318:167,1,65.8750012564659,10|0,0:0|0:0,0:0:0:0:
371,228,71086,1,4,0:0:0:0:
398,55,71274,5,4,0:0:0:0:
322,76,71461,1,4,0:0:0:0:
322,76,71555,1,0,0:0:0:0:
322,76,71649,1,4,3:0:0:0:
248,99,71836,1,4,3:0:0:0:
137,34,72024,6,0,B|-8:25,2,131.750002512932,4|0|10,0:0|0:0|0:0,0:0:0:0:
194,91,72961,2,0,P|180:122|180:183,1,65.8750012564659
233,214,73336,6,0,P|164:190|80:210,1,131.750002512932,4|0,0:0|0:0,0:0:0:0:
153,312,73899,2,0,P|187:309|228:287,1,65.8750012564659
268,143,74274,1,10,0:0:0:0:
268,143,74461,2,0,L|275:189,1,32.937500628233,4|0,3:0|3:0,0:0:0:0:
205,234,74649,2,0,L|212:280,1,32.937500628233,4|0,3:0|3:0,0:0:0:0:
294,285,74836,2,0,L|301:331,1,32.937500628233,4|0,3:0|3:0,0:0:0:0:
233,372,75024,5,4,0:0:0:0:
298,317,75211,1,0,0:0:0:0:
205,234,75399,5,0,0:0:0:0:
278,178,75586,1,0,0:0:0:0:
197,92,75774,5,10,0:0:0:0:
265,38,75961,2,0,P|305:45|338:55,1,65.8750012564659,0|0,0:0|0:0,0:0:0:0:
197,92,76336,2,0,P|131:109|56:109,1,131.750002512932,4|0,0:0|0:0,0:0:0:0:
123,31,76899,5,0,0:0:0:0:
123,31,77086,1,4,0:0:0:0:
147,183,77274,2,0,P|142:217|132:253,1,65.8750012564659,10|4,0:0|3:0,0:0:0:0:
134,248,77555,1,0,3:0:0:0:
134,248,77649,1,4,3:0:0:0:
65,199,77836,1,4,3:0:0:0:
221,233,78024,6,0,B|253:244|287:223|287:223|322:202|366:224,2,131.750002512932,4|0|10,0:0|0:0|0:0,0:0:0:0:
156,182,78961,2,0,L|148:104,1,65.8750012564659
356,85,79336,2,0,L|346:230,1,131.750002512932,4|0,0:0|0:0,0:0:0:0:
172,197,79899,2,0,L|164:111,1,65.8750012564659
342,100,80274,5,10,0:0:0:0:
342,100,80367,1,0,0:0:0:0:
342,100,80461,2,0,L|338:155,1,32.937500628233,4|0,3:0|3:0,0:0:0:0:
333,212,80649,2,0,L|329:267,1,32.937500628233,4|0,3:0|3:0,0:0:0:0:
326,324,80836,2,0,L|322:379,1,32.937500628233,4|0,0:0|0:0,0:0:0:0:
195,342,81024,6,0,B|336:322,1,131.750002512932,8|0,0:0|0:0,0:0:0:0:
333,212,81586,1,4,0:0:0:0:
202,230,81774,2,0,B|347:210,1,131.750002512932,10|0,0:0|0:0,0:0:0:0:
211,117,82336,2,0,B|349:99,1,131.750002512932,4|0,0:0|0:0,0:0:0:0:
378,28,82899,5,14,0:0:0:0:
378,28,83086,2,0,P|417:70|397:158,1,131.750002512932,4|4,0:0|3:0,0:0:0:0:
294,200,83649,2,0,L|309:286,1,65.8750012564659,4|4,3:0|3:0,0:0:0:0:
388,338,84024,5,8,0:0:0:0:
388,338,84399,2,0,L|301:347,1,65.8750012564659,8|0,0:0|0:0,0:0:0:0:
224,261,84774,1,8,0:0:0:0:
224,261,84961,2,0,P|173:218|102:248,1,131.750002512932,0|0,0:0|1:0,0:0:0:0:
122,248,85524,6,0,P|160:208|239:228,1,131.750002512932,8|8,0:0|0:0,0:0:0:0:
308,107,86086,2,0,L|297:187,1,65.8750012564659,0|8,0:0|0:0,0:0:0:0:
380,186,86461,1,0,0:0:0:0:
380,186,86555,1,0,0:0:0:0:
380,186,86649,2,0,L|388:111,1,65.8750012564659,8|2,0:0|0:0,0:0:0:0:
436,268,87024,6,0,B|375:216|375:216|297:253,1,155,12|8,0:0|0:0,0:0:0:0:
307,248,87774,1,8,0:0:0:0:
232,285,87961,2,0,B|213:150,1,131.750002512932,0|0,0:0|1:0,0:0:0:0:
225,171,88524,6,0,L|235:24,1,131.750002512932,8|8,0:0|0:0,0:0:0:0:
154,60,89086,2,0,L|150:127,1,65.8750012564659,0|8,0:0|0:0,0:0:0:0:
304,139,89461,1,0,0:0:0:0:
304,139,89555,1,0,0:0:0:0:
304,139,89649,2,0,L|309:64,1,65.8750012564659,8|0,0:0|1:0,0:0:0:0:
415,213,90024,6,0,L|299:226,1,116.25,0|0,1:0|0:0,0:0:0:0:
282,214,90399,1,4,0:0:0:0:
282,214,90586,1,0,0:0:0:0:
327,355,90774,6,0,L|193:344,1,116.25,0|0,1:0|0:0,0:0:0:0:
196,359,91149,1,4,0:0:0:0:
196,359,91336,1,0,0:0:0:0:
50,300,91524,6,0,P|83:250|59:179,1,116.25,0|0,1:0|0:0,0:0:0:0:
60,208,91899,1,4,0:0:0:0:
60,208,92086,1,0,0:0:0:0:
181,152,92274,6,0,P|151:98|172:38,1,104.624996807098,0|0,1:0|0:0,0:0:0:0:
173,67,92649,1,4,0:0:0:0:
173,67,92836,1,0,0:0:0:0:
252,103,93024,6,0,L|359:91,1,93,0|2,0:0|0:0,0:0:0:0:
344,92,93399,2,0,P|335:125|343:163,1,62,0|2,0:0|0:0,0:0:0:0:
414,131,93774,2,0,P|429:181|474:219,2,93,2|2|2,0:0|0:0|0:0,0:0:0:0:
171,174,94524,5,6,0:0:0:0:
171,174,95086,1,2,0:0:0:0:
171,174,95180,1,0,0:0:0:0:
171,174,95274,2,0,L|165:227,1,38.75,4|4,0:0|0:0,0:0:0:0:
156,292,95461,2,0,L|150:345,1,38.75,4|4,0:0|0:0,0:0:0:0:
91,160,95649,1,2,1:2:0:0:
73,278,95836,1,2,1:2:0:0:
60,81,96024,6,0,B|107:69|147:94|147:94|196:127|250:103,1,186,2|0,1:0|0:0,0:0:0:0:
298,165,96399,2,0,P|261:104|365:68,1,186,2|0,1:0|0:0,0:0:0:0:
377,172,96774,6,0,L|373:250,1,62,2|0,1:0|0:0,0:0:0:0:
294,226,96961,2,0,L|298:148,1,62,2|0,1:0|0:0,0:0:0:0:
237,107,97149,5,6,1:2:0:0:
209,93,97242,1,2,0:2:0:0:
178,93,97336,1,2,0:2:0:0:
149,105,97430,1,2,0:2:0:0:
128,127,97524,1,2,0:1:0:0:
195,176,97711,1,2,0:2:0:0:
174,198,97805,1,2,0:2:0:0:
145,210,97899,1,2,0:2:0:0:
114,210,97993,1,2,0:2:0:0:
86,196,98086,1,2,0:1:0:0:
117,65,98274,6,0,L|130:138,1,62,2|0,1:2|0:0,0:0:0:0:
86,196,98461,2,0,L|101:276,1,62,2|0,1:2|0:0,0:0:0:0:
248,100,98649,2,0,B|278:267,1,124,2|2,1:2|1:2,0:0:0:0:
222,369,99024,6,0,L|205:266,1,93,2|0,1:0|0:0,0:0:0:0:
269,222,99399,6,0,P|329:248|394:249,1,124,2|4,1:0|0:0,0:0:0:0:
386,250,99680,1,4,0:0:0:0:
386,250,99774,2,0,P|373:288|370:328,1,62,4|0,0:0|0:0,0:0:0:0:
416,375,99961,1,2,0:0:0:0:
460,213,100149,1,2,1:2:0:0:
442,188,100242,1,2,0:2:0:0:
415,172,100336,1,2,0:2:0:0:
385,167,100430,1,2,0:2:0:0:
355,174,100524,1,2,0:2:0:0:
329,191,100617,1,2,0:2:0:0:
311,216,100711,1,2,0:2:0:0:
304,246,100805,1,2,0:2:0:0:
308,277,100899,5,2,1:2:0:0:
460,213,101086,1,2,1:0:0:0:
326,114,101274,1,0,0:0:0:0:
334,234,101461,5,0,0:0:0:0:
407,204,101649,1,2,1:0:0:0:
346,158,101836,1,2,1:0:0:0:
221,202,102024,6,0,B|197:193|72:181,1,127.875003902435,2|0,1:0|0:0,0:0:0:0:
94,183,102399,2,0,P|118:224|109:278,1,85.2500026016236,2|0,1:0|0:0,0:0:0:0:
116,260,102680,1,4,0:0:0:0:
116,260,102774,1,6,0:0:0:0:
13,208,102961,2,0,P|13:249|39:289,1,85.2500026016236,2|2,0:0|0:0,0:0:0:0:
186,358,103336,6,0,B|204:186,1,170.500005203247,2|0,1:0|0:0,0:0:0:0:
160,36,103899,1,2,0:0:0:0:
213,107,104086,2,0,L|112:124,1,85.2500026016236,2|0,1:0|0:0,0:0:0:0:
45,135,104461,1,4,0:0:0:0:
45,135,104555,1,4,0:0:0:0:
45,135,104649,2,0,L|64:13,1,85.2500026016236,2|0,1:2|0:0,0:0:0:0:
160,243,105024,6,0,B|206:257|206:257|237:286|237:286|254:251|254:251|327:200,1,186,2|0,1:0|0:0,0:0:0:0:
180,165,105399,2,0,B|168:125|168:125|207:93|207:93|254:113|254:113|254:190,1,186,2|0,1:0|0:0,0:0:0:0:
226,228,105774,5,4,0:0:0:0:
196,18,105961,1,4,0:0:0:0:
226,228,106336,2,0,L|233:136,1,85.2500026016236,2|0,1:0|0:0,0:0:0:0:
67,215,106711,2,0,L|76:131,1,85.2500026016236,4|0,0:0|0:0,0:0:0:0:
155,136,107086,1,4,0:0:0:0:
151,177,107179,1,4,0:0:0:0:
148,215,107273,1,14,0:0:0:0:
148,215,108024,6,0,B|123:97|123:97|147:126|184:132,1,186,2|0,1:0|0:0,0:0:0:0:
262,117,108399,2,0,P|234:201|147:214,1,186,2|0,1:0|0:0,0:0:0:0:
62,200,108774,1,2,1:0:0:0:
62,200,108961,2,0,L|81:307,1,62,2|2,0:0|0:0,0:0:0:0:
221,299,109149,1,2,1:0:0:0:
194,377,109336,5,2,0:0:0:0:
231,380,109429,1,2,0:0:0:0:
266,367,109523,1,2,0:0:0:0:
291,339,109617,1,2,0:0:0:0:
301,304,109711,1,2,0:0:0:0:
294,268,109804,1,2,0:0:0:0:
272,238,109898,1,2,0:0:0:0:
240,221,109992,1,2,0:0:0:0:
203,221,110086,1,2,0:0:0:0:
169,237,110179,1,2,0:0:0:0:
147,266,110273,1,2,1:2:0:0:
194,377,110461,6,0,P|232:380|278:350,1,62,2|0,1:2|0:0,0:0:0:0:
240,221,110649,2,0,P|202:218|156:248,1,62,2|0,1:2|0:0,0:0:0:0:
221,299,110836,1,2,1:2:0:0:
337,132,111024,6,0,B|309:102|260:110|260:110|213:147|164:127,1,186,2|0,1:0|0:0,0:0:0:0:
83,115,111399,6,0,L|87:174,3,34.8749989356995,2|2|2|2,0:0|0:0|0:0|0:0,0:0:0:0:
67,101,111774,6,0,L|75:191,1,62,0|0,1:0|0:0,0:0:0:0:
172,198,111961,1,0,1:0:0:0:
172,198,112055,1,0,0:0:0:0:
173,199,112149,2,0,L|178:260,1,62,2|2,1:2|0:0,0:0:0:0:
86,302,112336,2,0,L|94:392,1,62,2|2,0:0|0:0,0:0:0:0:
281,346,112524,5,2,1:0:0:0:
281,346,112711,1,2,1:0:0:0:
178,260,112899,1,0,1:0:0:0:
360,235,113086,6,0,L|345:132,1,85.2500026016236,2|0,1:0|0:0,0:0:0:0:
333,68,113461,1,0,0:0:0:0:
418,53,113649,1,2,1:0:0:0:
432,136,113836,1,2,1:0:0:0:
277,209,114024,6,0,P|200:211|172:147,1,127.875003902435,2|0,1:0|0:0,0:0:0:0:
173,174,114399,2,0,P|196:224|186:281,1,85.2500026016236,2|0,1:0|0:0,0:0:0:0:
195,253,114680,1,4,0:0:0:0:
195,253,114774,1,6,0:0:0:0:
92,197,114961,2,0,P|94:239|114:276,1,85.2500026016236,2|2,0:0|0:0,0:0:0:0:
296,122,115336,6,0,B|223:76|223:76|143:99,1,170.500005203247,2|0,1:0|0:0,0:0:0:0:
143,100,115899,1,2,0:0:0:0:
246,183,116086,2,0,B|208:162|208:162|146:177,1,85.2500026016236,2|0,1:0|0:0,0:0:0:0:
195,253,116461,1,4,0:0:0:0:
195,253,116555,1,4,0:0:0:0:
195,253,116649,1,2,1:2:0:0:
219,80,116836,1,0,0:0:0:0:
370,198,117024,6,0,B|347:6,1,186,2|0,1:0|0:0,0:0:0:0:
278,60,117399,2,0,P|356:96|433:35,1,186,2|0,1:0|0:0,0:0:0:0:
347,13,117774,1,4,0:0:0:0:
370,198,117961,1,4,0:0:0:0:
370,198,118337,6,0,P|311:191|283:177,1,85.2500026016236,2|0,1:0|0:0,0:0:0:0:
402,49,118711,2,0,P|362:33|320:30,1,85.2500026016236,4|0,0:0|0:0,0:0:0:0:
302,104,119086,1,4,0:0:0:0:
345,115,119179,1,4,0:0:0:0:
389,125,119273,1,2,1:0:0:0:
389,125,120024,6,0,P|342:163|262:138,1,131.750002512932,4|0,0:0|0:0,0:0:0:0:
275,150,120586,1,0,0:0:0:0:
214,96,120774,2,0,P|152:83|101:121,1,131.750002512932,10|0,0:0|0:0,0:0:0:0:
198,294,121336,6,0,B|171:159,1,131.750002512932,4|0,0:0|0:0,0:0:0:0:
96,201,121899,2,0,L|110:266,1,65.8750012564659
268,227,122274,2,0,L|248:140,1,65.8750012564659,10|4,0:0|3:0,0:0:0:0:
178,198,122555,1,0,3:0:0:0:
178,198,122649,2,0,L|187:243,1,32.937500628233,4|0,3:0|3:0,0:0:0:0:
344,196,122836,2,0,L|335:160,1,32.937500628233,4|0,3:0|3:0,0:0:0:0:
265,58,123024,6,0,P|328:85|402:90,2,131.750002512932,4|0|10,0:0|0:0|0:0,0:0:0:0:
250,176,123961,1,0,0:0:0:0:
314,126,124149,1,0,0:0:0:0:
348,281,124336,6,0,L|186:265,1,131.750002512932,4|0,0:0|0:0,0:0:0:0:
147,304,124899,1,0,0:0:0:0:
147,304,125086,1,4,0:0:0:0:
311,299,125274,2,0,L|232:291,1,65.8750012564659,10|4,0:0|3:0,0:0:0:0:
245,292,125555,1,0,3:0:0:0:
245,292,125649,1,4,3:0:0:0:
168,338,125836,1,4,3:0:0:0:
37,233,126024,6,0,B|70:221|106:240|106:240|140:258|188:240,1,131.750002512932,4|0,0:0|0:0,0:0:0:0:
164,246,126586,1,0,0:0:0:0:
234,194,126774,2,0,L|212:51,1,131.750002512932,10|0,0:0|0:0,0:0:0:0:
294,50,127336,6,0,B|315:185,1,131.750002512932,4|0,0:0|0:0,0:0:0:0:
398,269,127899,2,0,L|314:256,1,65.8750012564659
209,178,128274,2,0,L|219:242,1,65.8750012564659,10|4,0:0|3:0,0:0:0:0:
219,242,128555,1,0,3:0:0:0:
219,242,128649,2,0,L|276:232,1,32.937500628233,4|0,3:0|3:0,0:0:0:0:
348,335,128836,6,0,L|201:327,1,131.750002512932,4|0,0:0|0:0,0:0:0:0:
217,327,129586,6,0,L|210:270,1,32.937500628233,4|0,0:0|0:0,0:0:0:0:
361,203,129774,2,0,L|345:364,1,131.750002512932,10|0,0:0|0:0,0:0:0:0:
232,227,130336,6,0,L|366:202,1,131.750002512932,4|14,0:0|0:0,0:0:0:0:
349,334,131086,6,0,L|298:327,1,32.937500628233,4|0,0:0|0:0,0:0:0:0:
232,227,131274,1,4,0:0:0:0:
232,227,131461,1,12,0:0:0:0:
