osu file format v14

[General]
AudioFilename: velocity.mp3
AudioLeadIn: 0
PreviewTime: 34336
Countdown: 0
SampleSet: Soft
StackLeniency: 0.3
Mode: 0
LetterboxInBreaks: 0
WidescreenStoryboard: 0

[Editor]
DistanceSpacing: 1.5
BeatDivisor: 12
GridSize: 8
TimelineZoom: 1.8

[Metadata]
Title:Velocity
TitleUnicode:Velocity
Artist:M2U
ArtistUnicode:M2U
Creator:Karen
Version:Expert
Source:
Tags:mmc mmc2 modhelp mapping contest yabai futurebass Ascendance sahuang My Angel Azusa ErunamoJAZZ Left thzz Monstrata
BeatmapID:1256483
BeatmapSetID:593985

[Difficulty]
HPDrainRate:6
CircleSize:4
OverallDifficulty:8
ApproachRate:9.6
SliderMultiplier:2
SliderTickRate:1

[Events]
//Background and Video events
0,0,"bg 1920.jpg",0,0
//Break Periods
//Storyboard Layer 0 (Background)
//Storyboard Layer 1 (Fail)
//Storyboard Layer 2 (Pass)
//Storyboard Layer 3 (Foreground)
//Storyboard Sound Samples

[TimingPoints]
24,375,4,2,1,70,1,0
774,-100,4,2,1,70,0,0
1524,-100,4,2,1,70,0,0
11649,-90.9090909090909,4,2,1,70,0,0
12024,-76.9230769230769,4,2,1,70,0,0
12399,-100,4,2,1,70,0,0
24024,-111.111111111111,4,2,1,50,0,0
30024,-83.3333333333333,4,2,1,70,0,0
30399,-100,4,2,1,70,0,0
30774,-83.3333333333333,4,2,1,70,0,0
31149,-100,4,2,1,70,0,0
31524,-83.3333333333333,4,2,1,70,0,0
31899,-100,4,2,1,70,0,0
32274,-83.3333333333333,4,2,1,70,0,0
32649,-100,4,2,1,70,0,0
33024,-83.3333333333333,4,2,1,60,0,0
34524,-83.3333333333333,4,2,1,80,0,0
35836,-83.3333333333333,4,2,1,60,0,0
36024,-71.4285714285714,4,2,1,80,0,1
36586,-100,4,2,1,80,0,1
38274,-55.5555555555556,4,2,1,80,0,1
38649,-71.4285714285714,4,2,1,80,0,1
39774,-55.5555555555556,4,2,1,80,0,1
41086,-55.5555555555556,4,2,1,80,0,1
41649,-83.3333333333333,4,2,1,80,0,1
42024,-71.4285714285714,4,2,1,80,0,1
43336,-83.3333333333333,4,2,1,80,0,1
44086,-55.5555555555556,4,2,1,80,0,1
44649,-83.3333333333333,4,2,1,80,0,1
45024,-71.4285714285714,4,2,1,80,0,1
45774,-83.3333333333333,4,2,1,80,0,1
47461,-142.857142857143,4,2,1,60,0,1
47649,-111.111111111111,4,2,1,60,0,1
47836,-90.9090909090909,4,2,1,60,0,1
48024,-71.4285714285714,4,2,1,80,0,1
50649,-62.5,4,2,1,80,0,1
51024,-71.4285714285714,4,2,1,80,0,1
53086,-55.5555555555556,4,2,1,80,0,1
53649,-83.3333333333333,4,2,1,80,0,1
54024,-71.4285714285714,4,2,1,80,0,1
55336,-83.3333333333333,4,2,1,80,0,1
56086,-55.5555555555556,4,2,1,80,0,1
56649,-83.3333333333333,4,2,1,80,0,1
57024,-71.4285714285714,4,2,1,80,0,1
59274,-125,4,2,1,60,0,1
60024,-125,4,2,1,60,0,0
82336,-111.111111111111,4,2,1,70,0,0
84024,-111.111111111111,4,2,1,50,0,0
90024,-83.3333333333333,4,2,1,70,0,0
90399,-100,4,2,1,70,0,0
90774,-83.3333333333333,4,2,1,70,0,0
91149,-100,4,2,1,70,0,0
91524,-83.3333333333333,4,2,1,70,0,0
91899,-100,4,2,1,70,0,0
92274,-83.3333333333333,4,2,1,70,0,0
92649,-100,4,2,1,70,0,0
93024,-83.3333333333333,4,2,1,60,0,0
94524,-83.3333333333333,4,2,1,80,0,0
95836,-83.3333333333333,4,2,1,60,0,0
96024,-71.4285714285714,4,2,1,80,0,1
97524,-205.882352941176,4,2,1,80,0,1
97711,-71.4285714285714,4,2,1,80,0,1
98086,-205,4,2,1,80,0,1
98274,-71.4285714285714,4,2,1,80,0,1
101086,-55.5555555555556,4,2,1,80,0,1
101649,-71.4285714285714,4,2,1,80,0,1
103336,-83.3333333333333,4,2,1,80,0,1
104086,-55.5555555555556,4,2,1,80,0,1
104649,-83.3333333333333,4,2,1,80,0,1
105024,-71.4285714285714,4,2,1,80,0,1
106336,-83.3333333333333,4,2,1,80,0,1
107461,-142.857142857143,4,2,1,50,0,1
107649,-111.111111111111,4,2,1,50,0,1
107836,-90.9090909090909,4,2,1,50,0,1
108024,-71.4285714285714,4,2,1,80,0,1
113086,-55.5555555555556,4,2,1,80,0,1
114024,-71.4285714285714,4,2,1,80,0,1
115336,-83.3333333333333,4,2,1,80,0,1
116086,-55.5555555555556,4,2,1,80,0,1
116649,-83.3333333333333,4,2,1,80,0,1
117024,-71.4285714285714,4,2,1,80,0,1
119274,-125,4,2,1,80,0,1
120024,-125,4,2,1,60,0,0
131086,-100,4,2,1,60,0,0

[Colours]
Combo1 : 128,0,255
Combo2 : 255,255,60
Combo3 : 255,0,0
Combo4 : 96,175,255

[HitObjects]
140,80,24,5,4,0:0:0:0:
107,163,211,1,0,0:0:0:0:
126,250,399,1,2,0:0:0:0:
201,298,586,1,0,0:0:0:0:
294,198,774,6,0,L|175:189,1,100,10|0,0:0|0:0,0:0:0:0:
140,80,1149,2,0,L|239:87,1,100,2|0,0:0|0:0,0:0:0:0:
400,12,1524,6,0,P|416:96|511:63,1,200,4|2,0:0|0:0,0:0:0:0:
460,232,2086,2,0,L|354:210,1,100,0|10,0:0|0:0,0:0:0:0:
219,87,2461,1,0,0:0:0:0:
289,272,2649,1,0,0:0:0:0:
349,121,2836,1,0,0:0:0:0:
190,204,3024,6,0,B|136:221|102:197|102:197|152:231|149:301,1,200,4|2,0:0|0:0,0:0:0:0:
84,372,3586,1,0,0:0:0:0:
58,273,3774,1,10,0:0:0:0:
178,375,3961,1,0,0:0:0:0:
190,204,4149,1,2,0:0:0:0:
84,372,4336,1,0,0:0:0:0:
142,89,4524,6,0,L|149:294,1,200,4|2,0:0|0:0,0:0:0:0:
60,154,5086,1,0,0:0:0:0:
160,303,5274,1,10,0:0:0:0:
302,126,5461,1,0,0:0:0:0:
271,238,5649,2,0,L|277:352,1,100,2|0,0:0|0:0,0:0:0:0:
511,234,6024,6,0,P|421:206|359:298,1,200,4|2,0:0|0:0,0:0:0:0:
359,277,6586,1,0,0:0:0:0:
511,234,6774,1,10,0:0:0:0:
421,207,6961,1,0,0:0:0:0:
359,277,7149,1,2,0:0:0:0:
384,371,7336,1,0,0:0:0:0:
246,293,7524,6,0,L|453:301,1,200,4|2,0:0|0:0,0:0:0:0:
314,92,8086,2,0,L|334:194,1,100,0|10,0:0|0:0,0:0:0:0:
292,372,8461,1,0,0:0:0:0:
421,207,8649,1,2,0:0:0:0:
246,293,8836,1,0,0:0:0:0:
445,300,9024,6,0,L|463:84,1,200,4|2,0:0|0:0,0:0:0:0:
461,100,9586,1,0,0:0:0:0:
445,300,9774,1,10,0:0:0:0:
453,200,9961,1,0,0:0:0:0:
461,100,10149,1,2,0:0:0:0:
465,0,10336,1,0,0:0:0:0:
312,67,10524,6,0,P|357:149|306:250,1,200,4|2,0:0|0:0,0:0:0:0:
453,200,11086,1,0,0:0:0:0:
259,155,11274,1,10,0:0:0:0:
304,353,11461,1,0,0:0:0:0:
397,276,11649,2,0,L|227:265,1,165.000005035401,4|0,0:0|0:0,0:0:0:0:
182,291,12024,6,0,L|453:309,1,259.999988098145,2|2,1:2|0:0,0:0:0:0:
304,353,12586,1,0,0:0:0:0:
326,141,12774,2,0,L|317:256,1,100,10|0,0:0|0:0,0:0:0:0:
318,240,13149,1,2,0:0:0:0:
268,63,13336,1,4,0:0:0:0:
121,270,13524,5,2,0:0:0:0:
137,369,13711,1,0,0:0:0:0:
236,355,13899,1,2,0:0:0:0:
221,257,14086,1,2,0:0:0:0:
137,89,14274,5,10,0:0:0:0:
145,100,14367,1,2,0:0:0:0:
226,144,14461,2,0,L|287:135,1,50,4|0,0:0|0:0,0:0:0:0:
198,164,14649,2,0,L|259:155,1,50,4|0,0:0|0:0,0:0:0:0:
164,186,14836,2,0,L|225:177,1,50,4|0,0:0|0:0,0:0:0:0:
192,20,15024,6,0,P|143:-1|58:48,1,150,4|0,0:0|0:0,0:0:0:0:
61,151,15399,2,0,P|79:103|59:40,1,100,2|0,0:0|0:0,0:0:0:0:
205,155,15774,2,0,P|187:206|203:276,2,100,10|0|2,0:0|0:0|0:0,0:0:0:0:
132,326,16336,6,0,B|190:350|190:350|270:323|270:323|326:344,1,200,4|0,0:0|0:0,0:0:0:0:
488,329,16899,1,2,0:0:0:0:
401,381,17086,2,0,L|407:258,1,100,4|10,0:0|0:0,0:0:0:0:
328,146,17461,5,4,3:0:0:0:
339,155,17555,1,0,3:0:0:0:
376,147,17649,5,4,3:0:0:0:
387,156,17743,1,0,3:0:0:0:
427,149,17836,5,4,3:0:0:0:
438,158,17930,1,0,3:0:0:0:
503,101,18024,6,0,P|499:23|392:15,1,200,4|2,0:0|0:0,0:0:0:0:
395,12,18586,1,0,0:0:0:0:
225,88,18774,2,0,L|238:194,1,100,10|0,0:0|0:0,0:0:0:0:
237,187,19149,1,2,0:0:0:0:
144,24,19336,1,0,0:0:0:0:
395,12,19524,5,4,0:0:0:0:
326,84,19711,1,0,0:0:0:0:
225,88,19899,1,2,0:0:0:0:
144,24,20086,1,2,0:0:0:0:
37,132,20274,5,10,0:0:0:0:
50,126,20367,1,2,0:0:0:0:
111,191,20461,2,0,L|105:245,1,50,4|0,0:0|0:0,0:0:0:0:
132,173,20649,2,0,L|126:227,1,50,4|0,0:0|0:0,0:0:0:0:
153,155,20836,2,0,L|147:209,1,50,4|0,0:0|0:0,0:0:0:0:
143,336,21024,6,0,B|26:322|26:322|52:353,1,150,4|0,0:0|0:0,0:0:0:0:
137,353,21399,2,0,L|254:367,1,100,2|0,0:0|0:0,0:0:0:0:
274,229,21774,2,0,P|263:176|283:130,2,100,10|0|2,0:0|0:0|0:0,0:0:0:0:
434,384,22336,6,0,L|334:372,1,100,4|2,0:0|0:0,0:0:0:0:
360,187,22711,1,0,0:0:0:0:
467,293,22899,1,10,0:0:0:0:
274,229,23086,2,0,P|262:181|279:134,1,100
421,37,23461,5,4,3:3:0:0:
410,28,23555,1,0,3:0:0:0:
370,35,23648,5,4,3:3:0:0:
359,26,23742,1,0,3:0:0:0:
322,34,23836,5,4,3:3:0:0:
311,25,23930,1,0,3:0:0:0:
233,65,24024,6,0,P|168:96|89:63,1,134.999995880127,2|0,1:2|1:0,0:0:0:0:
22,41,24399,2,0,L|38:156,1,89.9999972534181,8|0,0:0|1:0,0:0:0:0:
156,231,24774,1,8,0:0:0:0:
172,142,24961,1,0,0:0:0:0:
66,217,25149,1,8,0:0:0:0:
50,306,25336,1,0,1:0:0:0:
159,369,25524,6,0,P|218:349|289:376,1,134.999995880127,8|0,0:0|1:0,0:0:0:0:
336,308,25899,2,0,L|434:310,1,89.9999972534181,8|0,0:0|0:0,0:0:0:0:
390,138,26274,1,8,0:0:0:0:
387,227,26461,1,0,0:0:0:0:
482,147,26649,1,8,0:0:0:0:
485,58,26836,1,0,1:0:0:0:
480,239,27024,5,12,0:0:0:0:
298,136,27305,1,0,1:0:0:0:
298,136,27399,2,0,P|302:86|277:29,1,89.9999972534181,8|0,0:0|0:0,0:0:0:0:
121,105,27774,1,8,0:0:0:0:
134,193,27961,1,0,0:0:0:0:
237,286,28149,1,8,0:0:0:0:
224,198,28336,1,0,1:0:0:0:
62,252,28524,6,0,L|79:396,1,134.999995880127,8|0,0:0|1:0,0:0:0:0:
160,372,28899,2,0,L|148:278,1,89.9999972534181,8|0,0:0|0:0,0:0:0:0:
66,136,29274,1,8,0:0:0:0:
134,193,29461,1,0,0:0:0:0:
264,180,29649,1,8,0:0:0:0:
196,123,29836,1,0,1:0:0:0:
332,122,30024,6,0,L|493:109,1,119.999996337891,0|0,1:0|0:0,0:0:0:0:
396,170,30305,1,0,0:0:0:0:
342,99,30399,6,0,L|482:89,1,100,4|0,0:0|0:0,0:0:0:0:
452,273,30774,6,0,L|291:260,1,119.999996337891,0|0,1:0|0:0,0:0:0:0:
388,321,31055,1,0,0:0:0:0:
442,250,31149,6,0,L|302:240,1,100,4|0,0:0|0:0,0:0:0:0:
183,202,31524,6,0,P|202:253|169:322,1,119.999996337891,0|0,1:0|0:0,0:0:0:0:
124,258,31805,1,0,0:0:0:0:
207,210,31899,6,0,P|220:264|195:313,1,100,4|0,0:0|0:0,0:0:0:0:
48,219,32274,6,0,P|29:168|62:99,1,119.999996337891,0|0,1:0|0:0,0:0:0:0:
107,163,32555,1,0,0:0:0:0:
24,211,32649,6,0,P|11:157|36:108,1,100,4|0,0:0|0:0,0:0:0:0:
205,11,33024,5,2,0:0:0:0:
269,107,33211,1,0,0:0:0:0:
262,142,33305,1,2,0:0:0:0:
365,69,33492,1,0,0:0:0:0:
374,103,33586,1,2,0:0:0:0:
303,384,33774,5,2,0:0:0:0:
385,302,33961,1,0,0:0:0:0:
420,303,34055,1,2,0:0:0:0:
329,215,34242,1,0,0:0:0:0:
361,200,34336,1,2,0:0:0:0:
490,182,34524,5,6,0:0:0:0:
477,148,34711,5,2,0:0:0:0:
481,112,34899,5,2,0:0:0:0:
505,85,35086,5,2,0:0:0:0:
490,182,35274,5,4,0:0:0:0:
477,148,35367,1,4,0:0:0:0:
481,112,35461,1,4,0:0:0:0:
505,85,35555,1,4,0:0:0:0:
468,9,35649,6,0,L|405:17,1,59.9999981689454,2|0,1:2|0:0,0:0:0:0:
436,35,35836,2,0,L|373:43,1,59.9999981689454,2|0,1:2|0:0,0:0:0:0:
316,121,36024,6,0,B|252:143|204:106|204:106|233:136|221:211,1,209.999993591309,2|0,1:0|0:0,0:0:0:0:
137,166,36399,1,10,1:2:0:0:
205,280,36586,2,0,L|315:268,1,100,2|0,0:1|0:0,0:0:0:0:
205,280,36961,1,2,1:2:0:0:
404,260,37149,6,0,L|192:281,1,200,2|0,1:0|0:0,0:0:0:0:
61,384,37711,5,2,0:0:0:0:
88,330,37805,1,2,0:0:0:0:
72,271,37899,1,2,0:0:0:0:
32,226,37992,1,2,0:0:0:0:
42,166,38086,1,2,0:0:0:0:
88,127,38180,1,2,0:0:0:0:
46,40,38274,6,0,B|-13:78|-13:78|200:65,1,269.999991760254,2|0,1:0|0:0,0:0:0:0:
211,237,38649,6,0,P|241:132|338:82,1,209.999993591309,2|0,1:0|0:0,0:0:0:0:
443,16,39024,6,0,P|367:45|228:-13,1,209.999993591309,2|0,1:0|0:0,0:0:0:0:
116,160,39399,2,0,P|178:241|152:354,1,209.999993591309,2|0,1:0|0:0,0:0:0:0:
72,272,39774,6,0,P|192:240|339:302,1,269.999991760254,2|0,1:0|0:0,0:0:0:0:
481,290,40149,1,4,0:0:0:0:
403,242,40242,1,2,0:0:0:0:
384,213,40336,1,2,0:0:0:0:
384,178,40430,1,2,0:0:0:0:
384,178,40617,5,2,0:0:0:0:
393,145,40711,1,2,0:0:0:0:
420,124,40805,1,2,0:0:0:0:
507,105,40899,1,10,1:2:0:0:
469,4,41086,6,0,P|322:37|189:27,1,269.999991760254,2|0,1:0|0:0,0:0:0:0:
301,111,41461,2,0,P|293:77|328:95,1,89.9999972534181,4|4,0:0|0:0,0:0:0:0:
339,215,41649,6,0,B|276:200|276:200|215:218,1,119.999996337891,2|2,1:0|1:0,0:0:0:0:
137,325,42024,6,0,B|119:183|119:183|169:138,1,209.999993591309,2|0,1:0|0:0,0:0:0:0:
254,35,42399,2,0,P|189:59|101:23,1,139.999995727539,2|0,1:0|0:0,0:0:0:0:
22,100,42680,6,0,L|36:158,1,34.9999989318848,4|4,0:0|0:0,0:0:0:0:
94,200,42774,1,4,0:0:0:0:
26,288,42961,1,2,0:0:0:0:
90,377,43149,1,2,0:0:0:0:
218,274,43336,6,0,B|203:229|203:229|343:229|343:229|319:280,1,239.999992675781,2|0,1:0|0:0,0:0:0:0:
266,367,43899,1,2,0:0:0:0:
199,262,44086,6,0,B|184:220|184:220|363:220|363:220|336:274,1,269.999991760254,2|0,1:0|0:0,0:0:0:0:
293,153,44461,2,0,B|274:193|274:193|254:142,1,89.9999972534181,4|4,0:0|0:0,0:0:0:0:
210,54,44649,6,0,P|145:46|92:84,1,119.999996337891,2|0,1:2|0:0,0:0:0:0:
11,316,45024,2,0,P|13:210|-12:93,1,209.999993591309,2|0,1:0|0:0,0:0:0:0:
120,335,45399,2,0,P|142:268|166:119,1,209.999993591309,2|0,1:0|0:0,0:0:0:0:
230,327,45774,6,0,L|253:256,1,59.9999981689454,4|0,0:0|0:0,0:0:0:0:
284,177,45961,2,0,L|341:195,1,59.9999981689454,4|0,0:0|0:0,0:0:0:0:
443,353,46149,1,2,0:0:0:0:
443,353,46336,6,0,B|458:275|431:195|431:195|445:237|481:290,1,239.999992675781,2|4,1:0|0:0,0:0:0:0:
469,111,46899,1,2,0:0:0:0:
469,111,47086,2,0,L|386:110,1,59.9999981689454,4|4,0:0|0:0,0:0:0:0:
315,144,47274,1,14,1:2:0:0:
173,104,47461,6,0,L|191:159,1,34.9999989318848,2|2,0:0|0:0,0:0:0:0:
173,104,47649,2,0,L|186:146,1,44.999998626709,2|2,0:0|0:0,0:0:0:0:
173,104,47836,2,0,L|195:172,1,55.0000016784668,2|2,0:0|0:0,0:0:0:0:
119,261,48024,6,0,P|190:206|316:259,1,209.999993591309,2|0,1:0|0:0,0:0:0:0:
379,348,48399,2,0,P|380:231|413:108,1,209.999993591309,2|0,1:0|0:0,0:0:0:0:
443,23,48774,2,0,L|349:32,1,69.9999978637696,2|0,1:0|0:0,0:0:0:0:
303,36,48961,2,0,L|372:29,1,69.9999978637696,2|0,1:0|0:0,0:0:0:0:
478,20,49149,6,0,L|260:41,1,209.999993591309,2|0,1:0|0:0,0:0:0:0:
123,10,49524,5,2,1:2:0:0:
130,92,49617,1,2,0:2:0:0:
132,176,49711,2,2,L|34:180,1,69.9999978637696,2|0,0:2|0:2,0:2:0:0:
144,15,49899,5,2,1:2:0:0:
151,97,49992,1,2,0:2:0:0:
153,181,50086,1,2,0:2:0:0:
157,265,50180,1,2,0:2:0:0:
158,349,50274,6,0,L|246:327,1,69.9999978637696,2|0,1:2|0:0,0:0:0:0:
291,256,50461,2,0,L|379:234,1,69.9999978637696,2|0,1:2|0:0,0:0:0:0:
139,369,50649,6,0,L|237:346,1,80,2|0,1:2|0:0,0:0:0:0:
272,276,50836,2,0,L|365:253,1,80,2|0,1:2|0:0,0:0:0:0:
502,320,51024,6,0,P|422:289|442:373,1,209.999993591309,2|0,1:0|0:0,0:0:0:0:
445,246,51399,5,2,0:0:0:0:
465,165,51492,1,2,0:0:0:0:
432,87,51586,1,2,0:0:0:0:
352,60,51680,1,2,0:0:0:0:
362,29,51774,5,2,1:2:0:0:
453,65,51868,1,2,0:2:0:0:
494,153,51962,1,2,0:2:0:0:
476,248,52055,1,2,0:2:0:0:
387,289,52149,6,0,L|301:284,1,69.9999978637696,0|0,1:0|0:0,0:0:0:0:
192,202,52336,2,0,L|261:206,1,69.9999978637696,0|0,1:0|0:0,0:0:0:0:
476,248,52524,5,2,0:0:0:0:
494,153,52617,1,2,0:0:0:0:
453,65,52711,1,2,0:0:0:0:
362,29,52805,1,2,0:0:0:0:
276,76,52899,2,0,L|186:77,1,69.9999978637696,0|0,1:2|0:0,0:0:0:0:
101,29,53086,6,0,B|56:113|56:113|108:260|108:260|66:367,1,359.999989013672,2|0,1:0|0:0,0:0:0:0:
179,312,53649,6,0,B|201:254|201:254|172:181,1,119.999996337891,2|2,1:0|1:0,0:0:0:0:
79,28,54024,6,0,B|34:110|34:110|72:222,1,209.999993591309,2|0,1:0|0:0,0:0:0:0:
143,118,54399,2,0,L|282:124,1,139.999995727539,2|0,1:0|0:0,0:0:0:0:
362,178,54680,6,0,L|366:236,1,34.9999989318848,4|4,0:0|0:0,0:0:0:0:
298,286,54774,1,6,0:0:0:0:
408,367,54961,1,2,0:0:0:0:
508,283,55149,1,2,0:0:0:0:
407,111,55336,6,0,B|422:156|422:156|282:156|282:156|306:105,1,239.999992675781,2|0,1:0|0:0,0:0:0:0:
359,18,55899,1,2,0:0:0:0:
426,123,56086,6,0,B|441:165|441:165|262:165|262:165|289:111,1,269.999991760254,2|0,1:0|0:0,0:0:0:0:
331,235,56461,2,0,B|350:195|350:195|370:246,1,89.9999972534181,4|4,0:0|0:0,0:0:0:0:
308,344,56649,6,0,P|250:324|187:348,1,119.999996337891,2|0,1:2|0:0,0:0:0:0:
47,225,57024,6,0,P|145:254|249:194,1,209.999993591309,2|0,1:0|0:0,0:0:0:0:
340,88,57399,2,0,P|336:190|349:304,1,209.999993591309,2|0,1:0|0:0,0:0:0:0:
264,373,57774,6,0,L|253:281,1,69.9999978637696,4|0,0:0|0:0,0:0:0:0:
154,251,57961,2,0,L|143:159,1,69.9999978637696,4|0,0:0|0:0,0:0:0:0:
207,65,58149,1,2,0:0:0:0:
207,65,58336,6,0,B|119:51|59:85|59:85|19:37|70:30|141:25,1,279.999991455078,2|4,1:0|0:0,0:0:0:0:
241,162,58899,1,0,0:0:0:0:
199,296,59086,2,0,L|290:284,1,69.9999978637696,4|4,0:0|0:0,0:0:0:0:
328,211,59274,6,0,B|352:148|311:93|311:93|310:22|395:22|428:84|363:132,1,320,2|4,1:0|0:0,0:0:0:0:
241,162,60211,5,0,0:0:0:0:
183,106,60399,1,0,0:0:0:0:
192,59,60586,1,0,0:0:0:0:
192,59,60774,6,0,L|298:54,1,80,10|0,0:0|0:0,0:0:0:0:
368,149,61149,1,0,0:0:0:0:
496,13,61336,6,0,P|435:63|347:48,1,160,4|0,0:0|0:0,0:0:0:0:
275,151,61899,1,0,0:0:0:0:
287,229,62086,1,0,0:0:0:0:
263,270,62274,1,10,0:0:0:0:
263,270,62461,5,4,3:0:0:0:
272,283,62555,1,0,3:0:0:0:
309,275,62649,5,4,3:0:0:0:
318,288,62743,1,0,3:0:0:0:
358,285,62836,5,4,3:0:0:0:
367,298,62930,1,0,3:0:0:0:
410,304,63024,6,0,P|396:235|466:158,1,160,4|0,0:0|0:0,0:0:0:0:
445,166,63586,1,0,0:0:0:0:
458,119,63774,1,10,0:0:0:0:
431,43,63961,1,0,0:0:0:0:
308,4,64149,1,0,0:0:0:0:
208,128,64336,6,0,B|381:119,1,160,4|0,0:0|0:0,0:0:0:0:
431,43,64899,1,0,0:0:0:0:
373,220,65086,1,4,0:0:0:0:
328,29,65274,1,10,0:0:0:0:
470,152,65461,5,4,3:0:0:0:
458,163,65555,1,0,3:0:0:0:
473,198,65649,5,4,3:0:0:0:
461,209,65743,1,0,3:0:0:0:
471,248,65836,5,4,3:0:0:0:
460,259,65930,1,0,3:0:0:0:
458,297,66024,5,4,0:0:0:0:
427,334,66211,1,0,0:0:0:0:
330,327,66399,1,0,0:0:0:0:
260,219,66586,1,0,0:0:0:0:
331,67,66774,5,10,0:0:0:0:
253,123,66961,1,0,0:0:0:0:
204,126,67149,1,0,0:0:0:0:
204,126,67336,6,0,B|141:134|95:104|95:104|139:148,1,160,4|0,0:0|0:0,0:0:0:0:
184,252,67899,1,0,0:0:0:0:
161,336,68086,1,0,0:0:0:0:
118,357,68274,1,10,0:0:0:0:
118,357,68461,5,4,3:0:0:0:
128,368,68555,1,0,3:0:0:0:
164,357,68649,5,4,3:0:0:0:
174,369,68743,1,0,3:0:0:0:
216,373,68836,5,4,3:0:0:0:
304,174,69211,5,0,0:0:0:0:
304,254,69399,1,0,0:0:0:0:
333,289,69586,1,4,0:0:0:0:
380,69,69774,5,10,0:0:0:0:
304,174,69961,1,0,0:0:0:0:
304,254,70149,1,0,0:0:0:0:
333,289,70336,6,0,L|437:271,1,80,4|0,0:0|0:0,0:0:0:0:
500,123,70711,1,10,0:0:0:0:
397,189,70899,1,0,0:0:0:0:
398,361,71086,1,4,0:0:0:0:
498,255,71274,2,0,L|499:203,1,40,4|0,0:0|0:0,0:0:0:0:
500,123,71461,2,0,L|501:71,1,40,4|0,0:0|0:0,0:0:0:0:
435,24,71649,5,4,3:0:0:0:
426,37,71743,1,0,3:0:0:0:
389,29,71837,5,4,3:0:0:0:
380,42,71931,1,0,3:0:0:0:
340,39,72024,5,4,0:0:0:0:
294,23,72211,1,0,0:0:0:0:
218,50,72399,1,0,0:0:0:0:
190,174,72586,1,0,0:0:0:0:
270,345,72774,5,10,0:0:0:0:
289,267,72961,1,0,0:0:0:0:
272,221,73149,1,0,0:0:0:0:
272,221,73336,6,0,L|106:217,1,160,4|0,0:0|0:0,0:0:0:0:
39,322,73899,1,0,0:0:0:0:
96,377,74086,1,0,0:0:0:0:
142,362,74274,1,10,0:0:0:0:
142,362,74461,5,4,3:0:0:0:
130,351,74555,1,0,3:0:0:0:
145,316,74649,5,4,3:0:0:0:
133,305,74743,1,0,3:0:0:0:
143,266,74836,5,4,3:0:0:0:
132,255,74930,1,0,3:0:0:0:
147,215,75024,5,4,0:0:0:0:
94,125,75211,1,0,0:0:0:0:
138,30,75399,1,0,0:0:0:0:
241,33,75586,1,0,0:0:0:0:
131,227,75774,5,10,0:0:0:0:
75,121,75961,1,0,0:0:0:0:
127,12,76149,1,0,0:0:0:0:
246,15,76336,1,4,0:0:0:0:
246,15,76711,5,0,0:0:0:0:
240,135,76899,1,0,0:0:0:0:
229,254,77086,1,4,0:0:0:0:
223,374,77274,1,10,0:0:0:0:
381,297,77461,5,4,3:0:0:0:
368,287,77555,1,0,3:0:0:0:
386,248,77649,5,4,3:0:0:0:
373,238,77743,1,0,3:0:0:0:
390,197,77836,5,4,3:0:0:0:
377,187,77930,1,0,3:0:0:0:
398,142,78024,5,4,0:0:0:0:
337,78,78211,1,0,0:0:0:0:
249,71,78399,1,0,0:0:0:0:
193,139,78586,1,0,0:0:0:0:
54,69,78774,5,10,0:0:0:0:
106,139,78961,1,0,0:0:0:0:
103,227,79149,1,0,0:0:0:0:
39,287,79336,1,4,0:0:0:0:
39,287,79711,5,0,0:0:0:0:
122,315,79899,1,0,0:0:0:0:
204,343,80086,1,0,0:0:0:0:
288,369,80274,1,10,0:0:0:0:
360,260,80461,5,4,3:0:0:0:
370,271,80555,1,0,3:0:0:0:
406,260,80649,5,4,3:0:0:0:
416,272,80743,1,0,3:0:0:0:
458,276,80836,5,4,0:0:0:0:
425,137,81024,1,8,0:0:0:0:
450,373,81211,1,0,0:0:0:0:
501,192,81399,1,0,0:0:0:0:
370,271,81586,1,4,0:0:0:0:
256,167,81774,2,0,L|335:179,1,80,10|0,0:0|0:0,0:0:0:0:
370,271,82149,1,0,0:0:0:0:
504,77,82336,6,0,P|441:99|345:37,1,179.999994506836,4|0,0:0|0:0,0:0:0:0:
204,6,82899,1,14,0:0:0:0:
267,107,83086,1,4,0:0:0:0:
216,216,83274,1,4,0:0:0:0:
94,214,83461,1,4,3:0:0:0:
109,224,83555,1,4,3:0:0:0:
105,268,83649,5,4,3:0:0:0:
120,278,83743,1,4,3:0:0:0:
118,322,83836,5,4,3:0:0:0:
133,332,83930,1,4,3:0:0:0:
202,384,84024,6,0,L|51:379,1,134.999995880127,8|0,0:0|1:0,0:0:0:0:
9,307,84399,2,0,P|23:267|2:202,1,89.9999972534181,8|0,0:0|0:0,0:0:0:0:
90,40,84774,1,8,0:0:0:0:
187,5,84961,1,0,0:0:0:0:
108,142,85149,1,8,0:0:0:0:
205,107,85336,1,0,1:0:0:0:
321,150,85524,6,0,P|299:203|328:275,1,134.999995880127,8|0,0:0|1:0,0:0:0:0:
396,324,85899,2,0,L|510:307,1,89.9999972534181,8|0,0:0|0:0,0:0:0:0:
509,144,86274,1,8,0:0:0:0:
412,179,86461,1,0,0:0:0:0:
491,42,86649,1,8,0:0:0:0:
394,77,86836,1,2,0:0:0:0:
279,8,87024,5,12,0:0:0:0:
175,148,87305,1,0,1:0:0:0:
175,148,87399,2,0,L|192:256,1,89.9999972534181,8|0,0:0|0:0,0:0:0:0:
141,378,87774,1,8,0:0:0:0:
100,282,87961,1,0,0:0:0:0:
243,374,88149,1,8,0:0:0:0:
272,274,88336,1,0,1:0:0:0:
226,123,88524,6,0,L|73:133,1,134.999995880127,8|0,0:0|1:0,0:0:0:0:
72,52,88899,2,0,L|166:45,1,89.9999972534181,8|0,0:0|0:0,0:0:0:0:
330,104,89274,1,8,0:0:0:0:
289,200,89461,1,0,0:0:0:0:
432,108,89649,1,8,0:0:0:0:
461,208,89836,1,0,1:0:0:0:
371,382,90024,6,0,L|377:245,1,119.999996337891,0|0,1:0|0:0,0:0:0:0:
379,176,90305,1,0,0:0:0:0:
358,275,90399,6,0,L|353:382,1,100,4|0,0:0|0:0,0:0:0:0:
147,276,90774,6,0,L|141:139,1,119.999996337891,0|0,1:0|0:0,0:0:0:0:
139,70,91055,1,0,0:0:0:0:
160,169,91149,6,0,L|165:276,1,100,4|0,0:0|0:0,0:0:0:0:
269,349,91524,6,0,L|405:341,1,119.999996337891,0|0,1:0|0:0,0:0:0:0:
466,299,91805,1,0,0:0:0:0:
376,325,91899,6,0,L|269:332,1,100,4|0,0:0|0:0,0:0:0:0:
263,105,92274,6,0,L|399:113,1,119.999996337891,0|0,1:0|0:0,0:0:0:0:
460,155,92555,1,0,0:0:0:0:
370,129,92649,6,0,L|263:122,1,100,4|0,0:0|0:0,0:0:0:0:
90,55,93024,5,0,0:0:0:0:
135,216,93211,1,0,0:0:0:0:
146,181,93305,1,2,0:0:0:0:
59,290,93492,1,0,0:0:0:0:
43,257,93586,1,2,0:0:0:0:
181,92,93774,5,2,0:0:0:0:
223,254,93961,1,0,0:0:0:0:
239,287,94055,1,2,0:0:0:0:
139,367,94242,1,0,0:0:0:0:
150,332,94336,1,2,0:0:0:0:
65,141,94524,5,6,0:0:0:0:
98,153,94711,5,2,0:0:0:0:
134,150,94899,5,2,0:0:0:0:
163,129,95086,5,2,0:0:0:0:
65,141,95274,5,4,0:0:0:0:
98,153,95368,1,4,0:0:0:0:
134,150,95462,1,4,0:0:0:0:
163,129,95555,1,4,0:0:0:0:
243,73,95649,6,0,L|238:132,1,59.9999981689454,2|0,1:2|0:0,0:0:0:0:
263,99,95836,2,0,L|258:158,1,59.9999981689454,2|0,1:2|0:0,0:0:0:0:
232,282,96024,6,0,P|309:239|288:336,1,209.999993591309,2|0,1:0|0:0,0:0:0:0:
179,365,96399,2,0,B|55:364|55:364|-5:296,1,209.999993591309,2|0,1:0|0:0,0:0:0:0:
102,119,96774,2,0,L|109:197,1,69.9999978637696,2|0,1:0|0:0,0:0:0:0:
115,258,96961,2,0,L|108:188,1,69.9999978637696,2|0,1:0|0:0,0:0:0:0:
229,183,97149,5,6,1:2:0:0:
309,205,97242,1,2,0:2:0:0:
386,171,97336,1,2,0:2:0:0:
405,89,97430,1,2,0:2:0:0:
378,8,97524,6,0,L|348:15,1,24.2857140739597,2|0,0:1|0:0,0:0:0:0:
237,194,97711,5,2,0:2:0:0:
317,216,97804,1,2,0:2:0:0:
394,182,97898,1,2,0:2:0:0:
413,100,97992,1,2,0:2:0:0:
489,52,98086,6,0,L|501:93,1,24.390243902439,2|0,0:1|0:0,0:0:0:0:
398,279,98274,5,2,1:2:0:0:
398,279,98461,1,2,1:2:0:0:
512,359,98649,6,0,L|496:289,1,69.9999978637696,2|0,1:2|0:0,0:0:0:0:
502,384,98836,2,0,L|486:315,1,69.9999978637696,2|0,1:2|0:0,0:0:0:0:
512,144,99024,6,0,B|477:192|477:192|383:190|383:190|349:129,1,209.999993591309,2|0,1:0|0:0,0:0:0:0:
256,38,99399,2,0,L|263:129,1,69.9999978637696,2|0,1:0|0:0,0:0:0:0:
272,278,99586,1,4,0:0:0:0:
277,293,99680,1,4,0:0:0:0:
289,189,99774,2,0,L|208:196,1,69.9999978637696,4|0,0:0|0:0,0:0:0:0:
103,182,99961,6,0,L|113:223,1,34.9999989318848,2|2,0:0|0:0,0:0:0:0:
89,197,100055,2,0,L|99:238,1,34.9999989318848,2|2,0:0|0:0,0:0:0:0:
37,303,100149,5,2,1:2:0:0:
68,318,100242,1,2,0:2:0:0:
118,317,100336,1,2,0:2:0:0:
169,279,100430,1,2,0:2:0:0:
210,209,100524,5,2,0:2:0:0:
274,165,100617,1,2,0:2:0:0:
194,182,100711,5,2,0:2:0:0:
289,189,100805,1,2,0:2:0:0:
178,156,100899,6,2,L|193:268,1,69.9999978637696,2|2,1:2|0:2,0:2:0:0:
304,215,101086,6,0,P|447:204|361:344,1,359.999989013672,2|0,1:0|0:0,0:0:0:0:
392,118,101649,6,0,L|382:261,1,139.999995727539,2|2,1:0|1:0,0:0:0:0:
235,308,102024,6,0,B|209:173|209:173|262:95,1,209.999993591309,2|0,1:0|0:0,0:0:0:0:
195,15,102399,2,0,P|259:40|330:4,1,139.999995727539,2|0,1:0|0:0,0:0:0:0:
459,104,102680,6,0,L|422:95,1,34.9999989318848,4|4,0:0|0:0,0:0:0:0:
354,143,102774,1,6,0:0:0:0:
251,218,102961,1,2,0:0:0:0:
138,148,103149,1,2,0:0:0:0:
199,312,103336,6,0,B|184:267|184:267|324:267|324:267|300:318,1,239.999992675781,2|0,1:0|0:0,0:0:0:0:
249,219,103899,1,2,0:0:0:0:
180,295,104086,6,0,B|165:253|165:253|344:253|344:253|317:307,1,269.999991760254,2|0,1:0|0:0,0:0:0:0:
269,180,104461,2,0,B|250:220|250:220|230:169,1,89.9999972534181,4|4,0:0|0:0,0:0:0:0:
342,26,104649,6,0,L|354:181,1,119.999996337891,2|0,1:2|0:0,0:0:0:0:
481,374,105024,6,0,P|512:296|423:316,1,209.999993591309,2|0,1:0|0:0,0:0:0:0:
286,208,105399,2,0,P|380:204|524:185,1,209.999993591309,2|0,1:0|0:0,0:0:0:0:
462,37,105774,6,0,P|460:67|450:118,1,69.9999978637696,4|0,0:0|0:0,0:0:0:0:
378,303,105961,2,0,P|381:266|388:233,1,69.9999978637696,4|0,0:0|0:0,0:0:0:0:
378,303,106336,6,0,P|371:225|373:60,1,239.999992675781,2|4,1:0|0:0,0:0:0:0:
495,188,106899,1,0,0:0:0:0:
264,107,107086,2,0,L|188:109,1,59.9999981689454,4|4,0:0|0:0,0:0:0:0:
104,33,107274,1,14,0:0:0:0:
104,33,107461,6,0,L|108:80,1,34.9999989318848,2|2,0:0|0:0,0:0:0:0:
104,33,107649,2,0,L|109:96,1,44.999998626709,2|2,0:0|0:0,0:0:0:0:
104,33,107836,2,0,L|110:107,1,55.0000016784668,2|2,0:0|0:0,0:0:0:0:
0,243,108024,6,0,P|69:229|150:240,1,139.999995727539,2|0,1:0|0:0,0:0:0:0:
215,337,108305,1,0,0:0:0:0:
299,311,108399,2,0,P|318:223|274:174,1,139.999995727539,2|0,1:0|0:0,0:0:0:0:
175,152,108680,1,0,0:0:0:0:
220,78,108774,6,0,L|292:84,1,69.9999978637696,2|0,1:0|0:0,0:0:0:0:
359,14,108961,1,2,0:0:0:0:
371,24,109055,1,2,0:0:0:0:
500,103,109149,2,0,L|430:97,1,69.9999978637696,2|0,1:0|0:0,0:0:0:0:
333,177,109336,5,2,0:0:0:0:
355,181,109430,1,2,0:0:0:0:
331,197,109524,1,2,0:0:0:0:
357,201,109617,1,2,0:0:0:0:
327,217,109711,1,2,0:0:0:0:
361,221,109805,1,2,0:0:0:0:
318,235,109899,1,2,0:0:0:0:
370,240,109993,1,2,0:0:0:0:
304,253,110086,1,2,0:0:0:0:
383,257,110180,1,2,0:0:0:0:
341,331,110274,5,2,1:2:0:0:
341,331,110461,1,2,1:2:0:0:
468,223,110649,6,0,L|478:312,1,69.9999978637696,2|0,1:2|0:0,0:0:0:0:
480,211,110836,2,0,L|490:300,1,69.9999978637696,2|0,1:2|0:0,0:0:0:0:
250,364,111024,6,0,P|248:260|235:132,1,209.999993591309,2|0,1:0|0:0,0:0:0:0:
81,12,111399,1,2,0:0:0:0:
2,70,111492,1,2,0:0:0:0:
30,164,111586,1,2,0:0:0:0:
134,166,111680,1,2,0:0:0:0:
182,72,111774,6,0,P|148:77|87:93,1,69.9999978637696,0|0,1:0|0:0,0:0:0:0:
119,251,111961,2,0,P|153:258|187:264,1,69.9999978637696,0|0,1:0|0:0,0:0:0:0:
296,150,112149,5,2,0:0:0:0:
283,68,112242,1,2,0:2:0:0:
314,149,112336,5,2,0:0:0:0:
302,67,112429,1,2,0:0:0:0:
384,93,112524,6,0,P|414:70|459:69,1,69.9999978637696,2|0,1:0|0:0,0:0:0:0:
510,191,112711,2,0,P|519:149|499:103,1,69.9999978637696,2|0,1:0|0:0,0:0:0:0:
404,209,112899,2,0,L|408:293,1,69.9999978637696,0|0,1:0|0:0,0:0:0:0:
277,350,113086,6,0,B|215:378|215:378|155:367|155:367|124:319|124:319|131:263|131:263|175:227|175:227|250:226,1,359.999989013672,2|0,1:0|0:0,0:0:0:0:
52,217,113649,1,2,1:0:0:0:
201,302,113836,1,2,1:0:0:0:
182,40,114024,6,0,B|129:100|129:100|148:245,1,209.999993591309,2|0,1:0|0:0,0:0:0:0:
69,355,114399,2,0,L|51:210,1,139.999995727539,2|0,1:0|0:0,0:0:0:0:
71,77,114680,6,0,L|116:99,1,34.9999989318848,4|4,0:0|0:0,0:0:0:0:
173,144,114774,1,6,0:0:0:0:
313,82,114961,1,2,0:0:0:0:
449,136,115149,1,2,0:0:0:0:
361,318,115336,6,0,B|317:337|317:337|303:198|303:198|356:216,1,239.999992675781,2|0,1:0|0:0,0:0:0:0:
263,277,115899,1,2,0:0:0:0:
346,338,116086,6,0,B|305:357|305:357|287:179|287:179|343:200,1,269.999991760254,2|0,1:0|0:0,0:0:0:0:
224,261,116461,2,0,B|262:278|262:278|217:308,1,89.9999972534181,4|4,0:0|0:0,0:0:0:0:
388,261,116649,2,0,L|520:244,1,119.999996337891,2|0,1:2|0:0,0:0:0:0:
420,49,117024,6,0,P|307:65|189:61,1,209.999993591309,2|0,1:0|0:0,0:0:0:0:
51,155,117399,2,0,P|157:151|261:168,1,209.999993591309,2|0,1:0|0:0,0:0:0:0:
236,359,117774,6,0,L|223:266,1,69.9999978637696,4|0,0:0|0:0,0:0:0:0:
363,170,117961,2,0,L|372:239,1,69.9999978637696,4|0,0:0|0:0,0:0:0:0:
86,260,118149,1,2,0:0:0:0:
86,260,118336,6,0,P|119:108|42:14,1,279.999991455078,2|4,1:0|0:0,0:0:0:0:
236,195,118899,1,0,0:0:0:0:
348,63,119086,2,0,L|268:54,1,69.9999978637696,4|4,0:0|0:0,0:0:0:0:
166,122,119274,6,0,B|119:195|156:272|156:272|239:319|337:242,1,320,2|4,1:0|0:0,0:0:0:0:
377,144,120211,5,0,0:0:0:0:
281,157,120399,1,0,0:0:0:0:
244,187,120586,1,0,0:0:0:0:
244,187,120774,6,0,L|237:69,1,80,10|0,0:0|0:0,0:0:0:0:
412,223,121149,1,0,0:0:0:0:
334,384,121336,6,0,L|323:204,1,160,4|0,0:0|0:0,0:0:0:0:
321,95,121899,1,0,0:0:0:0:
232,130,122086,1,0,0:0:0:0:
190,106,122274,1,10,0:0:0:0:
190,106,122461,5,4,3:0:0:0:
181,119,122555,1,0,3:0:0:0:
203,150,122649,5,4,3:0:0:0:
194,163,122743,1,0,3:0:0:0:
213,199,122836,5,4,3:0:0:0:
204,212,122930,1,0,3:0:0:0:
226,245,123024,6,0,B|97:231|97:231|145:260,1,160,4|0,0:0|0:0,0:0:0:0:
122,246,123586,1,0,0:0:0:0:
135,292,123774,1,10,0:0:0:0:
69,361,123961,1,0,0:0:0:0:
27,239,124149,1,0,0:0:0:0:
226,245,124336,6,0,B|399:236,1,160,4|0,0:0|0:0,0:0:0:0:
482,140,124899,1,0,0:0:0:0:
303,193,125086,1,4,0:0:0:0:
421,365,125274,1,10,0:0:0:0:
385,236,125461,5,4,3:0:0:0:
396,225,125555,1,0,3:0:0:0:
386,186,125648,5,4,3:0:0:0:
398,175,125742,1,0,3:0:0:0:
383,140,125836,5,4,3:0:0:0:
395,129,125930,1,0,3:0:0:0:
378,90,126024,5,4,0:0:0:0:
383,42,126211,1,0,0:0:0:0:
471,3,126399,1,0,0:0:0:0:
501,126,126586,1,0,0:0:0:0:
300,58,126774,5,10,0:0:0:0:
223,116,126961,1,0,0:0:0:0:
137,71,127149,1,0,0:0:0:0:
137,71,127336,6,0,B|92:40|92:40|95:147,1,160,4|0,0:0|0:0,0:0:0:0:
181,239,127899,1,0,0:0:0:0:
139,331,128086,1,0,0:0:0:0:
93,331,128274,1,10,0:0:0:0:
93,331,128461,5,4,3:0:0:0:
103,342,128555,1,0,3:0:0:0:
139,331,128649,5,4,3:0:0:0:
149,343,128743,1,0,3:0:0:0:
191,347,128836,5,4,0:0:0:0:
356,218,129211,5,0,0:0:0:0:
278,201,129399,1,0,0:0:0:0:
250,165,129586,1,4,0:0:0:0:
475,165,129774,5,10,0:0:0:0:
356,218,129961,1,0,0:0:0:0:
278,201,130149,1,0,0:0:0:0:
250,165,130336,6,0,L|245:55,1,80,4|0,0:0|0:0,0:0:0:0:
143,151,130711,1,14,0:0:0:0:
345,117,130899,1,0,0:0:0:0:
209,293,131086,2,0,L|283:270,1,50,4|0,0:0|0:0,0:0:0:0:
324,330,131274,2,0,L|398:307,1,50,4|0,0:0|0:0,0:0:0:0:
444,359,131461,2,0,L|518:336,1,50,12|0,0:0|0:0,0:0:0:0:
