osu file format v14

[General]
AudioFilename: audio.mp3
AudioLeadIn: 0
PreviewTime: 17383
Countdown: 1
SampleSet: Soft
StackLeniency: 0.3
Mode: 0
LetterboxInBreaks: 0
WidescreenStoryboard: 1

[Editor]
DistanceSpacing: 0.9
BeatDivisor: 3
GridSize: 16
TimelineZoom: 2.4

[Metadata]
Title:The back of Beyond
TitleUnicode:The back of Beyond
Artist:M2U
ArtistUnicode:M2U
Creator:yaspo
Version:Spring
Source:Ez2Dj 7th TraX -Resistance-
Tags:ez2on ez2ac
BeatmapID:1809913
BeatmapSetID:764683

[Difficulty]
HPDrainRate:6
CircleSize:5
OverallDifficulty:8
ApproachRate:8
SliderMultiplier:1.4
SliderTickRate:1

[Events]
//Background and Video events
0,0,"spring.png",0,0
//Break Periods
//Storyboard Layer 0 (Background)
//Storyboard Layer 1 (Fail)
//Storyboard Layer 2 (Pass)
//Storyboard Layer 3 (Foreground)
//Storyboard Sound Samples

[TimingPoints]
1633,500,4,2,1,40,1,0
2383,-100,4,2,1,5,0,0
2508,-100,4,2,1,40,0,0
3633,-83.3333333333333,4,2,1,40,0,0
4383,-83.3333333333333,4,2,1,5,0,0
4508,-83.3333333333333,4,2,1,40,0,0
5633,-100,4,2,1,40,0,0
6383,-100,4,2,1,5,0,0
6508,-100,4,2,1,40,0,0
7633,-142.857142857143,4,2,1,40,0,0
8383,-142.857142857143,4,2,1,5,0,0
8508,-142.857142857143,4,2,1,40,0,0
9633,-100,4,2,1,40,0,0
10633,-100,4,2,1,5,0,0
10758,-100,4,2,1,40,0,0
10883,-142.857142857143,4,2,1,40,0,0
11133,-142.857142857143,4,2,1,5,0,0
11258,-142.857142857143,4,2,1,40,0,0
11508,-142.857142857143,4,2,1,5,0,0
11633,-83.3333333333333,4,2,1,40,0,0
12633,-83.3333333333333,4,2,1,5,0,0
12758,-83.3333333333333,4,2,1,40,0,0
12883,-142.857142857143,4,2,1,40,0,0
13133,-142.857142857143,4,2,1,5,0,0
13258,-142.857142857143,4,2,1,40,0,0
13508,-142.857142857143,4,2,1,5,0,0
13633,-83.3333333333333,4,2,1,40,0,0
14633,-83.3333333333333,4,2,1,5,0,0
14758,-83.3333333333333,4,2,1,40,0,0
15633,-100,4,2,1,40,0,0
15883,-100,4,2,1,5,0,0
16008,-100,4,2,1,40,0,0
16383,-142.857142857143,4,2,1,40,0,0
17633,-66.6666666666667,4,2,1,80,0,0
19633,-83.3333333333333,4,2,1,80,0,0
20633,-83.3333333333333,4,2,1,5,0,0
20758,-83.3333333333333,4,2,1,80,0,0
21633,-66.6666666666667,4,2,1,80,0,0
22883,-66.6666666666667,4,2,1,5,0,0
23008,-66.6666666666667,4,2,1,80,0,0
23633,-83.3333333333333,4,2,1,80,0,0
23883,-83.3333333333333,4,2,1,5,0,0
24008,-83.3333333333333,4,2,1,80,0,0
24633,-83.3333333333333,4,2,1,5,0,0
24758,-83.3333333333333,4,2,1,80,0,0
25633,-66.6666666666667,4,2,1,80,0,0
28008,-83.3333333333333,4,2,1,80,0,0
28383,-111.111111111111,4,2,1,60,0,0
28758,-111.111111111111,4,2,1,5,0,0
28883,-111.111111111111,4,2,1,60,0,0
29633,-52.6315789473684,4,2,1,90,0,0
31633,-83.3333333333333,4,2,1,60,0,0
31883,-83.3333333333333,4,2,1,5,0,0
32008,-83.3333333333333,4,2,1,60,0,0
32133,-83.3333333333333,4,2,1,50,0,0
32258,-83.3333333333333,4,2,1,40,0,0
32383,-142.857142857143,4,2,1,40,0,0
33008,-142.857142857143,4,2,1,5,0,0
33133,-142.857142857143,4,2,1,40,0,0
33258,-142.857142857143,4,2,1,50,0,0
33383,-142.857142857143,4,2,1,60,0,0
33508,-142.857142857143,4,2,1,70,0,0
33633,-66.6666666666667,4,2,1,80,0,0
35633,-83.3333333333333,4,2,1,80,0,0
36633,-83.3333333333333,4,2,1,5,0,0
36758,-83.3333333333333,4,2,1,80,0,0
37633,-66.6666666666667,4,2,1,80,0,0
38883,-66.6666666666667,4,2,1,5,0,0
39008,-66.6666666666667,4,2,1,80,0,0
39633,-83.3333333333333,4,2,1,80,0,0
40883,-58.8235294117647,4,2,1,80,0,0
41008,-58.8235294117647,4,2,1,5,0,0
41133,-58.8235294117647,4,2,1,80,0,0
41383,-58.8235294117647,4,2,1,5,0,0
41508,-58.8235294117647,4,2,1,80,0,0
41633,-58.8235294117647,4,2,1,80,0,0
41799,-58.8235294117647,4,2,1,5,0,0
41924,-58.8235294117647,4,2,1,80,0,0
42883,-58.8235294117647,4,2,1,5,0,0
43008,-58.8235294117647,4,2,1,80,0,0
44383,-28.5714285714286,4,2,1,100,0,0
44883,-25,4,2,1,5,0,0
45008,-25,4,2,1,80,0,0
45633,-50,4,2,1,90,0,0
45758,-50,4,2,1,5,0,0
45883,-50,4,2,1,90,0,0
46008,-50,4,2,1,5,0,0
46133,-50,4,2,1,90,0,0
46258,-50,4,2,1,5,0,0
46383,-50,4,2,1,90,0,0
46508,-50,4,2,1,5,0,0
46633,-50,4,2,1,90,0,0
47633,-66.6666666666667,4,2,1,60,0,0
47883,-66.6666666666667,4,2,1,5,0,0
48008,-83.3333333333333,4,2,1,50,0,0
48258,-83.3333333333333,4,2,1,5,0,0
48383,-142.857142857143,4,2,1,40,0,0
49008,-142.857142857143,4,2,1,5,0,0
49133,-142.857142857143,4,2,1,50,0,0
50383,-100,4,2,1,50,0,0
57508,-100,4,2,1,5,0,0
57633,-100,4,2,1,50,0,0
58133,-100,4,2,1,5,0,0
58258,-100,4,2,1,50,0,0
63883,-100,4,2,1,5,0,0
64008,-142.857142857143,4,2,1,50,0,0
64258,-142.857142857143,4,2,1,5,0,0
64383,-83.3333333333333,4,2,1,50,0,0
65008,-83.3333333333333,4,2,1,5,0,0
65133,-83.3333333333333,4,2,1,50,0,0
65633,-66.6666666666667,4,2,1,80,0,0
67633,-83.3333333333333,4,2,1,80,0,0
68633,-83.3333333333333,4,2,1,5,0,0
68758,-83.3333333333333,4,2,1,80,0,0
69633,-66.6666666666667,4,2,1,80,0,0
70883,-66.6666666666667,4,2,1,5,0,0
71008,-66.6666666666667,4,2,1,80,0,0
71633,-83.3333333333333,4,2,1,80,0,0
71883,-83.3333333333333,4,2,1,5,0,0
72008,-83.3333333333333,4,2,1,80,0,0
72633,-83.3333333333333,4,2,1,5,0,0
72758,-83.3333333333333,4,2,1,80,0,0
73633,-66.6666666666667,4,2,1,80,0,0
76008,-83.3333333333333,4,2,1,80,0,0
76383,-111.111111111111,4,2,1,60,0,0
76758,-111.111111111111,4,2,1,5,0,0
76883,-111.111111111111,4,2,1,60,0,0
77633,-52.6315789473684,4,2,1,90,0,0
79633,-83.3333333333333,4,2,1,60,0,0
79883,-83.3333333333333,4,2,1,5,0,0
80008,-83.3333333333333,4,2,1,60,0,0
80133,-83.3333333333333,4,2,1,50,0,0
80258,-83.3333333333333,4,2,1,40,0,0
80383,-142.857142857143,4,2,1,40,0,0
81008,-142.857142857143,4,2,1,5,0,0
81133,-142.857142857143,4,2,1,40,0,0
81258,-142.857142857143,4,2,1,50,0,0
81383,-142.857142857143,4,2,1,60,0,0
81508,-142.857142857143,4,2,1,70,0,0
81633,-66.6666666666667,4,2,1,80,0,0
83633,-83.3333333333333,4,2,1,80,0,0
84633,-83.3333333333333,4,2,1,5,0,0
84758,-83.3333333333333,4,2,1,80,0,0
85633,-66.6666666666667,4,2,1,80,0,0
86883,-66.6666666666667,4,2,1,5,0,0
87008,-66.6666666666667,4,2,1,80,0,0
87633,-83.3333333333333,4,2,1,80,0,0
88883,-58.8235294117647,4,2,1,80,0,0
89008,-58.8235294117647,4,2,1,5,0,0
89133,-58.8235294117647,4,2,1,80,0,0
89383,-58.8235294117647,4,2,1,5,0,0
89508,-58.8235294117647,4,2,1,80,0,0
89633,-58.8235294117647,4,2,1,80,0,0
89799,-58.8235294117647,4,2,1,5,0,0
89924,-58.8235294117647,4,2,1,80,0,0
90883,-58.8235294117647,4,2,1,5,0,0
91008,-58.8235294117647,4,2,1,80,0,0
92383,-28.5714285714286,4,2,1,100,0,0
92883,-25,4,2,1,5,0,0
93008,-25,4,2,1,80,0,0
93633,-50,4,2,1,90,0,0
93758,-50,4,2,1,5,0,0
93883,-50,4,2,1,90,0,0
94008,-50,4,2,1,5,0,0
94133,-50,4,2,1,90,0,0
94258,-50,4,2,1,5,0,0
94383,-50,4,2,1,90,0,0
94508,-50,4,2,1,5,0,0
94633,-50,4,2,1,90,0,0
95633,-66.6666666666667,4,2,1,60,0,0
95883,-66.6666666666667,4,2,1,5,0,0
96008,-83.3333333333333,4,2,1,50,0,0
96258,-83.3333333333333,4,2,1,5,0,0
96383,-142.857142857143,4,2,1,40,0,0
97008,-142.857142857143,4,2,1,5,0,0
97133,-100,4,2,1,50,0,0
99633,-142.857142857143,4,2,1,50,0,0
99883,-142.857142857143,4,2,1,5,0,0
100008,-142.857142857143,4,2,1,50,0,0
100258,-142.857142857143,4,2,1,5,0,0
100383,-200,4,2,1,50,0,0
100883,-200,4,2,1,5,0,0
100945,-200,4,2,1,50,0,0
101883,-200,4,2,1,5,0,0
101945,-200,4,2,1,50,0,0
102883,-200,4,2,1,5,0,0
102945,-200,4,2,1,50,0,0
103883,-200,4,2,1,5,0,0
103945,-200,4,2,1,50,0,0
104883,-200,4,2,1,5,0,0
105008,-200,4,2,1,50,0,0

[Colours]
Combo1 : 255,255,128
Combo2 : 255,128,128
Combo3 : 255,128,192
Combo4 : 128,255,128
Combo5 : 128,255,255

[HitObjects]
325,104,1508,6,0,L|297:108,1,17.5
348,122,1633,2,0,B|407:182|482:149|482:149|459:115|403:109,1,210,10|0,0:3|0:0,0:0:0:0:
268,24,2883,5,0,0:0:0:0:
171,225,3258,1,0,0:0:0:0:
30,217,3633,2,0,B|-41:146|-2:56|-2:56|39:83|46:151,1,251.999992309571,10|0,0:3|0:0,0:0:0:0:
171,225,4883,53,0,0:0:0:0:
320,347,5258,1,0,0:0:0:0:
434,320,5633,2,0,B|498:273|498:202|498:202|455:211|439:257,1,210,10|0,0:3|0:0,0:0:0:0:
345,320,7633,2,0,B|399:313|424:270|424:270|395:261|369:282,1,146.999995513916,10|0,0:3|0:0,0:0:0:0:
254,291,8633,1,0,0:0:0:0:
176,205,9133,1,0,0:0:0:0:
434,150,9633,6,0,P|444:94|400:12,2,140,6|8|0,3:3|0:3|0:0,0:0:0:0:
268,170,10883,2,0,P|269:146|267:122,1,48.9999985046387,2|0,0:3|0:0,0:0:0:0:
206,214,11259,2,0,P|184:201|161:193,1,48.9999985046387,2|0,0:3|0:0,0:0:0:0:
74,102,11633,54,0,P|62:164|110:253,2,167.999994873047,2|8|0,3:3|2:3|0:0,0:0:0:0:
206,214,12883,2,0,P|229:222|251:235,1,48.9999985046387,2|0,0:0|0:0,0:0:0:0:
312,187,13258,2,0,P|328:205|340:226,1,48.9999985046387,2|0,0:0|0:0,0:0:0:0:
428,124,13633,6,0,P|439:186|391:275,2,167.999994873047,2|8|0,3:0|0:3|2:0,0:0:0:0:
275,118,14883,1,0,0:0:0:0:
257,255,15133,1,10,0:3:0:0:
268,266,15383,1,0,0:0:0:0:
391,275,15633,2,0,P|417:251|442:195,1,70,10|0,0:3|0:0,0:0:0:0:
446,151,16008,1,8,0:3:0:0:
476,161,16133,1,8,0:3:0:0:
294,228,16383,53,2,3:0:0:0:
258,164,16883,1,0,3:0:0:0:
258,164,17008,1,8,2:1:0:0:
219,227,17133,1,8,0:1:0:0:
151,226,17258,1,8,0:3:0:0:
344,33,17508,1,8,0:3:0:0:
351,149,17633,6,0,P|271:68|171:56,1,210.000008010865,14|8,2:3|0:1,0:0:0:0:
0,112,18383,1,0,3:0:0:0:
36,273,18633,1,2,3:0:0:0:
23,341,18758,1,8,2:1:0:0:
196,240,19008,37,2,3:3:0:0:
236,308,19070,1,0,3:3:0:0:
226,361,19133,1,8,3:1:0:0:
357,234,19383,53,0,3:0:0:0:
452,330,19633,2,0,B|493:351|530:325|530:325|534:273|479:248,1,167.999994873047,2|8,3:0|0:1,0:0:0:0:
277,241,20383,2,0,P|318:249|357:234,1,83.9999974365235,2|0,0:3|0:3,0:0:0:0:
421,179,20758,21,8,2:1:0:0:
440,113,20883,1,10,2:3:0:0:
247,24,21133,1,8,2:1:0:0:
245,90,21258,1,10,2:3:0:0:
40,118,21508,1,8,0:3:0:0:
24,240,21633,6,0,P|104:159|204:147,1,210.000008010865,14|8,2:3|0:1,0:0:0:0:
140,367,22383,1,0,3:0:0:0:
343,357,22633,2,0,P|373:314|390:265,1,105.000004005432,2|0,3:0|0:0,0:0:0:0:
398,196,23008,37,2,3:0:0:0:
398,144,23070,1,0,3:0:0:0:
452,84,23133,1,8,3:1:0:0:
506,255,23383,37,0,3:0:0:0:
336,86,23633,2,0,P|278:77|229:83,1,83.9999974365235,10|0,2:3|0:0,0:0:0:0:
198,119,24008,1,2,0:0:0:0:
188,158,24133,1,8,0:1:0:0:
48,99,24383,2,0,P|20:130|-1:167,1,83.9999974365235,10|0,0:3|0:0,0:0:0:0:
0,242,24758,37,0,3:1:0:0:
38,292,24883,1,8,3:1:0:0:
107,259,25008,1,0,3:1:0:0:
151,322,25133,1,8,3:1:0:0:
238,294,25258,1,0,3:0:0:0:
322,364,25383,1,0,3:0:0:0:
450,344,25508,1,0,3:0:0:0:
503,185,25633,6,0,P|482:90|359:15,1,210.000008010865,14|8,0:3|0:1,0:0:0:0:
168,23,26383,1,0,3:0:0:0:
29,155,26633,1,2,3:0:0:0:
51,216,26758,1,8,2:1:0:0:
208,135,27008,37,2,3:0:0:0:
272,182,27070,1,0,3:0:0:0:
280,218,27133,1,8,3:1:0:0:
433,179,27383,53,0,3:0:0:0:
390,329,27633,2,0,P|444:341|492:323,1,105.000004005432,2|0,3:0|3:0,0:0:0:0:
390,329,28008,2,0,P|369:323|349:324,1,41.9999987182618,0|8,3:0|0:1,0:0:0:0:
160,286,28383,2,0,P|190:316|201:367,1,94.499997116089,2|0,3:0|0:0,0:0:0:0:
196,379,28883,1,8,0:3:0:0:
260,194,29133,1,8,0:1:0:0:
260,194,29299,1,8,0:3:0:0:
382,187,29508,1,8,0:1:0:0:
443,152,29633,54,0,P|482:78|469:18,1,132.999996448517,14|0,3:3|3:0,0:0:0:0:
60,24,30133,2,0,P|21:98|34:158,1,132.999996448517,10|0,3:1|3:0,0:0:0:0:
443,152,30633,1,8,2:3:0:0:
185,48,30883,21,2,3:0:0:0:
147,111,30945,1,0,3:0:0:0:
152,148,31008,2,0,L|162:213,1,66.4999982242585,0|8,3:0|0:1,0:0:0:0:
373,327,31383,1,0,3:0:0:0:
500,121,31633,54,0,P|500:169|478:232,1,83.9999974365235,14|0,0:3|0:0,0:0:0:0:
413,260,32008,1,8,0:1:0:0:
335,256,32133,1,8,0:1:0:0:
281,203,32258,1,8,0:1:0:0:
270,177,32383,2,0,P|270:121|295:47,1,122.499996261597,10|0,0:3|0:0,0:0:0:0:
316,40,33133,21,8,0:1:0:0:
223,35,33258,1,8,0:1:0:0:
139,111,33383,1,8,0:1:0:0:
0,99,33508,1,8,0:1:0:0:
0,240,33633,6,0,P|88:237|189:134,1,210.000008010865,14|8,2:3|0:1,0:0:0:0:
216,0,34383,1,0,3:0:0:0:
352,110,34633,1,2,3:0:0:0:
421,102,34758,1,8,0:1:0:0:
298,278,35008,37,2,3:0:0:0:
377,269,35070,1,0,3:0:0:0:
412,232,35133,1,8,3:1:0:0:
229,197,35383,53,0,3:0:0:0:
136,255,35633,2,0,B|115:299|130:356|130:356|179:357|210:307,1,167.999994873047,2|8,3:0|0:1,0:0:0:0:
311,207,36382,2,0,P|270:196|228:197,1,83.9999974365235,10|0,0:3|0:0,0:0:0:0:
156,187,36758,21,8,0:1:0:0:
153,111,36883,1,10,0:3:0:0:
367,43,37133,1,8,0:1:0:0:
341,110,37258,1,10,0:3:0:0:
495,197,37508,1,8,0:3:0:0:
450,298,37633,6,0,P|424:213|298:142,1,210.000008010865,14|8,2:3|0:1,0:0:0:0:
226,346,38383,1,0,3:0:0:0:
80,215,38633,2,0,P|80:162|95:112,1,105.000004005432,2|0,3:0|0:0,0:0:0:0:
144,60,39008,37,2,3:0:0:0:
187,34,39071,1,0,3:0:0:0:
266,46,39133,1,8,3:1:0:0:
294,221,39383,37,0,3:0:0:0:
39,314,39633,2,0,P|12:268|1:217,1,83.9999974365235,2|0,3:0|3:0,0:0:0:0:
0,145,40008,1,0,3:0:0:0:
76,70,40133,1,8,3:1:0:0:
176,45,40258,1,0,3:0:0:0:
249,57,40383,1,0,3:0:0:0:
307,89,40508,1,0,3:0:0:0:
330,117,40633,1,10,3:0:0:0:
109,322,40883,38,0,L|120:227,1,59.5000011348725,8|0,3:1|0:0,0:0:0:0:
262,166,41133,1,8,3:3:0:0:
207,267,41258,2,0,L|196:172,1,59.5000011348725,8|0,3:1|0:0,0:0:0:0:
307,89,41508,1,8,3:3:0:0:
377,144,41633,6,0,P|358:88|306:56,1,119.000002269745,14|0,2:3|0:0,0:0:0:0:
274,39,41945,2,0,L|300:-5,3,29.7500005674362,0|0|0|8,3:0|3:0|3:1|3:1,0:0:0:0:
199,70,42258,1,0,3:0:0:0:
102,63,42383,1,0,3:0:0:0:
13,138,42508,1,0,3:0:0:0:
17,282,42633,2,0,P|81:282|147:236,1,119.000002269745,10|0,2:3|0:0,0:0:0:0:
190,198,43008,37,2,3:0:0:0:
215,167,43070,1,0,3:0:0:0:
289,152,43133,1,8,3:1:0:0:
453,210,43383,1,0,3:0:0:0:
290,342,43633,37,2,3:0:0:0:
262,279,43758,1,0,3:0:0:0:
270,169,43883,1,0,3:0:0:0:
346,78,44008,1,0,3:0:0:0:
478,52,44133,1,10,3:1:0:0:
290,342,44383,38,2,P|55:291|41:42,1,490.000004673004,10|0,2:3|0:0,0:0:0:0:
126,14,45008,1,8,3:1:0:0:
91,134,45133,1,8,3:1:0:0:
145,248,45258,1,0,3:0:0:0:
258,302,45383,1,0,3:0:0:0:
381,275,45508,1,0,3:0:0:0:
460,177,45633,22,0,P|458:143|428:99,1,70,14|0,2:3|0:0,0:0:0:0:
274,3,45883,2,0,P|240:3|196:33,1,70,2|0,3:0|0:0,0:0:0:0:
100,189,46133,2,0,P|100:222|130:266,1,70,10|0,3:1|0:0,0:0:0:0:
285,363,46383,2,0,P|318:362|362:332,1,70,2|0,3:0|0:0,0:0:0:0:
388,160,46633,1,8,2:3:0:0:
210,107,46883,21,2,3:0:0:0:
175,151,46945,1,0,3:0:0:0:
174,205,47008,1,0,3:0:0:0:
185,221,47070,1,0,3:0:0:0:
199,230,47133,1,8,3:1:0:0:
404,296,47383,1,0,3:0:0:0:
440,130,47633,54,0,P|432:186|399:231,1,105.000004005432,14|0,0:3|0:0,0:0:0:0:
342,262,48008,2,0,P|298:264|259:248,1,83.9999974365235,0|0,3:0|0:0,0:0:0:0:
210,195,48383,2,0,P|197:135|213:77,1,122.499996261597,10|0,0:3|0:0,0:0:0:0:
241,52,49133,21,8,0:1:0:0:
279,108,49258,1,8,0:1:0:0:
257,180,49383,1,8,0:1:0:0:
297,258,49508,1,8,0:1:0:0:
270,341,49633,1,8,0:1:0:0:
478,273,50383,6,0,L|414:278,1,35,0|0,3:0|3:0,0:0:0:0:
377,284,50633,1,2,3:0:0:0:
249,226,50883,38,0,L|253:202,3,17.5,0|0|0|0,3:0|3:0|3:0|0:0,0:0:0:0:
258,360,51133,1,8,3:1:0:0:
112,353,51383,37,0,3:0:0:0:
142,140,51633,1,10,0:3:0:0:
346,161,52008,6,0,L|373:158,1,17.5,0|0,3:0|3:0,0:0:0:0:
353,180,52133,2,0,L|432:186,1,70,2|0,3:0|0:0,0:0:0:0:
508,197,52633,1,2,3:0:0:0:
364,293,53133,21,8,0:1:0:0:
192,221,53383,2,0,L|188:190,3,17.5,0|0|0|0,3:0|3:0|3:0|3:0,0:0:0:0:
74,244,53633,1,10,3:0:0:0:
16,99,54383,5,2,3:0:0:0:
52,61,54508,1,0,3:0:0:0:
103,49,54633,1,0,3:0:0:0:
151,71,54883,5,2,3:0:0:0:
169,120,55133,1,8,3:1:0:0:
212,149,55383,1,0,3:0:0:0:
263,151,55633,5,10,3:0:0:0:
304,183,56008,1,0,3:0:0:0:
326,230,56383,1,0,3:0:0:0:
329,280,56883,21,2,0:3:0:0:
169,296,57133,1,8,0:1:0:0:
136,336,57258,2,0,P|96:328|52:328,1,70,10|0,0:3|0:0,0:0:0:0:
11,288,57633,6,0,P|-2:208|22:137,1,140,14|0,0:3|0:0,0:0:0:0:
159,112,58383,38,0,L|163:88,3,17.5,0|0|0|0,3:0|3:0|3:0|3:0,0:0:0:0:
141,241,58633,1,2,3:0:0:0:
212,301,58883,37,0,3:0:0:0:
276,240,59133,1,10,0:1:0:0:
255,126,59383,1,0,3:0:0:0:
361,10,59633,1,10,0:3:0:0:
454,94,59883,1,0,3:0:0:0:
431,208,60133,6,0,L|408:206,2,23.3333333333333,0|0|0,3:0|3:0|3:0,0:0:0:0:
457,286,60383,1,2,3:0:0:0:
307,344,60883,37,2,3:0:0:0:
279,267,61133,1,8,0:1:0:0:
195,193,61383,1,0,3:0:0:0:
41,197,61633,1,10,0:3:0:0:
106,115,61883,38,0,L|108:91,3,17.5,0|0|0|0,3:0|3:0|3:0|0:0,0:0:0:0:
99,251,62133,1,2,3:0:0:0:
163,296,62383,37,0,3:0:0:0:
244,295,62633,1,2,3:3:0:0:
342,241,62883,1,0,3:0:0:0:
391,96,63133,1,8,0:1:0:0:
253,0,63383,1,0,3:0:0:0:
93,142,63633,6,0,P|96:186|112:216,1,70,10|0,0:3|0:0,0:0:0:0:
148,258,64008,2,0,P|173:273|202:280,1,48.9999985046387,0|0,3:0|0:0,0:0:0:0:
262,281,64383,2,0,P|357:205|356:97,1,209.999993591309,10|0,0:3|0:0,0:0:0:0:
351,59,65133,21,8,0:1:0:0:
409,123,65258,2,0,L|439:117,5,20.9999993591309,8|0|0|0|0|0,0:3|0:0|0:0|0:0|0:0|0:0,0:0:0:0:
353,173,65633,6,0,P|266:81|169:53,1,210.000008010865,14|8,2:3|0:1,0:0:0:0:
229,231,66383,1,0,3:0:0:0:
65,250,66633,1,2,3:0:0:0:
52,318,66758,1,8,2:1:0:0:
202,153,67008,37,2,3:3:0:0:
281,160,67070,1,0,3:3:0:0:
318,199,67133,1,8,3:1:0:0:
209,305,67383,53,0,3:0:0:0:
295,367,67633,2,0,B|331:384|369:373|369:373|391:328|351:284,1,167.999994873047,2|8,3:0|0:1,0:0:0:0:
128,310,68383,2,0,P|165:317|228:287,1,83.9999974365235,2|0,0:3|0:3,0:0:0:0:
257,252,68758,21,8,2:1:0:0:
243,184,68883,1,10,2:3:0:0:
36,91,69133,1,8,2:1:0:0:
22,159,69258,1,10,2:3:0:0:
228,54,69508,1,8,0:3:0:0:
191,142,69633,6,0,P|259:64|407:61,1,210.000008010865,14|8,2:3|0:1,0:0:0:0:
385,242,70383,1,0,3:0:0:0:
177,277,70633,2,0,P|147:234|130:185,1,105.000004005432,2|0,3:0|0:0,0:0:0:0:
122,116,71008,37,2,3:0:0:0:
122,64,71070,1,0,3:0:0:0:
68,4,71133,1,8,3:1:0:0:
11,175,71383,37,0,3:0:0:0:
209,90,71633,2,0,P|250:97|288:115,1,83.9999974365235,10|0,2:3|0:0,0:0:0:0:
329,176,72008,1,2,0:0:0:0:
335,211,72133,1,8,0:1:0:0:
479,245,72383,2,0,P|493:284|496:326,1,83.9999974365235,10|0,0:3|0:0,0:0:0:0:
443,383,72758,37,0,3:1:0:0:
402,323,72883,1,8,3:1:0:0:
328,289,73008,1,0,3:1:0:0:
255,330,73133,1,8,3:1:0:0:
157,354,73258,1,0,3:0:0:0:
46,303,73383,1,0,3:0:0:0:
0,159,73508,1,0,3:0:0:0:
142,11,73633,6,0,P|243:30|319:158,1,210.000008010865,14|8,0:3|0:1,0:0:0:0:
295,291,74383,1,0,3:0:0:0:
142,240,74633,1,2,3:0:0:0:
74,253,74758,1,8,2:1:0:0:
104,107,75008,37,2,3:0:0:0:
36,80,75070,1,0,3:0:0:0:
0,88,75133,1,8,3:1:0:0:
144,0,75383,53,0,3:0:0:0:
255,47,75633,2,0,P|307:54|358:37,1,105.000004005432,2|0,3:0|3:0,0:0:0:0:
255,47,76008,2,0,P|225:46|199:51,1,41.9999987182618,0|8,3:0|0:1,0:0:0:0:
322,150,76383,2,0,P|311:196|324:270,1,94.499997116089,2|0,3:0|0:0,0:0:0:0:
325,262,76883,2,0,L|378:264,1,41.9999987182618,8|8,0:3|0:3,0:0:0:0:
456,363,77133,2,0,L|487:358,2,31.4999990386963,8|8|0,0:1|0:3|0:0,0:0:0:0:
366,357,77508,1,8,0:1:0:0:
295,381,77633,54,0,P|244:373|180:323,1,132.999996448517,14|0,3:3|3:0,0:0:0:0:
321,38,78133,2,0,P|372:46|436:96,1,132.999996448517,10|0,3:1|3:0,0:0:0:0:
180,324,78633,1,8,2:3:0:0:
168,102,78883,21,2,3:0:0:0:
244,80,78945,1,0,3:0:0:0:
293,101,79008,2,0,L|353:127,1,66.4999982242585,0|8,3:0|0:1,0:0:0:0:
411,358,79383,53,0,3:0:0:0:
228,199,79633,2,0,P|245:244|267:271,1,83.9999974365235,10|0,0:3|0:0,0:0:0:0:
352,309,80008,1,8,0:1:0:0:
429,286,80133,1,8,0:1:0:0:
466,230,80258,1,8,0:1:0:0:
475,206,80383,2,0,P|436:158|417:101,1,122.499996261597,10|0,0:3|0:0,0:0:0:0:
419,81,81133,21,8,0:1:0:0:
326,45,81258,1,8,0:1:0:0:
230,96,81383,1,8,0:1:0:0:
103,47,81508,1,8,0:1:0:0:
10,119,81633,6,0,P|100:69|240:117,1,210.000008010865,14|8,2:3|0:1,0:0:0:0:
326,228,82383,1,0,3:0:0:0:
419,86,82633,1,2,3:0:0:0:
442,145,82758,1,8,0:1:0:0:
247,170,83008,37,2,3:0:0:0:
233,248,83070,1,0,3:0:0:0:
261,293,83133,1,8,3:1:0:0:
107,221,83383,53,0,3:0:0:0:
35,306,83633,2,0,B|32:331|46:362|46:362|107:362|134:293,1,167.999994873047,2|8,3:0|0:1,0:0:0:0:
158,144,84383,2,0,P|113:130|74:135,1,83.9999974365235,10|0,0:3|0:0,0:0:0:0:
15,172,84758,21,8,0:1:0:0:
41,236,84883,1,10,0:3:0:0:
246,96,85133,1,8,0:1:0:0:
238,165,85258,1,10,0:3:0:0:
462,63,85508,1,8,0:3:0:0:
484,158,85633,6,0,P|427:72|287:61,1,210.000008010865,14|8,2:3|0:1,0:0:0:0:
347,262,86383,1,0,3:0:0:0:
149,347,86633,2,0,P|94:349|44:327,1,105.000004005432,2|0,3:0|0:0,0:0:0:0:
6,261,87008,37,2,3:0:0:0:
4,209,87071,1,0,3:0:0:0:
53,147,87133,1,8,3:1:0:0:
143,275,87383,37,0,3:0:0:0:
73,50,87633,2,0,P|107:27|149:23,1,83.9999974365235,2|0,3:0|3:0,0:0:0:0:
248,30,88008,1,0,3:0:0:0:
323,105,88133,1,8,3:1:0:0:
348,205,88258,1,0,3:0:0:0:
336,278,88383,1,0,3:0:0:0:
304,336,88508,1,0,3:0:0:0:
276,359,88633,1,10,3:0:0:0:
49,211,88883,38,0,L|114:193,1,59.5000011348725,8|0,3:1|0:0,0:0:0:0:
238,144,89133,1,8,3:3:0:0:
122,106,89258,2,0,L|189:100,1,59.5000011348725,8|0,3:1|0:0,0:0:0:0:
313,185,89508,1,8,3:3:0:0:
267,66,89633,6,0,P|290:34|393:22,1,119.000002269745,14|0,2:3|0:0,0:0:0:0:
396,16,89945,2,0,L|406:-38,3,29.7500005674362,0|0|0|8,3:0|3:0|3:1|3:1,0:0:0:0:
458,45,90258,1,0,3:0:0:0:
509,128,90383,1,0,3:0:0:0:
487,247,90508,1,0,3:0:0:0:
356,327,90633,2,0,P|298:318|245:282,1,119.000002269745,10|0,2:3|0:0,0:0:0:0:
194,225,91008,37,2,3:0:0:0:
166,196,91070,1,0,3:0:0:0:
91,187,91133,1,8,3:1:0:0:
29,336,91383,1,0,3:0:0:0:
291,384,91633,37,2,3:0:0:0:
319,321,91758,1,0,3:0:0:0:
311,211,91883,1,0,3:0:0:0:
235,120,92008,1,0,3:0:0:0:
103,94,92133,1,10,3:1:0:0:
291,384,92383,38,2,P|420:184|261:20,1,490.000004673004,10|0,2:3|0:0,0:0:0:0:
137,41,93008,1,8,3:1:0:0:
260,62,93133,1,8,3:1:0:0:
337,160,93258,1,0,3:0:0:0:
333,286,93383,1,0,3:0:0:0:
247,378,93508,1,0,3:0:0:0:
119,380,93633,22,0,P|78:357|48:326,1,70,14|0,2:3|0:0,0:0:0:0:
14,141,93883,2,0,P|36:100|67:70,1,70,2|0,3:0|0:0,0:0:0:0:
253,36,94133,2,0,P|293:58|323:89,1,70,10|0,3:1|0:0,0:0:0:0:
358,275,94383,2,0,P|335:315|304:345,1,70,2|0,3:0|0:0,0:0:0:0:
153,315,94633,1,8,2:3:0:0:
115,145,94883,21,2,3:0:0:0:
159,110,94945,1,0,3:0:0:0:
213,109,95008,1,0,3:0:0:0:
227,119,95070,1,0,3:0:0:0:
236,133,95133,1,8,3:1:0:0:
220,354,95383,1,0,3:0:0:0:
21,181,95633,54,0,P|28:223|73:278,1,105.000004005432,10|0,0:3|0:0,0:0:0:0:
127,297,96008,2,0,P|171:287|207:259,1,83.9999974365235,0|0,3:0|0:0,0:0:0:0:
241,212,96383,2,0,P|233:153|248:85,1,122.499996261597,10|0,0:3|0:0,0:0:0:0:
291,37,97133,22,0,L|295:9,3,17.5,0|0|0|0,3:0|0:0|0:0|0:0,0:0:0:0:
359,85,97383,2,0,L|363:57,3,17.5,0|0|0|0,3:0|0:0|0:0|0:0,0:0:0:0:
447,167,97633,5,10,0:3:0:0:
424,235,97883,1,0,3:0:0:0:
359,291,98133,1,0,3:0:0:0:
249,303,98383,1,0,3:0:0:0:
151,227,98633,1,0,3:0:0:0:
111,106,98883,37,2,3:0:0:0:
142,81,98945,1,0,3:0:0:0:
180,80,99008,1,0,3:0:0:0:
191,90,99070,1,0,3:0:0:0:
198,100,99133,1,0,3:0:0:0:
222,230,99383,1,0,3:0:0:0:
8,301,99633,6,0,P|-1:328|0:354,1,48.9999985046387,2|0,0:0|0:0,0:0:0:0:
73,245,100008,2,0,P|71:273|78:298,1,48.9999985046387,2|0,0:0|0:0,0:0:0:0:
114,189,100383,38,0,B|169:152|169:152|169:289|228:248|179:216|224:191|171:149|253:212|253:212|301:179|254:211|294:266|338:223|301:179|338:223|377:273|377:273|376:173|418:180|427:212|380:227|459:278,1,630,2|0,0:3|0:0,0:0:0:0:
