osu file format v14

[General]
AudioFilename: audio.mp3
AudioLeadIn: 0
PreviewTime: 17383
Countdown: 1
SampleSet: Soft
StackLeniency: 0.3
Mode: 0
LetterboxInBreaks: 0
WidescreenStoryboard: 1

[Editor]
Bookmarks: 1633,17633,33633,49633,65633,81633,97633
DistanceSpacing: 1
BeatDivisor: 4
GridSize: 16
TimelineZoom: 1.5

[Metadata]
Title:The back of Beyond
TitleUnicode:The back of Beyond
Artist:M2U
ArtistUnicode:M2U
Creator:yaspo
Version:Normal
Source:Ez2Dj 7th TraX -Resistance-
Tags:ez2on ez2ac
BeatmapID:1809912
BeatmapSetID:764683

[Difficulty]
HPDrainRate:3
CircleSize:3
OverallDifficulty:5
ApproachRate:5
SliderMultiplier:1.2
SliderTickRate:1

[Events]
//Background and Video events
0,0,"spring.png",0,0
//Break Periods
//Storyboard Layer 0 (Background)
//Storyboard Layer 1 (Fail)
//Storyboard Layer 2 (Pass)
//Storyboard Layer 3 (Foreground)
//Storyboard Sound Samples

[TimingPoints]
1633,500,4,2,1,40,1,0
17633,-100,4,2,1,80,0,0
29633,-100,4,2,1,90,0,0
31633,-100,4,2,1,60,0,0
33633,-100,4,2,1,80,0,0
45633,-100,4,2,1,90,0,0
47633,-100,4,2,1,60,0,0
49633,-100,4,2,1,50,0,0
65633,-100,4,2,1,80,0,0
77633,-100,4,2,1,90,0,0
79633,-100,4,2,1,60,0,0
81633,-100,4,2,1,80,0,0
92383,-100,4,2,1,100,0,0
93633,-100,4,2,1,90,0,0
95633,-100,4,2,1,60,0,0
97633,-100,4,2,1,50,0,0

[Colours]
Combo1 : 255,255,128
Combo2 : 255,128,128
Combo3 : 255,128,192
Combo4 : 128,255,128
Combo5 : 128,255,255

[HitObjects]
256,32,1633,5,10,0:3:0:0:
57,208,2883,2,0,P|78:177|147:154,1,90,0|0,0:0|0:0,0:0:0:0:
205,157,3633,1,10,0:3:0:0:
455,307,4883,6,0,P|434:276|365:253,1,90,0|0,0:0|0:0,0:0:0:0:
307,256,5633,1,10,0:3:0:0:
256,336,7633,5,10,0:3:0:0:
75,177,8633,1,0,0:0:0:0:
191,147,9133,1,0,0:0:0:0:
258,45,9633,6,0,P|274:100|329:150,1,120,6|8,3:3|0:3,0:0:0:0:
284,319,10883,2,0,P|324:293|379:295,1,90,2|2,0:3|0:3,0:0:0:0:
441,317,11633,6,0,P|443:272|384:212,1,120,2|8,3:3|2:3,0:0:0:0:
228,238,12883,2,0,P|188:212|133:214,1,90,2|2,0:0|0:0,0:0:0:0:
71,236,13633,6,0,P|69:191|128:131,1,120,2|8,3:0|0:3,0:0:0:0:
256,224,14883,2,0,L|256:304,2,60,0|10|0,0:0|0:3|0:0,0:0:0:0:
262,164,15633,2,0,B|293:81|408:59|408:59|471:144|452:240,1,360,10|8,0:3|0:1,0:0:0:0:
446,339,17633,5,14,2:3:0:0:
327,322,18133,2,0,P|297:323|250:332,1,60,8|0,0:1|3:0,0:0:0:0:
227,372,18633,1,2,3:3:0:0:
122,319,19133,2,0,P|90:320|45:329,1,60,8|0,3:1|3:0,0:0:0:0:
13,291,19633,2,0,P|105:279|98:137,1,240,2|0,3:0|0:3,0:0:0:0:
61,125,20883,2,0,P|55:83|78:26,1,90,10|10,2:3|2:3,0:0:0:0:
147,16,21633,5,14,2:3:0:0:
248,80,22133,1,8,0:1:0:0:
307,73,22383,2,0,P|336:67|366:65,1,60,0|2,3:0|3:0,0:0:0:0:
484,45,23133,1,8,3:1:0:0:
508,99,23383,1,0,3:0:0:0:
473,148,23633,2,0,P|532:220|516:322,1,180,10|10,2:3|0:3,0:0:0:0:
407,318,24883,2,0,P|398:352|385:376,2,60,8|8|0,3:1|3:1|3:0,0:0:0:0:
394,259,25633,5,14,0:3:0:0:
282,303,26133,2,0,P|249:300|217:302,1,60,8|0,0:1|3:0,0:0:0:0:
176,340,26633,1,2,3:3:0:0:
67,288,27133,1,8,3:1:0:0:
42,172,27633,6,0,P|10:157|-6:131,2,60,2|0|8,3:0|3:0|0:1,0:0:0:0:
83,129,28383,2,0,P|151:54|235:36,1,180,2|8,3:0|0:1,0:0:0:0:
313,116,29633,6,0,P|304:146|305:192,1,60,14|0,3:3|3:0,0:0:0:0:
308,234,30133,2,0,P|317:264|316:310,1,60,10|0,3:1|3:0,0:0:0:0:
302,350,30633,1,8,2:3:0:0:
193,292,31133,2,0,P|195:262|204:234,1,60,8|0,0:1|3:0,0:0:0:0:
217,175,31633,2,0,P|131:248|60:225,1,180,14|10,0:3|0:3,0:0:0:0:
36,58,33133,2,0,L|78:104,1,60,8|8,0:1|0:1,0:0:0:0:
119,143,33633,5,14,2:3:0:0:
214,70,34133,2,0,P|239:71|275:75,1,60,8|0,0:1|3:0,0:0:0:0:
317,116,34633,1,2,3:3:0:0:
400,29,35133,2,0,P|429:29|461:35,1,60,8|0,3:1|3:0,0:0:0:0:
511,63,35633,2,0,P|473:118|517:295,1,240,2|0,3:0|0:0,0:0:0:0:
489,338,36883,2,0,P|442:309|393:312,1,90,10|10,0:3|0:3,0:0:0:0:
324,339,37633,5,14,2:3:0:0:
217,289,38133,1,8,0:1:0:0:
168,324,38383,2,0,P|136:325|102:321,1,60,0|2,3:0|3:0,0:0:0:0:
20,239,39133,1,8,3:1:0:0:
57,192,39383,1,0,3:0:0:0:
39,140,39633,6,0,B|96:41|188:152|250:31,1,240,2|10,3:0|3:0,0:0:0:0:
302,47,40883,1,8,3:1:0:0:
383,47,41258,1,8,3:1:0:0:
459,21,41633,6,0,P|490:90|496:146,1,120,14|8,2:3|3:1,0:0:0:0:
468,186,42383,1,0,3:0:0:0:
474,245,42633,1,10,2:3:0:0:
405,343,43133,1,8,3:1:0:0:
299,286,43633,2,0,P|293:248|295:215,1,60,2|0,3:0|3:0,0:0:0:0:
321,173,44133,1,10,3:1:0:0:
367,135,44383,2,0,B|368:92|368:92|255:-5,1,180,10|8,2:3|3:1,0:0:0:0:
229,117,45633,6,0,P|229:156|234:179,1,60,14|2,2:3|3:0,0:0:0:0:
283,209,46133,2,0,P|283:248|278:271,1,60,10|2,3:1|3:0,0:0:0:0:
247,319,46633,1,8,2:3:0:0:
187,325,46883,1,2,3:0:0:0:
150,372,47133,1,8,3:1:0:0:
56,296,47633,2,0,P|52:251|18:190,1,90,14|0,0:3|3:0,0:0:0:0:
1,136,48383,2,0,B|42:92|109:85|157:137|157:137|149:180|149:180|157:223,1,240,10|0,0:3|0:1,0:0:0:0:
173,255,49633,5,8,0:1:0:0:
317,362,50383,2,0,B|357:344|405:368|405:368|461:366|493:306,1,180,0|8,3:0|3:1,0:0:0:0:
504,209,51633,1,10,0:3:0:0:
272,271,52633,2,0,P|194:261|149:234,1,120,2|8,3:0|0:1,0:0:0:0:
71,158,53633,5,10,3:0:0:0:
1,323,54383,1,2,3:0:0:0:
52,353,54633,2,0,B|92:377|132:370|132:370|143:346|162:326,1,120,0|8,3:0|3:1,0:0:0:0:
258,285,55633,2,0,P|295:316|360:334,2,90,10|0|0,3:0|3:0|3:0,0:0:0:0:
167,206,56883,2,0,L|148:135,1,60,2|8,0:3|0:1,0:0:0:0:
255,87,57633,5,14,0:3:0:0:
307,259,58383,2,0,B|329:283|329:283|363:257|401:246|401:246|446:259|488:247,1,180,0|10,3:0|0:1,0:0:0:0:
503,137,59633,1,10,0:3:0:0:
396,82,60133,2,0,L|371:18,1,60,0|2,3:0|3:0,0:0:0:0:
195,3,61133,1,8,0:1:0:0:
89,59,61633,5,10,0:3:0:0:
71,116,61883,2,0,L|93:171,1,60,0|2,3:0|3:0,0:0:0:0:
133,284,62633,2,0,P|186:263|271:268,1,120,2|8,3:3|0:1,0:0:0:0:
368,255,63633,2,0,P|346:199|310:166,1,90,10|0,0:3|3:0,0:0:0:0:
255,137,64383,5,10,0:3:0:0:
84,193,65133,1,8,0:1:0:0:
90,252,65383,1,8,0:1:0:0:
96,311,65633,5,14,2:3:0:0:
215,318,66133,2,0,P|248:320|276:328,1,60,8|0,3:1|3:0,2:0:0:0:
316,370,66633,1,2,3:3:0:0:
417,309,67133,2,0,P|417:280|426:235,1,60,8|0,3:1|3:0,0:0:0:0:
473,217,67633,2,0,P|366:176|361:58,1,240,2|0,3:0|0:3,0:0:0:0:
384,9,68883,2,0,P|341:-6|281:6,1,90,10|10,2:3|2:3,0:0:0:0:
226,38,69633,5,14,2:3:0:0:
107,16,70133,1,8,0:1:0:0:
64,58,70383,2,0,P|54:107|53:141,1,60,0|2,3:0|3:0,0:0:0:0:
123,214,71133,1,8,3:1:0:0:
99,269,71383,1,0,3:0:0:0:
117,326,71633,2,0,P|196:320|286:364,1,180,10|10,2:3|0:3,0:0:0:0:
402,337,72883,2,0,P|425:360|455:374,2,60,8|8|0,3:1|3:1|3:0,0:0:0:0:
387,278,73633,5,14,0:3:0:0:
451,176,74133,2,0,P|457:136|453:97,1,60,8|0,0:1|3:0,0:0:0:0:
417,71,74633,1,2,3:3:0:0:
308,123,75133,1,8,3:1:0:0:
199,73,75633,6,0,P|216:36|221:-11,2,60,2|0|8,3:0|3:0|0:1,0:0:0:0:
142,94,76383,2,0,P|65:114|8:199,1,180,2|8,3:0|0:1,0:0:0:0:
126,215,77633,6,0,P|121:256|138:295,1,60,14|0,3:3|3:0,0:0:0:0:
184,286,78133,2,0,P|190:327|216:360,1,60,10|0,3:1|3:0,0:0:0:0:
255,363,78633,1,8,2:3:0:0:
313,342,78883,2,0,P|325:315|328:286,1,60,2|8,3:0|0:1,0:0:0:0:
323,164,79633,2,0,P|417:199|495:169,1,180,10|10,0:3|0:3,0:0:0:0:
482,0,81133,2,0,L|434:66,1,60,8|8,0:1|0:1,0:0:0:0:
411,97,81633,5,14,2:3:0:0:
319,18,82133,2,0,P|293:20|255:18,1,60,8|0,0:1|3:0,0:0:0:0:
199,13,82633,1,2,3:3:0:0:
102,79,83133,2,0,P|102:112|94:147,1,60,8|0,3:1|3:0,0:0:0:0:
44,168,83633,2,0,P|105:177|169:331,1,240,2|0,3:0|0:0,0:0:0:0:
131,370,84883,2,0,P|182:360|236:364,1,90,10|10,0:3|0:3,0:0:0:0:
300,371,85633,5,14,2:3:0:0:
324,253,86133,1,8,0:1:0:0:
375,221,86383,2,0,P|404:216|434:217,1,60,0|2,3:0|3:0,0:0:0:0:
507,121,87133,1,8,3:1:0:0:
458,86,87383,1,0,3:0:0:0:
459,26,87633,6,0,B|355:1|346:149|240:111,1,240,2|10,3:0|3:0,0:0:0:0:
191,102,88883,1,8,3:1:0:0:
123,57,89258,1,8,3:1:0:0:
54,13,89633,6,0,P|31:59|30:152,1,120,14|8,2:3|3:1,0:0:0:0:
41,184,90383,1,0,3:0:0:0:
35,243,90633,1,10,2:3:0:0:
104,340,91133,1,8,3:1:0:0:
216,297,91633,2,0,P|223:261|222:211,1,60,2|0,3:0|3:0,0:0:0:0:
196,184,92133,1,10,3:1:0:0:
158,136,92383,2,0,B|160:90|160:90|290:11,1,180,10|8,2:3|3:1,0:0:0:0:
280,140,93633,6,0,P|282:174|274:223,1,60,14|2,2:3|3:0,0:0:0:0:
232,237,94133,2,0,P|230:271|238:320,1,60,10|2,3:1|3:0,0:0:0:0:
269,344,94633,1,8,2:3:0:0:
328,340,94883,1,2,3:0:0:0:
378,372,95133,1,8,3:1:0:0:
465,289,95633,6,0,P|473:243|475:191,1,90,10|0,0:3|3:0,0:0:0:0:
507,125,96383,2,0,B|472:37|376:55|376:55|335:92|290:81,1,240,10|0,0:3|3:0,0:0:0:0:
255,52,97633,5,10,0:3:0:0:
255,172,98133,1,0,3:0:0:0:
255,291,98633,1,0,3:0:0:0:
197,306,98883,1,2,3:0:0:0:
162,354,99133,1,0,3:0:0:0:
49,311,99633,6,0,P|27:269|29:216,1,90,2|2,0:0|0:0,0:0:0:0:
49,149,100383,1,2,0:3:0:0:
