osu file format v14

[General]
AudioFilename: audio.mp3
AudioLeadIn: 0
PreviewTime: 17383
Countdown: 1
SampleSet: Soft
StackLeniency: 0.3
Mode: 0
LetterboxInBreaks: 0
WidescreenStoryboard: 1

[Editor]
DistanceSpacing: 1.2
BeatDivisor: 3
GridSize: 16
TimelineZoom: 1.5

[Metadata]
Title:The back of Beyond
TitleUnicode:The back of Beyond
Artist:M2U
ArtistUnicode:M2U
Creator:yaspo
Version:Another
Source:Ez2Dj 7th TraX -Resistance-
Tags:ez2on ez2ac
BeatmapID:1809909
BeatmapSetID:764683

[Difficulty]
HPDrainRate:5
CircleSize:4.5
OverallDifficulty:7
ApproachRate:8
SliderMultiplier:1.4
SliderTickRate:1

[Events]
//Background and Video events
0,0,"spring.png",0,0
//Break Periods
//Storyboard Layer 0 (Background)
//Storyboard Layer 1 (Fail)
//Storyboard Layer 2 (Pass)
//Storyboard Layer 3 (Foreground)
//Storyboard Sound Samples

[TimingPoints]
1633,500,4,2,1,40,1,0
2383,-100,4,2,1,5,0,0
2508,-100,4,2,1,40,0,0
3633,-83.3333333333333,4,2,1,40,0,0
4383,-83.3333333333333,4,2,1,5,0,0
4508,-83.3333333333333,4,2,1,40,0,0
5633,-100,4,2,1,40,0,0
6383,-100,4,2,1,5,0,0
6508,-100,4,2,1,40,0,0
7633,-142.857142857143,4,2,1,40,0,0
8383,-142.857142857143,4,2,1,5,0,0
8508,-142.857142857143,4,2,1,40,0,0
9633,-100,4,2,1,40,0,0
10633,-100,4,2,1,5,0,0
10758,-100,4,2,1,40,0,0
10883,-142.857142857143,4,2,1,40,0,0
11133,-142.857142857143,4,2,1,5,0,0
11258,-142.857142857143,4,2,1,40,0,0
11508,-142.857142857143,4,2,1,5,0,0
11633,-83.3333333333333,4,2,1,40,0,0
12633,-83.3333333333333,4,2,1,5,0,0
12758,-83.3333333333333,4,2,1,40,0,0
12883,-142.857142857143,4,2,1,40,0,0
13133,-142.857142857143,4,2,1,5,0,0
13258,-142.857142857143,4,2,1,40,0,0
13508,-142.857142857143,4,2,1,5,0,0
13633,-83.3333333333333,4,2,1,40,0,0
14633,-83.3333333333333,4,2,1,5,0,0
14758,-83.3333333333333,4,2,1,40,0,0
15633,-100,4,2,1,40,0,0
15883,-100,4,2,1,5,0,0
16008,-100,4,2,1,40,0,0
16383,-142.857142857143,4,2,1,40,0,0
17633,-66.6666666666667,4,2,1,80,0,0
19633,-83.3333333333333,4,2,1,80,0,0
20633,-83.3333333333333,4,2,1,5,0,0
20758,-83.3333333333333,4,2,1,80,0,0
21633,-66.6666666666667,4,2,1,80,0,0
22883,-66.6666666666667,4,2,1,5,0,0
23008,-66.6666666666667,4,2,1,80,0,0
23633,-83.3333333333333,4,2,1,80,0,0
23883,-83.3333333333333,4,2,1,5,0,0
24008,-83.3333333333333,4,2,1,80,0,0
24633,-83.3333333333333,4,2,1,5,0,0
24758,-83.3333333333333,4,2,1,80,0,0
25633,-66.6666666666667,4,2,1,80,0,0
28008,-83.3333333333333,4,2,1,80,0,0
28383,-111.111111111111,4,2,1,60,0,0
28758,-111.111111111111,4,2,1,5,0,0
28883,-111.111111111111,4,2,1,60,0,0
29633,-52.6315789473684,4,2,1,90,0,0
31633,-83.3333333333333,4,2,1,60,0,0
31883,-83.3333333333333,4,2,1,5,0,0
32008,-83.3333333333333,4,2,1,60,0,0
32133,-83.3333333333333,4,2,1,50,0,0
32258,-83.3333333333333,4,2,1,40,0,0
32383,-142.857142857143,4,2,1,40,0,0
33008,-142.857142857143,4,2,1,5,0,0
33133,-142.857142857143,4,2,1,40,0,0
33258,-142.857142857143,4,2,1,50,0,0
33383,-142.857142857143,4,2,1,60,0,0
33508,-142.857142857143,4,2,1,70,0,0
33633,-66.6666666666667,4,2,1,80,0,0
35633,-83.3333333333333,4,2,1,80,0,0
36633,-83.3333333333333,4,2,1,5,0,0
36758,-83.3333333333333,4,2,1,80,0,0
37633,-66.6666666666667,4,2,1,80,0,0
38883,-66.6666666666667,4,2,1,5,0,0
39008,-66.6666666666667,4,2,1,80,0,0
39633,-83.3333333333333,4,2,1,80,0,0
39883,-83.3333333333333,4,2,1,5,0,0
40008,-83.3333333333333,4,2,1,80,0,0
40883,-58.8235294117647,4,2,1,80,0,0
41008,-58.8235294117647,4,2,1,5,0,0
41133,-58.8235294117647,4,2,1,80,0,0
41383,-58.8235294117647,4,2,1,5,0,0
41508,-58.8235294117647,4,2,1,80,0,0
41633,-58.8235294117647,4,2,1,80,0,0
41799,-58.8235294117647,4,2,1,5,0,0
41924,-58.8235294117647,4,2,1,80,0,0
42883,-58.8235294117647,4,2,1,5,0,0
43008,-58.8235294117647,4,2,1,80,0,0
44383,-33.3333333333333,4,2,1,100,0,0
44883,-25,4,2,1,5,0,0
45008,-25,4,2,1,80,0,0
45633,-50,4,2,1,90,0,0
45758,-50,4,2,1,5,0,0
45883,-50,4,2,1,90,0,0
46008,-50,4,2,1,5,0,0
46133,-50,4,2,1,90,0,0
46258,-50,4,2,1,5,0,0
46383,-50,4,2,1,90,0,0
46508,-50,4,2,1,5,0,0
46633,-50,4,2,1,90,0,0
47633,-66.6666666666667,4,2,1,60,0,0
47883,-66.6666666666667,4,2,1,5,0,0
48008,-83.3333333333333,4,2,1,50,0,0
48258,-83.3333333333333,4,2,1,5,0,0
48383,-142.857142857143,4,2,1,40,0,0
49008,-142.857142857143,4,2,1,5,0,0
49133,-142.857142857143,4,2,1,50,0,0
50383,-100,4,2,1,50,0,0
57508,-100,4,2,1,5,0,0
57633,-100,4,2,1,50,0,0
58133,-100,4,2,1,5,0,0
58258,-100,4,2,1,50,0,0
63883,-100,4,2,1,5,0,0
64008,-142.857142857143,4,2,1,50,0,0
64258,-142.857142857143,4,2,1,5,0,0
64383,-83.3333333333333,4,2,1,50,0,0
65008,-83.3333333333333,4,2,1,5,0,0
65133,-83.3333333333333,4,2,1,50,0,0
65633,-66.6666666666667,4,2,1,80,0,0
67633,-83.3333333333333,4,2,1,80,0,0
68633,-83.3333333333333,4,2,1,5,0,0
68758,-83.3333333333333,4,2,1,80,0,0
69633,-66.6666666666667,4,2,1,80,0,0
70883,-66.6666666666667,4,2,1,5,0,0
71008,-66.6666666666667,4,2,1,80,0,0
71633,-83.3333333333333,4,2,1,80,0,0
71883,-83.3333333333333,4,2,1,5,0,0
72008,-83.3333333333333,4,2,1,80,0,0
72633,-83.3333333333333,4,2,1,5,0,0
72758,-83.3333333333333,4,2,1,80,0,0
73633,-66.6666666666667,4,2,1,80,0,0
76008,-83.3333333333333,4,2,1,80,0,0
76383,-111.111111111111,4,2,1,60,0,0
76758,-111.111111111111,4,2,1,5,0,0
76883,-111.111111111111,4,2,1,60,0,0
77633,-52.6315789473684,4,2,1,90,0,0
79633,-83.3333333333333,4,2,1,60,0,0
79883,-83.3333333333333,4,2,1,5,0,0
80008,-83.3333333333333,4,2,1,60,0,0
80133,-83.3333333333333,4,2,1,50,0,0
80258,-83.3333333333333,4,2,1,40,0,0
80383,-142.857142857143,4,2,1,40,0,0
81008,-142.857142857143,4,2,1,5,0,0
81133,-142.857142857143,4,2,1,40,0,0
81258,-142.857142857143,4,2,1,50,0,0
81383,-142.857142857143,4,2,1,60,0,0
81508,-142.857142857143,4,2,1,70,0,0
81633,-66.6666666666667,4,2,1,80,0,0
83633,-83.3333333333333,4,2,1,80,0,0
84633,-83.3333333333333,4,2,1,5,0,0
84758,-83.3333333333333,4,2,1,80,0,0
85633,-66.6666666666667,4,2,1,80,0,0
86883,-66.6666666666667,4,2,1,5,0,0
87008,-66.6666666666667,4,2,1,80,0,0
87633,-83.3333333333333,4,2,1,80,0,0
87883,-83.3333333333333,4,2,1,5,0,0
88008,-83.3333333333333,4,2,1,80,0,0
88883,-58.8235294117647,4,2,1,80,0,0
89008,-58.8235294117647,4,2,1,5,0,0
89133,-58.8235294117647,4,2,1,80,0,0
89383,-58.8235294117647,4,2,1,5,0,0
89508,-58.8235294117647,4,2,1,80,0,0
89633,-58.8235294117647,4,2,1,80,0,0
89799,-58.8235294117647,4,2,1,5,0,0
89924,-58.8235294117647,4,2,1,80,0,0
90883,-58.8235294117647,4,2,1,5,0,0
91008,-58.8235294117647,4,2,1,80,0,0
92383,-33.3333333333333,4,2,1,100,0,0
92883,-25,4,2,1,5,0,0
93008,-25,4,2,1,80,0,0
93633,-50,4,2,1,90,0,0
93758,-50,4,2,1,5,0,0
93883,-50,4,2,1,90,0,0
94008,-50,4,2,1,5,0,0
94133,-50,4,2,1,90,0,0
94258,-50,4,2,1,5,0,0
94383,-50,4,2,1,90,0,0
94508,-50,4,2,1,5,0,0
94633,-50,4,2,1,90,0,0
95633,-66.6666666666667,4,2,1,60,0,0
95883,-66.6666666666667,4,2,1,5,0,0
96008,-83.3333333333333,4,2,1,50,0,0
96258,-83.3333333333333,4,2,1,5,0,0
96383,-142.857142857143,4,2,1,40,0,0
97008,-142.857142857143,4,2,1,5,0,0
97133,-100,4,2,1,50,0,0
99633,-142.857142857143,4,2,1,50,0,0
99883,-142.857142857143,4,2,1,5,0,0
100008,-142.857142857143,4,2,1,50,0,0
100258,-142.857142857143,4,2,1,5,0,0
100383,-200,4,2,1,50,0,0
100883,-200,4,2,1,5,0,0
100945,-200,4,2,1,50,0,0
101883,-200,4,2,1,5,0,0
101945,-200,4,2,1,50,0,0
102883,-200,4,2,1,5,0,0
102945,-200,4,2,1,50,0,0
103883,-200,4,2,1,5,0,0
103945,-200,4,2,1,50,0,0
104883,-200,4,2,1,5,0,0
105008,-200,4,2,1,50,0,0

[Colours]
Combo1 : 255,255,128
Combo2 : 255,128,128
Combo3 : 255,128,192
Combo4 : 128,255,128
Combo5 : 128,255,255

[HitObjects]
325,104,1508,6,0,L|297:108,1,17.5
348,122,1633,2,0,B|407:182|482:149|482:149|459:115|403:109,1,210,10|0,0:3|0:0,0:0:0:0:
268,22,2883,5,0,0:0:0:0:
210,160,3258,1,0,0:0:0:0:
52,184,3633,2,0,B|-19:113|20:23|20:23|61:50|68:118,1,251.999992309571,10|0,0:3|0:0,0:0:0:0:
187,206,4883,53,0,0:0:0:0:
272,335,5258,1,0,0:0:0:0:
427,301,5633,2,0,B|491:254|491:183|491:183|448:192|432:238,1,210,10|0,0:3|0:0,0:0:0:0:
345,320,7633,2,0,B|399:313|424:270|424:270|395:261|369:282,1,146.999995513916,10|0,0:3|0:0,0:0:0:0:
254,291,8633,1,0,0:0:0:0:
197,172,9133,1,0,0:0:0:0:
434,150,9633,6,0,P|444:94|400:12,2,140,6|8|0,3:3|0:3|0:0,0:0:0:0:
342,204,10883,1,2,0:3:0:0:
228,102,11258,1,2,0:3:0:0:
74,123,11633,54,0,P|62:185|110:274,2,167.999994873047,2|8|0,3:3|2:3|0:0,0:0:0:0:
145,65,12883,1,2,0:0:0:0:
255,173,13258,1,2,0:0:0:0:
428,124,13633,6,0,P|439:186|391:275,2,167.999994873047,2|8|0,3:0|0:3|2:0,0:0:0:0:
275,118,14883,1,0,0:0:0:0:
259,236,15133,1,10,0:3:0:0:
270,247,15383,1,0,0:0:0:0:
391,275,15633,2,0,P|417:251|442:195,1,70,10|0,0:3|0:0,0:0:0:0:
446,151,16008,1,8,0:3:0:0:
446,151,16133,1,8,0:3:0:0:
258,164,16383,53,2,3:0:0:0:
184,143,16883,1,0,3:0:0:0:
184,143,17008,1,8,2:1:0:0:
180,181,17133,1,8,0:1:0:0:
194,218,17258,1,8,0:3:0:0:
393,99,17508,1,8,0:3:0:0:
350,132,17633,6,0,P|265:65|156:49,1,210.000008010865,14|8,2:3|0:1,0:0:0:0:
23,109,18383,1,0,3:0:0:0:
65,252,18633,1,2,3:0:0:0:
59,293,18758,1,8,2:1:0:0:
207,305,19008,37,2,3:3:0:0:
207,325,19070,1,0,3:3:0:0:
208,345,19133,1,8,3:1:0:0:
346,260,19383,53,0,3:0:0:0:
416,353,19633,2,0,B|450:383|492:368|492:368|509:319|463:280,1,167.999994873047,2|8,3:0|0:1,2:0:0:0:
346,260,20383,2,0,P|378:259|436:222,1,83.9999974365235,2|0,0:3|0:3,0:0:0:0:
446,161,20758,21,8,2:1:0:0:
440,133,20883,1,10,2:3:0:0:
261,85,21133,1,8,2:1:0:0:
255,56,21258,1,10,2:3:0:0:
82,114,21508,1,8,0:3:0:0:
10,103,21633,6,0,P|90:22|190:10,1,210.000008010865,14|8,2:3|0:1,0:0:0:0:
336,97,22383,1,0,3:0:0:0:
287,259,22633,2,0,P|243:228|209:188,1,105.000004005432,2|0,3:0|0:0,2:0:0:0:
171,121,23008,37,2,3:0:0:0:
171,141,23070,1,0,3:0:0:0:
172,161,23133,1,8,3:1:0:0:
43,81,23383,37,0,3:0:0:0:
9,247,23633,2,0,P|18:285|37:323,1,83.9999974365235,10|0,2:3|0:0,2:0:0:0:
65,357,24008,1,2,0:0:0:0:
65,357,24133,1,8,0:1:0:0:
149,267,24383,2,0,P|179:293|216:315,1,83.9999974365235,10|0,0:3|0:0,2:0:0:0:
260,337,24758,37,0,3:1:0:0:
293,379,24883,1,8,3:1:0:0:
346,369,25008,1,0,3:1:0:0:
357,315,25133,1,8,3:1:0:0:
413,351,25258,1,0,3:0:0:0:
483,323,25383,1,0,3:0:0:0:
505,235,25508,1,0,3:0:0:0:
459,129,25633,6,0,P|374:60|266:38,1,210.000008010865,14|8,0:3|0:1,2:0:0:0:
112,57,26383,1,0,3:0:0:0:
49,182,26633,1,2,3:0:0:0:
58,224,26758,1,8,2:1:0:0:
183,222,27008,37,2,3:0:0:0:
188,203,27071,1,0,3:0:0:0:
193,184,27133,1,8,3:1:0:0:
268,302,27383,53,0,3:0:0:0:
361,217,27633,2,0,P|417:207|463:223,1,105.000004005432,2|0,3:0|3:0,0:0:0:0:
499,238,28008,2,0,P|478:231|460:221,1,41.9999987182618,0|8,3:0|0:1,0:0:0:0:
426,382,28383,2,0,P|396:352|345:341,1,94.499997116089,2|0,3:0|0:0,0:0:0:0:
319,351,28883,1,8,0:3:0:0:
220,264,29133,1,8,0:1:0:0:
220,264,29299,1,8,0:3:0:0:
329,160,29508,1,8,0:1:0:0:
329,160,29633,54,0,P|368:86|355:26,1,132.999996448517,14|0,3:3|3:0,0:0:0:0:
60,24,30133,2,0,P|21:98|34:158,1,132.999996448517,10|0,3:1|3:0,0:0:0:0:
329,160,30633,1,8,2:3:0:0:
127,75,30882,21,2,3:0:0:0:
115,102,30945,1,0,3:0:0:0:
115,133,31008,2,0,L|125:198,1,66.4999982242585,0|8,3:0|0:1,0:0:0:0:
223,269,31383,1,0,3:0:0:0:
414,253,31633,54,0,P|414:291|396:341,1,83.9999974365235,14|0,0:3|0:0,0:0:0:0:
337,375,32008,1,8,0:1:0:0:
292,363,32133,1,8,0:1:0:0:
261,340,32258,1,8,0:1:0:0:
252,319,32383,2,0,P|252:263|271:206,1,97.9999970092774,10|0,0:3|3:0,2:0:0:0:
290,125,33133,21,8,0:1:0:0:
226,100,33258,1,8,0:1:0:0:
169,142,33383,1,8,0:1:0:0:
104,119,33508,1,8,0:1:0:0:
47,159,33633,6,0,P|70:89|187:30,1,210.000008010865,14|8,2:3|0:1,0:0:0:0:
346,45,34383,1,0,3:0:0:0:
446,166,34633,1,2,3:0:0:0:
456,204,34758,1,8,0:1:0:0:
355,303,35008,37,2,3:0:0:0:
360,322,35071,1,0,3:0:0:0:
365,341,35133,1,8,3:1:0:0:
207,244,35383,53,0,3:0:0:0:
109,358,35633,2,0,B|60:354|18:312|18:312|42:269|100:267,1,167.999994873047,2|8,3:0|0:1,2:0:0:0:
207,244,36382,2,0,P|167:229|133:204,1,83.9999974365235,10|0,0:3|0:0,0:0:0:0:
126,126,36758,21,8,0:1:0:0:
139,96,36883,1,10,0:3:0:0:
333,92,37133,1,8,0:1:0:0:
346,62,37258,1,10,0:3:0:0:
495,197,37508,1,8,0:3:0:0:
473,263,37633,6,0,P|424:200|286:161,1,210.000008010865,14|8,2:3|0:1,0:0:0:0:
226,309,38383,1,0,3:0:0:0:
74,245,38633,2,0,P|47:199|35:148,1,105.000004005432,2|0,3:0|0:0,0:0:0:0:
80,79,39008,37,2,3:0:0:0:
75,98,39071,1,0,3:0:0:0:
70,117,39133,1,8,3:1:0:0:
208,61,39383,37,0,3:0:0:0:
145,254,39633,2,0,P|147:295|159:335,1,83.9999974365235,2|0,3:0|3:0,0:0:0:0:
214,380,40008,1,0,3:0:0:0:
284,384,40133,1,8,3:1:0:0:
344,364,40258,1,0,3:0:0:0:
387,329,40383,1,0,3:0:0:0:
412,295,40508,1,0,3:0:0:0:
423,272,40633,1,10,3:0:0:0:
347,118,40883,38,0,L|340:177,1,59.5000011348725,8|0,3:1|0:0,0:0:0:0:
323,251,41133,1,8,3:3:0:0:
231,306,41258,2,0,L|220:211,1,59.5000011348725,8|0,3:1|0:0,0:0:0:0:
215,173,41508,1,8,3:3:0:0:
265,99,41633,6,0,P|212:56|141:42,1,119.000002269745,14|0,2:3|0:0,0:0:0:0:
133,44,41945,2,0,L|151:-1,3,29.7500005674362,0|0|0|8,3:0|3:0|3:1|3:1,0:0:0:0:
49,49,42258,1,0,3:0:0:0:
5,120,42383,1,0,3:0:0:0:
29,199,42508,1,0,3:0:0:0:
102,238,42633,2,0,P|165:232|227:180,1,119.000002269745,10|0,2:3|0:0,2:0:0:0:
294,182,43008,37,2,3:0:0:0:
275,177,43070,1,0,3:0:0:0:
256,172,43133,1,8,3:1:0:0:
451,225,43383,1,0,3:0:0:0:
302,378,43633,37,2,3:0:0:0:
274,315,43758,1,0,3:0:0:0:
273,237,43883,1,0,3:0:0:0:
317,150,44008,1,0,3:0:0:0:
416,96,44133,1,10,3:1:0:0:
273,237,44383,38,2,P|87:224|49:-2,1,420.000016021729,10|0,2:3|0:0,0:0:0:0:
138,19,45008,1,8,3:1:0:0:
121,107,45133,1,8,3:1:0:0:
156,190,45258,1,0,3:0:0:0:
227,244,45383,1,0,3:0:0:0:
316,255,45508,1,0,3:0:0:0:
392,215,45633,22,0,P|393:179|372:129,1,70,14|0,2:3|0:0,2:0:0:0:
270,46,45883,2,0,P|238:42|191:59,1,70,2|0,3:0|2:0,2:0:0:0:
102,162,46133,2,0,P|98:192|115:239,1,70,10|0,3:1|0:0,2:0:0:0:
221,330,46383,2,0,P|251:332|298:315,1,70,2|0,3:0|0:0,2:0:0:0:
392,215,46633,1,8,2:3:0:0:
199,139,46883,21,2,3:0:0:0:
182,162,46945,1,0,3:0:0:0:
178,192,47008,1,0,3:0:0:0:
184,220,47070,1,0,3:0:0:0:
202,243,47133,1,8,3:1:0:0:
318,176,47383,1,0,3:0:0:0:
470,242,47633,54,0,P|462:298|429:343,1,105.000004005432,14|0,0:3|0:0,0:0:0:0:
416,353,48008,2,0,P|372:355|333:339,1,83.9999974365235,0|0,3:0|0:0,0:0:0:0:
317,323,48383,2,0,P|304:263|315:213,1,97.9999970092774,10|0,0:3|0:0,0:0:0:0:
382,155,49133,21,8,0:1:0:0:
352,126,49258,1,8,0:1:0:0:
277,141,49383,1,8,0:1:0:0:
211,89,49508,1,8,0:1:0:0:
124,111,49633,1,8,0:1:0:0:
478,273,50383,6,0,L|414:278,1,35,0|0,3:0|3:0,0:0:0:0:
413,280,50633,1,2,3:0:0:0:
280,288,50883,38,0,L|284:264,3,17.5,0|0|0|0,3:0|3:0|3:0|0:0,0:0:0:0:
273,356,51133,1,8,3:1:0:0:
151,350,51383,37,0,3:0:0:0:
177,199,51633,1,10,0:3:0:0:
333,184,52008,6,0,L|360:181,1,17.5,0|0,3:0|3:0,0:0:0:0:
340,203,52133,2,0,L|419:209,1,70,2|0,3:0|0:0,0:0:0:0:
495,220,52633,1,2,3:0:0:0:
267,264,53133,21,8,0:1:0:0:
177,199,53383,2,0,L|173:168,3,17.5,0|0|0|0,3:0|3:0|3:0|3:0,0:0:0:0:
98,219,53633,1,10,3:0:0:0:
46,56,54383,5,2,3:0:0:0:
35,68,54508,1,0,3:0:0:0:
32,86,54633,1,0,3:0:0:0:
129,80,54883,5,2,3:0:0:0:
117,104,55133,1,8,3:1:0:0:
120,133,55383,1,0,3:0:0:0:
215,80,55633,5,10,3:0:0:0:
206,121,56008,1,0,3:0:0:0:
223,163,56383,1,0,3:0:0:0:
335,272,56883,21,2,0:3:0:0:
218,325,57133,1,8,0:1:0:0:
218,325,57258,2,0,P|178:317|133:321,1,70,10|0,0:3|0:0,0:0:0:0:
99,340,57633,6,0,P|46:277|33:203,1,140,14|0,0:3|0:0,0:0:0:0:
134,94,58383,38,0,L|138:70,3,17.5,0|0|0|0,3:0|3:0|3:0|3:0,0:0:0:0:
111,178,58633,1,2,3:0:0:0:
180,223,58883,37,0,3:0:0:0:
245,174,59133,1,10,0:1:0:0:
216,97,59383,1,0,3:0:0:0:
313,24,59633,1,10,0:3:0:0:
416,86,59883,1,0,3:0:0:0:
400,176,60133,6,0,L|375:172,2,23.3333333333333,0|0|0,3:0|3:0|3:0,0:0:0:0:
443,181,60383,1,2,3:0:0:0:
332,261,60883,37,2,3:0:0:0:
276,188,61133,1,8,0:1:0:0:
188,162,61383,1,0,3:0:0:0:
100,185,61633,1,10,0:3:0:0:
36,249,61883,38,0,L|22:229,3,17.5,0|0|0|0,3:0|3:0|3:0|0:0,0:0:0:0:
88,306,62133,1,2,3:0:0:0:
175,330,62383,37,0,3:0:0:0:
263,310,62633,1,2,3:3:0:0:
330,249,62883,1,0,3:0:0:0:
350,160,63133,1,8,0:1:0:0:
322,73,63383,1,0,3:0:0:0:
266,189,63633,6,0,P|274:232|293:260,1,70,10|0,0:3|0:0,2:0:0:0:
309,271,64008,2,0,P|335:282|365:286,1,48.9999985046387,0|0,3:0|0:0,2:0:0:0:
388,286,64383,2,0,P|473:198|458:91,1,209.999993591309,10|0,0:3|0:0,2:0:0:0:
420,57,65133,21,8,0:1:0:0:
356,23,65258,2,0,L|335:27,5,20.9999993591309,8|0|0|0|0|0,0:3|0:0|0:0|0:0|0:0|0:0,0:0:0:0:
301,112,65633,6,0,P|218:25|113:18,1,210.000008010865,14|8,2:3|0:1,0:0:0:0:
1,119,66383,1,0,3:0:0:0:
66,267,66633,1,2,3:0:0:0:
59,304,66758,1,8,2:1:0:0:
211,178,67008,37,2,3:3:0:0:
230,183,67071,1,0,3:3:0:0:
249,188,67133,1,8,3:1:0:0:
208,328,67383,53,0,3:0:0:0:
345,369,67633,2,0,B|384:372|416:349|416:349|421:299|369:271,1,167.999994873047,2|8,3:0|0:1,0:0:0:0:
324,211,68383,2,0,P|363:197|406:202,1,83.9999974365235,2|0,0:3|0:3,0:0:0:0:
475,237,68758,21,8,2:1:0:0:
483,205,68883,1,10,2:3:0:0:
382,52,69133,1,8,2:1:0:0:
390,20,69258,1,10,2:3:0:0:
231,113,69508,1,8,0:3:0:0:
165,112,69633,6,0,P|238:44|386:41,1,210.000008010865,14|8,2:3|0:1,0:0:0:0:
389,195,70383,1,0,3:0:0:0:
258,267,70633,2,0,P|205:271|154:261,1,105.000004005432,2|0,3:0|0:0,0:0:0:0:
104,198,71008,37,2,3:0:0:0:
109,217,71071,1,0,3:0:0:0:
114,236,71133,1,8,3:1:0:0:
15,169,71383,37,0,3:0:0:0:
169,125,71633,2,0,P|210:132|248:150,1,83.9999974365235,10|0,2:3|0:0,0:0:0:0:
282,188,72008,1,2,0:0:0:0:
282,188,72133,1,8,0:1:0:0:
415,213,72383,2,0,P|429:252|432:294,1,83.9999974365235,10|0,0:3|0:0,0:0:0:0:
417,346,72758,37,0,3:1:0:0:
378,378,72883,1,8,3:1:0:0:
327,375,73008,1,0,3:1:0:0:
299,332,73133,1,8,3:1:0:0:
241,366,73258,1,0,3:0:0:0:
165,367,73383,1,0,3:0:0:0:
83,324,73508,1,0,3:0:0:0:
43,215,73633,6,0,P|86:126|190:65,1,210.000008010865,14|8,0:3|0:1,0:0:0:0:
327,105,74383,1,0,3:0:0:0:
371,244,74633,1,2,3:0:0:0:
411,254,74758,1,8,2:1:0:0:
468,136,75008,37,2,3:0:0:0:
487,141,75071,1,0,3:0:0:0:
506,146,75133,1,8,3:1:0:0:
417,0,75383,53,0,3:0:0:0:
313,65,75633,2,0,P|261:72|210:55,1,105.000004005432,2|0,3:0|3:0,0:0:0:0:
170,55,76008,2,0,P|200:54|226:59,1,41.9999987182618,0|8,3:0|0:1,0:0:0:0:
322,150,76383,2,0,P|311:196|324:270,1,94.499997116089,2|0,3:0|0:0,0:0:0:0:
325,262,76883,2,0,L|380:266,1,41.9999987182618,8|8,0:3|0:3,0:0:0:0:
344,342,77133,2,0,L|375:337,2,31.4999990386963,8|8|0,0:1|0:3|0:0,0:0:0:0:
180,375,77508,1,8,0:1:0:0:
180,375,77633,54,0,P|129:367|65:317,1,132.999996448517,14|0,3:3|3:0,0:0:0:0:
185,67,78133,2,0,P|236:75|300:125,1,132.999996448517,10|0,3:1|3:0,0:0:0:0:
65,318,78633,1,8,2:3:0:0:
90,133,78883,21,2,3:0:0:0:
118,131,78945,1,0,3:0:0:0:
146,141,79008,2,0,L|202:171,1,66.4999982242585,0|8,3:0|0:1,0:0:0:0:
194,322,79383,1,0,3:0:0:0:
322,266,79633,54,0,P|339:311|361:338,1,83.9999974365235,10|0,0:3|0:0,0:0:0:0:
432,369,80008,1,8,0:1:0:0:
477,360,80133,1,8,0:1:0:0:
505,335,80258,1,8,0:1:0:0:
512,314,80383,2,0,P|486:257|486:207,1,97.9999970092774,10|0,0:3|0:0,0:0:0:0:
496,109,81133,21,8,0:1:0:0:
432,84,81258,1,8,0:1:0:0:
375,126,81383,1,8,0:1:0:0:
310,103,81508,1,8,0:1:0:0:
252,146,81633,6,0,P|212:81|85:40,1,210.000008010865,14|8,2:3|0:1,0:0:0:0:
0,158,82383,1,0,3:0:0:0:
96,269,82633,1,2,3:0:0:0:
87,307,82758,1,8,0:1:0:0:
260,310,83008,37,2,3:0:0:0:
261,328,83071,1,0,3:0:0:0:
263,348,83133,1,8,3:1:0:0:
383,228,83383,53,0,3:0:0:0:
429,342,83633,2,0,B|438:365|466:384|466:384|519:354|508:281,1,167.999994873047,2|8,3:0|0:1,0:0:0:0:
383,228,84383,2,0,P|423:237|462:223,1,83.9999974365235,10|0,0:3|0:0,0:0:0:0:
501,130,84758,21,8,0:1:0:0:
496,158,84883,1,10,0:3:0:0:
334,43,85133,1,8,0:1:0:0:
329,71,85258,1,10,0:3:0:0:
150,146,85508,1,8,0:3:0:0:
78,134,85633,6,0,P|116:88|258:44,1,210.000008010865,14|8,2:3|0:1,0:0:0:0:
349,178,86383,1,0,3:0:0:0:
272,320,86633,2,0,P|217:326|165:309,1,105.000004005432,2|0,3:0|0:0,0:0:0:0:
127,244,87008,37,2,3:0:0:0:
130,262,87071,1,0,3:0:0:0:
133,282,87133,1,8,3:1:0:0:
8,293,87383,37,0,3:0:0:0:
0,132,87633,2,0,P|2:91|14:51,1,83.9999974365235,2|0,3:0|3:0,0:0:0:0:
69,6,88008,1,0,3:0:0:0:
139,2,88133,1,8,3:1:0:0:
199,22,88258,1,0,3:0:0:0:
242,57,88383,1,0,3:0:0:0:
267,91,88508,1,0,3:0:0:0:
278,114,88633,1,10,3:0:0:0:
103,301,88883,38,0,L|88:234,1,59.5000011348725,8|0,3:1|0:0,0:0:0:0:
75,168,89133,1,8,3:3:0:0:
171,173,89258,2,0,L|181:104,1,59.5000011348725,8|0,3:1|0:0,0:0:0:0:
191,34,89508,1,8,3:3:0:0:
252,119,89633,6,0,P|305:75|376:61,1,119.000002269745,14|0,2:3|0:0,0:0:0:0:
383,63,89945,2,0,L|363:15,3,29.7500005674362,0|0|0|8,3:0|3:0|3:1|3:1,0:0:0:0:
457,89,90258,1,0,3:0:0:0:
510,150,90383,1,0,3:0:0:0:
501,231,90508,1,0,3:0:0:0:
435,283,90633,2,0,P|371:288|301:247,1,119.000002269745,10|0,2:3|0:0,2:0:0:0:
286,230,91008,37,2,3:0:0:0:
268,233,91071,1,0,3:0:0:0:
248,236,91133,1,8,3:1:0:0:
207,371,91383,1,0,3:0:0:0:
53,384,91633,37,2,3:0:0:0:
25,321,91758,1,0,3:0:0:0:
24,243,91883,1,0,3:0:0:0:
68,156,92008,1,0,3:0:0:0:
167,102,92133,1,10,3:1:0:0:
235,323,92383,38,2,P|80:218|160:4,1,420.000016021729,10|0,2:3|0:0,0:0:0:0:
270,6,93008,1,8,3:1:0:0:
211,73,93133,1,8,3:1:0:0:
200,163,93258,1,0,3:0:0:0:
234,245,93383,1,0,3:0:0:0:
306,299,93508,1,0,3:0:0:0:
394,295,93633,22,0,P|413:264|418:210,1,70,14|0,2:3|0:0,2:0:0:0:
374,87,93883,2,0,P|337:64|293:63,1,70,2|0,3:0|0:0,0:0:0:0:
167,107,94133,2,0,P|144:143|143:187,1,70,10|0,3:1|0:0,0:0:0:0:
186,314,94383,2,0,P|222:336|266:337,1,70,2|0,3:0|0:0,2:0:0:0:
394,295,94633,1,8,2:3:0:0:
238,151,94883,21,2,3:0:0:0:
221,175,94945,1,0,3:0:0:0:
216,205,95008,1,0,3:0:0:0:
223,233,95070,1,0,3:0:0:0:
241,256,95133,1,8,3:1:0:0:
369,187,95383,1,0,3:0:0:0:
494,262,95633,54,0,P|487:304|442:359,1,105.000004005432,10|0,0:3|0:0,0:0:0:0:
413,373,96008,2,0,P|369:363|333:335,1,83.9999974365235,0|0,3:0|0:0,0:0:0:0:
310,320,96383,2,0,P|318:261|306:204,1,97.9999970092774,10|0,0:3|0:0,0:0:0:0:
291,37,97133,22,0,L|295:9,3,17.5,0|0|0|0,3:0|0:0|0:0|0:0,0:0:0:0:
332,57,97383,2,0,L|336:29,3,17.5,0|0|0|0,3:0|0:0|0:0|0:0,0:0:0:0:
395,90,97633,5,10,0:3:0:0:
419,185,97883,1,0,3:0:0:0:
380,275,98133,1,0,3:0:0:0:
285,306,98383,1,0,3:0:0:0:
195,265,98633,1,0,3:0:0:0:
194,133,98883,37,2,3:0:0:0:
213,140,98945,1,0,3:0:0:0:
229,154,99008,1,0,3:0:0:0:
236,172,99070,1,0,3:0:0:0:
238,193,99133,1,0,3:0:0:0:
112,227,99383,1,0,3:0:0:0:
8,301,99633,5,2,0:0:0:0:
23,197,100008,1,2,0:0:0:0:
114,189,100383,38,0,B|169:152|169:152|169:289|228:248|179:216|224:191|171:149|253:212|253:212|301:179|254:211|294:266|338:223|301:179|338:223|377:273|377:273|376:173|418:180|427:212|380:227|459:278,1,630,2|0,0:3|0:0,0:0:0:0:
